#VERSION:0.83;
#TITLE:+New Adventure;
#SUBTITLE:;
#ARTIST:Complexities of Sound;
#TITLETRANSLIT:;
#SUBTITLETRANSLIT:;
#ARTISTTRANSLIT:;
#GENRE:;
#ORIGIN:;
#CREDIT:;
#BANNER:BN.png;
#BACKGROUND:BG.png;
#PREVIEWVID:;
#JACKET:jacket.png;
#CDIMAGE:;
#DISCIMAGE:;
#LYRICSPATH:;
#CDTITLE:;
#MUSIC:New Adventure.ogg;
#OFFSET:-0.158000;
#SAMPLESTART:62.962658;
#SAMPLELENGTH:14.999991;
#SELECTABLE:YES;
#BPMS:0.000=166.000;
#STOPS:;
#DELAYS:;
#WARPS:;
#TIMESIGNATURES:0.000=4=4;
#TICKCOUNTS:0.000=4;
#COMBOS:0.000=1;
#SPEEDS:0.000=1.000=0.000=0;
#SCROLLS:0.000=1.000;
#FAKES:;
#LABELS:0.000=Song Start;
#BGCHANGES:;
#KEYSOUNDS:;
#ATTACKS:
;

//---------------dance-single - ----------------
#NOTEDATA:;
#CHARTNAME:;
#STEPSTYPE:dance-single;
#DESCRIPTION:;
#CHARTSTYLE:;
#DIFFICULTY:Hard;
#METER:14;
#RADARVALUES:0.624641,0.736358,0.781631,0.758414,0.092867,565.000000,464.000000,101.000000,98.000000,0.000000,0.000000,0.000000,0.000000,0.000000,0.624641,0.736358,0.781631,0.758414,0.092867,565.000000,464.000000,101.000000,98.000000,0.000000,0.000000,0.000000,0.000000,0.000000;
#CREDIT:Rajeious's Chart;
#NOTES:
// measure 0
0000
0000
2000
3000
0100
0010
0002
0003
,  // measure 1
0002
0003
0010
0100
2000
3000
2000
3000
,  // measure 2
0010
0100
0020
0030
2000
3000
0200
0300
,  // measure 3
0020
0030
0002
0003
0100
0010
2000
3000
,  // measure 4
2000
3000
0001
0100
0020
0030
0020
0030
,  // measure 5
1000
0001
0200
0300
0002
0003
0020
0030
,  // measure 6
0200
0300
2000
3000
0001
0010
0002
0003
,  // measure 7
0002
0003
1000
0100
0020
0030
0020
0030
,  // measure 8
0001
0010
0200
0300
0200
0300
2000
3000
,  // measure 9
0002
0003
0002
0003
1000
0001
0200
0300
,  // measure 10
0020
0030
2000
3000
0002
0003
0020
0030
,  // measure 11
0002
0003
2000
3000
1100
0000
0000
0000
,  // measure 12
0000
0000
0000
0000
,  // measure 13
0000
0000
0000
1100
,  // measure 14
0001
0010
1000
0010
0002
0003
1000
0100
,  // measure 15
0001
0100
2000
3000
0002
0013
0200
0300
,  // measure 16
1100
0011
0110
1001
,  // measure 17
0100
0010
1000
0100
2000
3000
0200
0300
,  // measure 18
0020
0031
2000
3000
0001
0010
0001
0100
,  // measure 19
0110
0010
1000
0001
0010
0001
1001
0000
,  // measure 20
1000
0100
0001
0100
0020
0030
0001
0010
,  // measure 21
1000
0010
0200
0300
2000
3000
0002
0003
,  // measure 22
0101
0001
0100
0010
1000
0100
1100
0000
,  // measure 23
0001
0010
0100
0010
0002
0003
2000
3000
,  // measure 24
0020
0030
1001
0000
0110
0000
1010
0000
,  // measure 25
0101
0000
0200
0300
0001
1000
0002
0000
,  // measure 26
0013
0100
1000
0000
1002
0000
1003
0001
,  // measure 27
0100
0000
0120
0000
1030
0100
0010
0000
,  // measure 28
0012
0000
1003
0010
0100
0001
0200
0000
,  // measure 29
0301
0010
0100
0010
0002
0000
1003
0100
,  // measure 30
1000
0000
0021
0000
0031
0010
0100
0000
,  // measure 31
1000
0100
1000
0000
0001
1000
0001
0000
0100
0010
0100
0000
0002
0000
0000
0000
,  // measure 32
1003
0010
1000
0000
0102
0000
0103
0001
,  // measure 33
1000
0000
2001
0000
3001
0100
0010
0000
,  // measure 34
2100
0000
3001
0100
0010
1000
0001
0010
,  // measure 35
0100
0010
0001
1000
0002
0003
0020
0030
,  // measure 36
0200
0300
1001
0000
0110
0000
1010
0000
,  // measure 37
0101
0000
0200
0300
0020
0030
2001
3000
,  // measure 38
0000
0001
0020
0030
2100
3000
0000
1000
,  // measure 39
0020
0030
0210
0300
0000
1000
0002
0003
,  // measure 40
0201
0300
0020
0030
0200
0300
2010
3000
,  // measure 41
0000
0001
0020
0030
1002
0003
0200
0300
,  // measure 42
0020
0030
0011
0000
1100
0000
0101
0000
,  // measure 43
1010
0000
0000
2001
,  // measure 44
3010
0000
0100
0000
0001
0000
0100
0000
0001
0000
1000
0010
1000
0000
0001
0100
,  // measure 45
0001
1000
0020
0000
0130
0001
1000
0100
,  // measure 46
2000
0000
3100
0010
0001
0010
0200
0000
,  // measure 47
1300
0000
0010
0000
1000
0000
0001
0000
0100
0000
0010
0100
0010
0000
1000
0001
,  // measure 48
1000
0001
0020
0000
0031
0010
0100
1000
,  // measure 49
0001
0010
0001
0000
1000
0100
1000
0000
0010
0100
0010
0000
2000
0000
0000
0000
,  // measure 50
3001
0010
0100
0010
0002
0000
1003
0100
,  // measure 51
0001
0000
0100
0000
1000
0000
0001
0100
0001
0000
1000
0010
1000
0000
0001
0000
,  // measure 52
0020
0000
0031
0010
0001
1000
0002
0000
,  // measure 53
0013
0000
0001
0000
0100
0000
0001
0000
1000
0000
0010
0100
0010
0000
1000
0001
,  // measure 54
1000
0001
0010
0000
1001
0000
0110
0000
,  // measure 55
1001
0000
0000
0000
0010
0000
1000
0000
0100
0000
1000
0000
0001
0000
0010
0001
,  // measure 56
0010
0000
0100
0000
0010
0000
0100
0000
1000
0000
0100
1000
0100
0000
1000
0000
,  // measure 57
0100
0010
0012
0000
2003
0000
3010
0100
,  // measure 58
0001
0000
1000
0010
1000
0000
0001
0000
0100
0010
0100
0000
0002
0000
0000
0000
,  // measure 59
1003
0000
0100
0000
0010
0000
0100
0000
1000
0000
0001
0010
0001
0000
1000
0100
,  // measure 60
1000
0001
0201
0000
0301
1000
0100
1000
,  // measure 61
0001
0000
0010
0000
1000
0000
0010
0000
0001
0000
1000
0000
0001
0000
0100
0010
,  // measure 62
0100
0000
0010
0000
0100
0000
0001
0000
1000
0000
0100
1000
0100
0000
1000
0000
,  // measure 63
0100
0010
0012
0000
2003
0000
3001
0010
,  // measure 64
0100
0000
0010
0100
0010
0000
0100
0000
1000
0001
1000
0000
0002
0000
0000
0000
,  // measure 65
1003
0100
0001
0100
2000
0000
3001
0010
,  // measure 66
0001
0000
1100
0000
0011
0000
0100
0010
,  // measure 67
1001
0000
0000
0000
0000
0000
0110
0110
,  // measure 68
0000
0000
0000
0000
1001
1001
0000
0000
,  // measure 69
0000
0000
1100
1100
0000
0000
0000
0000
,  // measure 70
0011
0011
0000
0000
0000
0000
0101
0101
,  // measure 71
0000
0000
0000
0000
1010
1010
0000
0000
,  // measure 72
0000
1001
0110
1010
,  // measure 73
0101
0000
1100
0000
1001
0000
0011
0011
,  // measure 74
0000
0000
0000
0000
0110
0110
0000
0000
,  // measure 75
0000
0000
1010
1010
0000
0000
0000
0000
,  // measure 76
1100
1100
0000
0000
0000
0000
1001
1001
,  // measure 77
0000
0000
0000
0000
0011
0011
0000
0000
,  // measure 78
0000
0110
0000
0000
,  // measure 79
1001
0000
0000
0110
,  // measure 80
0000
0000
0101
0000
,  // measure 81
0000
1001
1001
1010
,  // measure 82
0101
0101
0110
1100
,  // measure 83
0011
0110
1100
1001
,  // measure 84
0011
0000
1100
0000
1100
0000
1001
0001
,  // measure 85
0011
0000
0011
0000
1001
1000
1100
0000
,  // measure 86
0101
0001
1001
1000
1010
0000
0000
0000
;

//---------------dance-single - ----------------
#NOTEDATA:;
#CHARTNAME:;
#STEPSTYPE:dance-single;
#DESCRIPTION:;
#CHARTSTYLE:;
#DIFFICULTY:Medium;
#METER:10;
#RADARVALUES:0.419007,0.468592,0.402424,0.417902,0.000000,379.000000,327.000000,52.000000,54.000000,0.000000,0.000000,0.000000,0.000000,0.000000,0.419007,0.468592,0.402424,0.417902,0.000000,379.000000,327.000000,52.000000,54.000000,0.000000,0.000000,0.000000,0.000000,0.000000;
#CREDIT:Rajeious's Chart;
#NOTES:
// measure 0
0000
2000
0010
3010
,  // measure 1
0200
0001
0301
2000
,  // measure 2
0100
3100
1000
0010
,  // measure 3
0100
0002
1000
1003
,  // measure 4
0002
0100
0103
2000
,  // measure 5
0100
3100
0010
0001
,  // measure 6
0010
0200
0001
0301
,  // measure 7
2000
0100
3100
2000
,  // measure 8
0001
3001
0010
0100
,  // measure 9
1000
0200
1000
1300
,  // measure 10
0010
0100
0010
1000
,  // measure 11
0001
0100
0101
0000
,  // measure 12
0000
0000
0000
0000
,  // measure 13
0000
0000
0000
1001
,  // measure 14
1000
0010
0100
0000
0001
0000
1000
0000
,  // measure 15
0100
1000
0010
0100
,  // measure 16
0001
0010
0100
1000
,  // measure 17
0001
0010
0001
0000
1000
0000
1000
0000
,  // measure 18
0010
0000
0100
0000
0001
1000
0000
1000
,  // measure 19
0001
0000
1000
0010
1000
0000
0010
0000
,  // measure 20
0100
0010
1000
0000
0001
0000
0010
0000
,  // measure 21
0100
1000
0001
0100
,  // measure 22
0001
1000
0100
0010
,  // measure 23
0100
1000
0001
0000
1000
0000
1000
0000
,  // measure 24
0010
0100
0001
1000
,  // measure 25
0001
1000
0010
1010
,  // measure 26
1000
0100
0010
0000
0001
0000
0010
0100
,  // measure 27
1000
1001
0001
0100
,  // measure 28
0010
0000
1000
0001
1000
0000
0110
0000
,  // measure 29
0001
1000
0001
0000
1000
0000
0100
0000
,  // measure 30
0010
0000
1001
0000
1000
0010
0100
0000
,  // measure 31
0001
0100
0001
1001
,  // measure 32
1000
0010
0100
0000
0001
0000
0001
0100
,  // measure 33
0010
1010
1000
0001
,  // measure 34
0100
0000
0001
0010
0100
0000
1100
0000
,  // measure 35
1000
0100
0010
0000
1000
0000
0001
0000
,  // measure 36
1000
0110
0100
0001
,  // measure 37
1001
0010
0100
1001
,  // measure 38
0000
0000
1010
0000
,  // measure 39
0000
0101
0000
0000
,  // measure 40
1100
0000
0000
0011
,  // measure 41
0000
0000
1001
0000
,  // measure 42
0000
0010
1000
0010
,  // measure 43
1001
0000
0000
2000
,  // measure 44
3001
0100
0020
0000
0230
0000
0310
1000
,  // measure 45
0002
0023
0230
2300
,  // measure 46
3020
0000
0100
0000
1030
0001
2000
0000
,  // measure 47
3001
0010
0002
0000
2003
0000
3002
0000
,  // measure 48
0203
2300
3200
0302
,  // measure 49
1003
0010
0000
0010
1000
0000
0002
0000
,  // measure 50
0013
0001
2000
0000
3002
0000
0103
0010
,  // measure 51
0200
0302
2003
3020
,  // measure 52
0230
0000
0001
0000
0310
1000
0020
0000
,  // measure 53
0130
0001
0200
0000
0302
0000
0023
0000
,  // measure 54
0031
0101
0020
1030
,  // measure 55
2100
0001
0100
3010
,  // measure 56
0001
1000
0010
0000
1001
0000
0100
0001
,  // measure 57
1000
2000
3200
0320
,  // measure 58
0032
0000
1003
0100
1000
0000
1001
0000
,  // measure 59
0001
0010
0001
0000
0200
0000
0320
0000
,  // measure 60
1030
0000
1100
0000
1000
0001
0100
0000
,  // measure 61
0001
1000
0000
1000
0001
0000
0101
0000
,  // measure 62
0100
0010
1000
0000
1001
0000
0010
0100
,  // measure 63
0010
2000
3200
0320
,  // measure 64
0032
0000
1003
0001
0100
0000
1001
0000
,  // measure 65
0001
1000
0010
0000
0002
0000
2003
0000
,  // measure 66
3100
0000
0110
0000
0001
1000
0001
0000
,  // measure 67
1001
0100
0001
0110
,  // measure 68
0000
0000
0101
0000
,  // measure 69
0000
1010
0000
0000
,  // measure 70
1001
0000
0000
0110
,  // measure 71
0000
0000
0101
0000
,  // measure 72
0000
1010
0100
0001
,  // measure 73
0010
0010
0100
1001
,  // measure 74
0000
0000
1010
0000
,  // measure 75
0000
0011
0000
0000
,  // measure 76
0110
0000
0000
1001
,  // measure 77
0000
0000
0101
0000
,  // measure 78
0000
1010
0000
0000
,  // measure 79
0002
0000
0003
0110
,  // measure 80
0000
0000
0200
0000
,  // measure 81
0300
1001
0010
0100
,  // measure 82
1001
0100
0010
1001
,  // measure 83
0100
0010
0100
1000
,  // measure 84
0001
0011
0100
1000
,  // measure 85
0110
0001
0010
1100
,  // measure 86
0011
1100
0011
0000
;

//---------------dance-single - ----------------
#NOTEDATA:;
#CHARTNAME:;
#STEPSTYPE:dance-single;
#DESCRIPTION:;
#CHARTSTYLE:;
#DIFFICULTY:Easy;
#METER:5;
#RADARVALUES:0.281918,0.334708,0.123823,0.208951,0.000000,255.000000,239.000000,16.000000,27.000000,0.000000,0.000000,0.000000,0.000000,0.000000,0.281918,0.334708,0.123823,0.208951,0.000000,255.000000,239.000000,16.000000,27.000000,0.000000,0.000000,0.000000,0.000000,0.000000;
#CREDIT:Rajeious's Chart;
#NOTES:
// measure 0
0000
0010
0000
0000
,  // measure 1
1000
0000
0000
0001
,  // measure 2
0000
0000
1000
0100
,  // measure 3
0010
0001
0000
0000
,  // measure 4
0100
0000
0000
1000
,  // measure 5
0000
0000
0001
0010
,  // measure 6
0100
1000
0000
0000
,  // measure 7
0010
0000
0000
1000
,  // measure 8
0000
0000
0001
0100
,  // measure 9
0001
1000
0000
0000
,  // measure 10
0010
1000
0001
1000
,  // measure 11
0000
0010
0100
0000
,  // measure 12
0000
0000
0000
0000
,  // measure 13
0000
0000
0000
1000
,  // measure 14
0000
0000
0001
0000
,  // measure 15
0000
1000
0001
1000
,  // measure 16
0010
0100
0001
1000
,  // measure 17
0000
0000
0001
0010
,  // measure 18
0100
1000
0000
0000
,  // measure 19
0001
1000
0100
0010
,  // measure 20
0000
0000
1000
0000
,  // measure 21
0000
0001
1000
0100
,  // measure 22
0010
0100
1000
0001
,  // measure 23
0000
0010
1000
0001
,  // measure 24
0100
0010
0100
0001
,  // measure 25
1000
0000
0000
0002
,  // measure 26
0000
1003
0020
0000
,  // measure 27
0030
0100
0001
1000
,  // measure 28
0010
0100
0001
2000
,  // measure 29
0000
3001
0020
0000
,  // measure 30
0130
0100
1000
0001
,  // measure 31
0010
0100
0010
0002
,  // measure 32
0000
1003
0020
0000
,  // measure 33
0130
0001
0100
0010
,  // measure 34
1000
0001
1000
0020
,  // measure 35
0000
0130
0100
0001
,  // measure 36
1000
0010
0100
0001
,  // measure 37
1000
0001
0010
0100
,  // measure 38
0000
0000
0001
0000
,  // measure 39
0000
1000
0000
0000
,  // measure 40
0010
0000
0000
0100
,  // measure 41
0000
0000
0001
0000
,  // measure 42
0000
1000
0001
1000
,  // measure 43
0001
0000
0000
0010
,  // measure 44
0010
0100
0100
0001
,  // measure 45
1000
0010
0100
0001
,  // measure 46
2000
0000
3001
0200
,  // measure 47
0000
0310
0100
0001
,  // measure 48
0010
0100
1000
0001
,  // measure 49
1000
0001
0100
0020
,  // measure 50
0000
1030
0002
0000
,  // measure 51
0103
0010
1000
0001
,  // measure 52
0020
0000
0031
0200
,  // measure 53
0000
0301
1000
0010
,  // measure 54
0100
0001
1000
0001
,  // measure 55
1001
0000
0000
0110
,  // measure 56
0000
0001
0101
0000
,  // measure 57
0001
1000
0010
0100
,  // measure 58
0101
0000
0000
1001
,  // measure 59
0000
0100
0110
0000
,  // measure 60
0001
1001
0000
0001
,  // measure 61
0010
0100
1000
1001
,  // measure 62
0000
0100
0110
0000
,  // measure 63
0010
0100
0001
1000
,  // measure 64
0101
0000
1000
1001
,  // measure 65
0000
1000
0010
0100
,  // measure 66
0001
1000
0001
1000
,  // measure 67
1010
0000
0000
0020
,  // measure 68
0000
1030
2000
0000
,  // measure 69
3001
0002
0000
0103
,  // measure 70
0200
0000
0310
0020
,  // measure 71
0000
1030
2000
0000
,  // measure 72
3001
1001
1000
0100
,  // measure 73
1000
0100
0010
0020
,  // measure 74
0000
0031
0002
0000
,  // measure 75
0013
0020
0000
0130
,  // measure 76
0200
0000
1300
2000
,  // measure 77
0000
3001
0002
0000
,  // measure 78
1003
1001
0000
0000
,  // measure 79
0020
0000
0030
1001
,  // measure 80
0000
0000
0200
0000
,  // measure 81
0300
0001
0001
0010
,  // measure 82
0100
0100
1000
0010
,  // measure 83
0100
0001
0010
0001
,  // measure 84
0010
0100
0100
0010
,  // measure 85
0001
0001
1000
0100
,  // measure 86
0100
1000
1001
0000
;
