#TITLE:Minimum;
#SUBTITLE:;
#ARTIST:MIMI feat. wonko;
#TITLETRANSLIT:;
#SUBTITLETRANSLIT:;
#ARTISTTRANSLIT:;
#GENRE:;
#CREDIT:;
#BANNER:MINIMUM-bn.png;
#BACKGROUND:Minimum-bg.png;
#LYRICSPATH:;
#CDTITLE:;
#MUSIC:audio.ogg;
#OFFSET:-0.066000;
#SAMPLESTART:45.688992;
#SAMPLELENGTH:14.999995;
#SELECTABLE:YES;
#BPMS:0.000000=202.000000
;
#STOPS:
;
#BGCHANGES:0.000=Minimum.avi=1.000=1=0=0=StretchNoLoop==CrossFade==,
99999=-nosongbg-=1.000=0=0=0 // don't automatically add -songbackground-
;
#KEYSOUNDS:;
#ATTACKS:;

//---------------dance-single - ----------------
#NOTES:
     dance-single:
     :
     Hard:
     14:
     0.727492,0.740091,0.340860,0.756708,0.006817,747.000000,697.000000,50.000000,111.000000,0.000000,0.000000,0.727492,0.740091,0.340860,0.756708,0.006817,747.000000,697.000000,50.000000,111.000000,0.000000,0.000000:
// measure 0
0000
0000
0000
0000
,  // measure 1
0000
0000
0000
0000
,  // measure 2
0000
0000
0000
0000
,  // measure 3
0000
0000
0000
0000
,  // measure 4
0000
0002
2003
3020
,  // measure 5
0230
0000
0301
0100
0001
1000
0100
0010
,  // measure 6
0002
0000
2003
0000
3001
1000
0200
0000
,  // measure 7
2300
0000
3001
0010
0100
0010
0002
0000
,  // measure 8
0203
0000
0320
0000
0130
0001
0200
0000
,  // measure 9
0302
0000
2003
0000
3001
1000
0020
0000
,  // measure 10
0230
0000
0302
0000
1003
0100
2000
0000
,  // measure 11
3001
0010
0002
0000
1003
0000
1001
0000
,  // measure 12
0000
2000
0000
3002
,  // measure 13
0103
0001
1000
0100
1000
0001
0100
0010
,  // measure 14
0100
0010
2000
3000
0002
0000
0023
0000
,  // measure 15
0031
0010
0002
1000
1003
0001
0100
0010
,  // measure 16
0100
0010
2000
3000
0200
0000
0320
0001
,  // measure 17
0031
0010
0001
0010
0100
1000
0010
1000
,  // measure 18
0002
0100
0203
0300
0010
1000
0020
0000
,  // measure 19
0130
0001
0200
0000
0310
0000
0110
0000
,  // measure 20
0000
1000
0001
1000
0001
0000
1001
0000
,  // measure 21
1000
0100
0010
0001
1000
0000
1010
0000
,  // measure 22
0100
0001
0100
0001
1000
0000
1100
0000
,  // measure 23
0001
0100
0001
0000
1000
0000
1001
0000
,  // measure 24
0001
0100
0010
0100
0001
0000
0101
0000
,  // measure 25
1000
0100
0010
0100
1000
0000
1001
0000
,  // measure 26
0001
0100
0010
0100
0001
0000
0101
0000
,  // measure 27
1000
0010
1000
0000
0001
0000
1001
0000
,  // measure 28
1000
0000
0010
0100
0010
0100
0002
0000
,  // measure 29
2003
0000
3001
1000
0100
0010
0001
1000
,  // measure 30
0100
1000
0020
0030
0100
0010
2000
0000
,  // measure 31
3002
0000
1003
0001
0010
0100
1000
0001
,  // measure 32
1000
0010
0200
0300
0002
0000
0023
0000
,  // measure 33
0032
0003
1000
0001
1000
0100
0010
0001
,  // measure 34
0001
1000
0002
0003
0100
0010
0200
0000
,  // measure 35
0310
0100
0002
0000
1003
0001
0200
0000
,  // measure 36
0300
0000
0000
2001
,  // measure 37
3001
0120
0130
1002
,  // measure 38
0000
0000
1003
1001
,  // measure 39
0001
0100
0001
1000
0100
0010
0002
0003
,  // measure 40
1000
0100
2000
3000
0001
0100
0002
0000
,  // measure 41
1003
0001
0100
0010
1000
0001
2000
0100
,  // measure 42
3100
1000
0100
0010
0100
0010
0002
0003
,  // measure 43
1010
0000
2000
3000
0101
0000
0002
0003
,  // measure 44
1000
0001
1000
0010
0100
0010
2000
0000
,  // measure 45
3001
0000
0001
0010
0100
0010
0001
0000
,  // measure 46
1001
0000
1001
1002
,  // measure 47
1003
0001
1000
0001
0010
0100
2000
0000
,  // measure 48
3001
1000
0002
0000
0103
0001
0200
0300
,  // measure 49
0110
0000
0010
1000
0010
1000
0002
0100
,  // measure 50
0103
0001
1000
0100
1000
0000
0101
0000
,  // measure 51
0101
0000
0000
1001
,  // measure 52
1001
0000
0000
1010
,  // measure 53
1010
0000
0000
1001
,  // measure 54
0000
0000
0000
0000
0000
0000
1000
0001
,  // measure 55
1000
0001
0010
0100
1000
0010
0100
0001
,  // measure 56
0100
0001
1000
0010
0100
0010
1000
0100
,  // measure 57
0010
0001
0010
0100
1000
0001
1000
0001
,  // measure 58
0010
0100
1000
0000
0000
0000
1000
0010
,  // measure 59
0100
0001
0010
0100
1000
0100
1000
0100
,  // measure 60
0010
0001
1000
0010
0100
0010
1000
0001
,  // measure 61
1000
0001
0010
0001
0010
0100
1000
0000
,  // measure 62
0000
0000
0000
0000
0000
0000
0200
0010
,  // measure 63
0310
0100
0002
0003
0100
0010
1000
0001
,  // measure 64
0010
0001
2000
3000
0020
0000
0230
0000
,  // measure 65
0301
0100
0001
1000
0001
1000
0100
0010
,  // measure 66
0001
0010
0100
0000
0000
0000
0002
0100
,  // measure 67
0103
0001
2000
3000
0001
0100
0001
0100
,  // measure 68
0010
1000
0002
0003
0200
0000
0302
0000
,  // measure 69
1003
0001
1000
0100
0010
0001
2000
3000
,  // measure 70
0200
0300
0020
0030
0002
0003
1000
0001
,  // measure 71
1000
0010
0200
0300
0100
0020
0000
0000
,  // measure 72
0030
0000
2000
0000
3020
0030
0110
0000
,  // measure 73
0200
0000
0310
1000
0001
0010
0100
1000
,  // measure 74
0200
0300
1100
0000
2000
0001
3001
1000
,  // measure 75
0200
0300
0120
0000
0031
0010
0002
0000
,  // measure 76
0203
0300
0101
0000
1000
0001
1000
0010
,  // measure 77
0100
0001
0010
0001
1000
0010
2000
0000
,  // measure 78
3002
0003
1001
0000
0100
0010
0200
0000
,  // measure 79
0301
1002
1003
2001
,  // measure 80
3001
0000
0100
0010
0100
0000
1001
0000
,  // measure 81
1000
0100
0010
0001
1000
0001
1000
0000
,  // measure 82
1000
0010
0100
0001
1000
0001
1000
0000
,  // measure 83
1000
0000
0001
0000
0100
0000
0010
0100
0010
0000
1000
0000
0001
0000
0000
0000
,  // measure 84
0001
0100
0010
1000
0010
1000
0001
0000
,  // measure 85
0001
0010
0100
0010
0001
1000
0100
0000
,  // measure 86
0100
1000
0010
0100
0001
0100
0001
0000
,  // measure 87
0001
0000
0100
0000
0010
0000
1000
0001
1000
0000
0001
0000
0010
0000
0100
0000
,  // measure 88
1000
0001
0100
0001
0100
0010
1000
0001
,  // measure 89
1000
0010
1000
0001
1000
0001
0010
0100
,  // measure 90
0010
0001
0010
0100
0010
0100
1000
0001
,  // measure 91
1000
0100
1000
0001
1000
0001
0100
0010
,  // measure 92
0100
0001
0100
0010
0100
0010
1000
0001
,  // measure 93
1000
0100
1000
0001
1000
0001
0010
0100
,  // measure 94
0010
0001
0010
0100
0010
0100
1000
0001
,  // measure 95
0010
0100
0010
0001
1000
0010
1000
0000
,  // measure 96
0000
0000
0000
1001
,  // measure 97
0001
0100
0001
1000
0100
0010
0002
0003
,  // measure 98
1000
0100
2000
3000
0001
0100
0002
0000
,  // measure 99
1003
0001
0100
0010
1000
0001
2000
0100
,  // measure 100
3100
1000
0100
0010
0100
0010
0002
0003
,  // measure 101
1010
0000
2000
3000
0101
0000
0002
0003
,  // measure 102
1000
0001
1000
0010
0100
0010
2000
0000
,  // measure 103
3001
0000
0001
0010
0100
0010
0001
0000
,  // measure 104
1001
0000
1001
1002
,  // measure 105
1003
0001
1000
0001
0010
0100
2000
0000
,  // measure 106
3001
1000
0002
0000
0103
0001
0200
0300
,  // measure 107
0110
0000
0010
1000
0010
1000
0002
0100
,  // measure 108
0103
0001
1000
0001
0200
0000
0310
0000
,  // measure 109
0110
0010
1000
0001
2000
0000
3001
0000
,  // measure 110
1001
1000
0001
0010
0200
0000
1300
0000
,  // measure 111
1100
0100
1000
0001
0020
0000
0031
0000
,  // measure 112
2001
0000
3001
1000
0002
0000
0103
0000
,  // measure 113
1001
0000
0001
0010
0100
0010
0001
0000
,  // measure 114
1001
0000
1000
0100
0010
0100
1000
0000
,  // measure 115
1001
0000
0010
0100
0010
0100
0001
0000
,  // measure 116
0101
0100
0001
0100
0020
0000
1030
0001
,  // measure 117
0100
0001
1000
0001
0010
0100
1000
0010
,  // measure 118
0100
0001
1000
0100
0010
0001
1000
0010
,  // measure 119
0100
0001
1000
0010
0100
0001
1000
0010
,  // measure 120
0100
0001
1000
0100
0010
0001
0000
0000
;

//---------------dance-single - ----------------
#NOTES:
     dance-single:
     :
     Medium:
     10:
     0.533689,0.575030,0.299956,0.129527,0.000000,548.000000,504.000000,44.000000,19.000000,0.000000,0.000000,0.533689,0.575030,0.299956,0.129527,0.000000,548.000000,504.000000,44.000000,19.000000,0.000000,0.000000:
// measure 0
0000
0000
0000
0000
,  // measure 1
0000
0000
0000
0000
,  // measure 2
0000
0000
0000
0000
,  // measure 3
0000
0000
0000
0000
,  // measure 4
0000
1000
0010
0200
,  // measure 5
0301
0000
1000
0000
0010
0000
1000
0001
,  // measure 6
0200
0310
0010
1000
,  // measure 7
0002
0013
0001
0010
,  // measure 8
0200
1300
0010
0100
,  // measure 9
0002
0000
1003
0000
0010
0100
0002
0000
,  // measure 10
0013
0000
0100
0000
1000
0001
1000
0000
,  // measure 11
0001
1000
0001
0000
0100
0000
0020
0000
,  // measure 12
0030
0200
0000
0301
,  // measure 13
0000
1000
0010
0000
0100
0000
0001
0000
,  // measure 14
1000
0010
1000
0000
0010
0000
0100
0000
,  // measure 15
0000
0100
0001
0000
1000
0000
0010
0000
,  // measure 16
0100
0001
0100
0000
0001
0000
0100
0000
,  // measure 17
0000
0100
0010
0000
1000
0000
1000
0000
,  // measure 18
0010
0100
0001
0000
1000
0001
0100
0000
,  // measure 19
0010
1000
0001
0000
1000
0000
0010
0000
,  // measure 20
0000
0000
1000
1001
,  // measure 21
0000
0001
0000
0001
1000
0000
1010
0000
,  // measure 22
0000
0010
0000
0010
1000
0000
1001
0000
,  // measure 23
0010
0100
0010
0000
0100
0010
0100
0000
,  // measure 24
0000
0001
0000
0001
1000
0000
1100
0000
,  // measure 25
0000
0010
0000
0010
1000
0000
1001
0000
,  // measure 26
0000
1000
0000
1000
0001
0000
1001
0000
,  // measure 27
1000
0010
1000
0000
0001
0100
0001
0000
,  // measure 28
0000
1000
1000
0010
,  // measure 29
0200
0301
1000
0010
,  // measure 30
1000
0100
1000
0000
0001
0000
0200
0000
,  // measure 31
0301
1000
0010
1000
,  // measure 32
0001
0010
0100
0000
1000
0000
0200
0000
,  // measure 33
0301
0100
1000
0010
,  // measure 34
0100
0001
0100
0000
0001
0010
0100
0000
,  // measure 35
1000
0100
0010
0000
0001
1000
0001
0000
,  // measure 36
0000
0000
0000
1010
,  // measure 37
0000
0101
0000
1001
,  // measure 38
0000
0000
1000
1001
,  // measure 39
0001
1000
0010
0010
,  // measure 40
1000
0001
1000
0000
0001
0000
0100
0000
,  // measure 41
0001
0010
0100
1000
,  // measure 42
0001
0100
0010
0000
0100
0000
0002
0000
,  // measure 43
1003
2000
3001
0002
,  // measure 44
1003
0000
1000
0000
0001
0100
0001
0000
,  // measure 45
1000
0000
1000
0000
0010
0100
0010
0000
,  // measure 46
0110
0000
1000
1001
,  // measure 47
0001
0100
0010
1000
,  // measure 48
1000
0001
0100
0000
0100
0000
0001
0000
,  // measure 49
0010
0001
1000
1000
,  // measure 50
0001
0000
1000
0001
0100
0000
0010
0000
,  // measure 51
0110
0000
0000
1000
,  // measure 52
1001
0000
0000
0010
,  // measure 53
0110
0000
0000
1001
,  // measure 54
0000
0000
0000
1000
,  // measure 55
1000
0010
0100
0000
0100
0000
0001
0000
,  // measure 56
0001
1000
0010
0000
0010
0000
1000
0000
,  // measure 57
1000
0001
0010
0000
0010
0000
0001
0000
,  // measure 58
0010
0100
0000
0010
,  // measure 59
1000
0001
1000
0000
0010
0000
0100
0000
,  // measure 60
0001
1000
0001
0000
0010
0000
0100
0000
,  // measure 61
1000
0000
0010
0000
1000
0001
1000
0000
,  // measure 62
0000
0000
0000
0010
,  // measure 63
0000
0010
1000
0000
0001
0010
0100
0000
,  // measure 64
1000
0001
1000
0000
0200
0000
0310
0000
,  // measure 65
0001
1000
0001
0000
0001
1000
0000
0000
,  // measure 66
0000
0000
0000
1000
,  // measure 67
0000
1000
0001
0000
1000
0010
0100
0000
,  // measure 68
0001
0100
0010
0000
2000
0000
3001
0000
,  // measure 69
1000
0010
1000
0000
1000
0010
0000
0000
,  // measure 70
0000
0000
0000
1001
,  // measure 71
1000
0001
0000
1001
,  // measure 72
0001
1000
0000
1010
,  // measure 73
0010
1000
0000
1000
0010
0000
1001
0000
,  // measure 74
0100
0010
0000
0010
0100
0000
1001
0000
,  // measure 75
1000
0001
0000
0001
0100
0000
0101
0000
,  // measure 76
1000
0001
0000
0001
0010
0000
0011
0000
,  // measure 77
0001
1000
0000
1000
0010
0000
1010
0000
,  // measure 78
1000
0010
0000
0010
0100
0000
0101
0000
,  // measure 79
0001
0010
0000
0010
0001
0000
1001
0000
,  // measure 80
0000
0000
0010
0100
0010
0000
1001
0000
,  // measure 81
0000
0001
0000
0001
1000
0000
1001
0000
,  // measure 82
0000
0010
0000
0010
0100
0000
0110
0000
,  // measure 83
1000
0001
1000
0000
0001
1000
0001
0000
,  // measure 84
0000
0100
0000
0100
0001
0000
0101
0000
,  // measure 85
0000
1000
0000
1000
0100
0000
1100
0000
,  // measure 86
0000
0001
0000
0001
0100
0000
0101
0000
,  // measure 87
1000
0010
1000
0000
0001
0100
0001
0000
,  // measure 88
1000
0010
0100
0001
,  // measure 89
1000
0001
1000
0001
0100
0000
0010
0000
,  // measure 90
0010
0100
0001
0100
0001
0000
1000
0000
,  // measure 91
1000
0001
0010
0001
0010
0000
0100
0000
,  // measure 92
0100
1000
0001
1000
0001
0000
1000
0000
,  // measure 93
1000
0001
0100
0001
0100
0000
0010
0000
,  // measure 94
0010
1000
0001
1000
0001
0000
1000
0000
,  // measure 95
1000
0001
0010
0001
0010
0000
0010
0000
,  // measure 96
0000
0000
0000
1001
,  // measure 97
0001
1000
0010
0010
,  // measure 98
1000
0001
1000
0000
0001
0000
0100
0000
,  // measure 99
0001
0010
0100
1000
,  // measure 100
0001
0100
0010
0000
0100
0000
0002
0000
,  // measure 101
1003
2000
3001
0002
,  // measure 102
1003
0000
1000
0000
0001
0100
0001
0000
,  // measure 103
1000
0000
1000
0000
0010
0100
0010
0000
,  // measure 104
0110
0000
1000
1001
,  // measure 105
0001
0100
0010
1000
,  // measure 106
1000
0001
0100
0000
0100
0000
0001
0000
,  // measure 107
0010
0001
1000
1000
,  // measure 108
0001
0000
0001
1000
0001
0000
1000
0000
,  // measure 109
1001
0000
0010
0100
0010
0000
1000
0000
,  // measure 110
1010
0000
0001
1000
0010
0000
1000
0000
,  // measure 111
1001
0000
0001
0100
0010
0000
1000
0000
,  // measure 112
1001
0000
0100
0010
0100
0000
0001
0000
,  // measure 113
1001
0000
0100
0000
0010
0100
0010
0000
,  // measure 114
1001
0000
0100
0000
0010
0100
0010
0000
,  // measure 115
1001
0000
0100
0000
0010
0100
0010
0000
,  // measure 116
1001
0000
1000
0010
1000
0000
1001
0000
,  // measure 117
0001
0100
0100
0010
,  // measure 118
0010
1000
1000
0001
,  // measure 119
0001
0100
0100
0001
,  // measure 120
0001
1000
1000
0000
;

//---------------dance-single - ----------------
#NOTES:
     dance-single:
     :
     Easy:
     5:
     0.306774,0.368895,0.163613,0.006817,0.000000,315.000000,291.000000,24.000000,1.000000,0.000000,0.000000,0.306774,0.368895,0.163613,0.006817,0.000000,315.000000,291.000000,24.000000,1.000000,0.000000,0.000000:
// measure 0
0000
0000
0000
0000
,  // measure 1
0000
0000
0000
0000
,  // measure 2
0000
0000
0000
0000
,  // measure 3
0000
0000
0000
0000
,  // measure 4
0000
1000
0000
0100
,  // measure 5
0000
0010
1000
0010
,  // measure 6
0000
1000
0000
1000
,  // measure 7
0000
1000
0001
0100
,  // measure 8
0000
1000
0000
0100
,  // measure 9
0000
1000
0000
0010
,  // measure 10
1000
0010
0000
1000
,  // measure 11
0001
1000
0000
1002
,  // measure 12
0000
0003
0000
0001
,  // measure 13
0000
0001
0100
0010
,  // measure 14
0000
1000
0000
0010
,  // measure 15
0000
0100
0001
0100
,  // measure 16
0000
0001
0000
0100
,  // measure 17
0000
1000
0001
1000
,  // measure 18
0000
0010
0000
0100
,  // measure 19
0000
1000
0000
0001
,  // measure 20
0000
0000
0000
1010
,  // measure 21
0000
0100
0000
0010
,  // measure 22
0000
1000
0000
0001
,  // measure 23
1000
0001
1000
0010
,  // measure 24
0000
0010
0000
0100
,  // measure 25
0000
0100
0000
0001
,  // measure 26
0000
0001
0000
0100
,  // measure 27
0010
1000
0001
0100
,  // measure 28
0000
1000
0000
0010
,  // measure 29
0000
0001
0000
0100
,  // measure 30
0010
0010
0000
1000
,  // measure 31
0000
1000
0000
0001
,  // measure 32
0100
0010
0000
1000
,  // measure 33
0000
0001
0000
0100
,  // measure 34
0001
1000
0000
0010
,  // measure 35
0000
1000
0000
0001
,  // measure 36
0000
0000
0000
1001
,  // measure 37
0000
0010
0000
1001
,  // measure 38
0000
0000
0100
0010
,  // measure 39
0000
1000
0001
0010
,  // measure 40
0000
1000
0000
0001
,  // measure 41
1000
0100
0010
1000
,  // measure 42
0000
0001
0000
1001
,  // measure 43
0000
1010
0000
0101
,  // measure 44
0000
1000
0010
0100
,  // measure 45
0000
1000
0001
1000
,  // measure 46
1001
0000
0000
1010
,  // measure 47
0000
0100
0001
1000
,  // measure 48
0000
0001
0000
0010
,  // measure 49
0000
1000
0001
1000
,  // measure 50
0000
0100
0010
0100
,  // measure 51
0110
0000
0000
1001
,  // measure 52
0000
0000
0000
1001
,  // measure 53
0000
0000
0000
1010
,  // measure 54
0000
0000
0000
0100
,  // measure 55
0000
0100
0000
0010
,  // measure 56
0000
0010
0000
1000
,  // measure 57
0000
1000
0000
0001
,  // measure 58
0000
0001
0000
0100
,  // measure 59
0000
0100
0000
0010
,  // measure 60
0000
0010
0000
1000
,  // measure 61
0001
1000
0100
0010
,  // measure 62
0000
0000
0000
1000
,  // measure 63
0000
0001
0000
1000
,  // measure 64
0010
1000
0000
0001
,  // measure 65
0100
0010
0000
1000
,  // measure 66
0000
0000
0000
0001
,  // measure 67
0000
1000
0000
0010
,  // measure 68
1000
0001
0000
0100
,  // measure 69
0001
1000
0000
0010
,  // measure 70
0000
0000
0000
1000
,  // measure 71
0000
1000
0000
0001
,  // measure 72
0000
0001
0000
0100
,  // measure 73
0000
0101
0000
0010
,  // measure 74
0000
1010
0000
0001
,  // measure 75
0000
1001
0000
0100
,  // measure 76
0000
1001
0000
0100
,  // measure 77
0000
1010
0000
0100
,  // measure 78
0000
0101
0000
1010
,  // measure 79
0000
0101
0000
1001
,  // measure 80
0000
0000
0000
0100
,  // measure 81
0000
0100
0100
0010
,  // measure 82
0000
1000
0001
0100
,  // measure 83
0000
0010
1000
0001
,  // measure 84
0000
1000
0001
0100
,  // measure 85
0000
0100
0001
1000
,  // measure 86
0000
0010
1000
0001
,  // measure 87
0100
0010
0100
0001
,  // measure 88
1000
0010
0100
0010
,  // measure 89
0010
0010
0010
1000
,  // measure 90
1000
1000
1000
0100
,  // measure 91
0100
0100
0100
0010
,  // measure 92
0010
0010
0010
0001
,  // measure 93
0001
0001
0001
1000
,  // measure 94
1000
1000
1000
0010
,  // measure 95
0010
0010
0010
0100
,  // measure 96
0000
0000
0000
1001
,  // measure 97
0000
0100
0000
0010
,  // measure 98
1000
0001
0000
0100
,  // measure 99
0000
0010
0000
1000
,  // measure 100
0010
0100
0000
0001
,  // measure 101
0000
1000
0000
0010
,  // measure 102
0000
1000
0001
0100
,  // measure 103
0100
0010
1000
0001
,  // measure 104
0001
0000
0001
1001
,  // measure 105
0000
1000
0000
0010
,  // measure 106
1000
0001
0000
0001
,  // measure 107
0000
1000
0010
0100
,  // measure 108
0000
0001
1000
0001
,  // measure 109
0000
1000
0001
1000
,  // measure 110
0000
0010
0100
0010
,  // measure 111
0000
0000
1000
0001
,  // measure 112
0100
0010
1000
0001
,  // measure 113
0000
0001
1000
0010
,  // measure 114
0000
1000
0010
0100
,  // measure 115
0000
0001
1000
0001
,  // measure 116
0000
0100
0010
1000
,  // measure 117
0000
0001
0000
1000
,  // measure 118
0000
0010
0000
0100
,  // measure 119
0000
0001
0000
1000
,  // measure 120
0000
0010
0000
0000
;

//---------------dance-single - ----------------
#NOTES:
     dance-single:
     :
     Beginner:
     3:
     0.177247,0.204090,0.006817,0.034086,0.000000,182.000000,181.000000,1.000000,5.000000,0.000000,0.000000,0.177247,0.204090,0.006817,0.034086,0.000000,182.000000,181.000000,1.000000,5.000000,0.000000,0.000000:
// measure 0
0000
0000
0000
0000
,  // measure 1
0000
0000
0000
0000
,  // measure 2
0000
0000
0000
0000
,  // measure 3
0000
0000
0000
0000
,  // measure 4
0000
0000
0000
1000
,  // measure 5
0000
1000
0000
0001
,  // measure 6
0000
0001
0000
0010
,  // measure 7
0000
0001
0000
0010
,  // measure 8
0000
0010
0000
0001
,  // measure 9
0000
1000
0000
0001
,  // measure 10
0000
0001
0000
1000
,  // measure 11
0000
1000
0000
0001
,  // measure 12
0000
0000
0000
1000
,  // measure 13
0000
0100
0000
1000
,  // measure 14
0000
1000
0000
0010
,  // measure 15
0000
1000
0000
0010
,  // measure 16
0000
0010
0000
1000
,  // measure 17
0000
0001
0000
1000
,  // measure 18
0000
1000
0000
0100
,  // measure 19
0000
0010
0000
0001
,  // measure 20
0000
0000
0000
1000
,  // measure 21
0000
1000
0000
0001
,  // measure 22
0000
0000
0000
0001
,  // measure 23
0000
0001
0000
1000
,  // measure 24
0000
0000
0000
0010
,  // measure 25
0000
1000
0000
0010
,  // measure 26
0000
0000
0000
1000
,  // measure 27
0000
0100
0000
1000
,  // measure 28
0000
0000
0000
0001
,  // measure 29
0000
1000
0000
0010
,  // measure 30
0000
0000
0000
1000
,  // measure 31
0000
0100
0000
0010
,  // measure 32
0000
0000
0000
0001
,  // measure 33
0000
1000
0000
0001
,  // measure 34
0000
0000
0000
0010
,  // measure 35
0000
1000
0000
0100
,  // measure 36
0000
0000
0000
0100
,  // measure 37
0000
0000
0000
0200
,  // measure 38
0000
0000
0000
1300
,  // measure 39
0000
0000
0000
1000
,  // measure 40
0000
1000
0000
0001
,  // measure 41
0000
0000
0000
0001
,  // measure 42
0000
0001
0000
0010
,  // measure 43
0000
0100
0000
1000
,  // measure 44
0000
0010
0000
1000
,  // measure 45
0000
0001
0000
1000
,  // measure 46
0000
0000
0000
1001
,  // measure 47
0000
0000
0000
0001
,  // measure 48
0000
0000
0000
0001
,  // measure 49
0000
0010
0000
0100
,  // measure 50
0000
0000
0000
1000
,  // measure 51
0000
0000
0000
1000
,  // measure 52
0000
0000
0000
1000
,  // measure 53
0000
0000
0000
0010
,  // measure 54
0000
0000
0000
1000
,  // measure 55
0000
1000
0000
0001
,  // measure 56
0000
0000
0000
0001
,  // measure 57
0000
1000
0000
0001
,  // measure 58
0000
0000
0000
1000
,  // measure 59
0000
0100
0000
1000
,  // measure 60
0000
0000
0000
0010
,  // measure 61
0000
1000
0000
0010
,  // measure 62
0000
0000
0000
0001
,  // measure 63
0000
0001
0000
1000
,  // measure 64
0000
0000
0000
0100
,  // measure 65
0000
1000
0000
0010
,  // measure 66
0000
0000
0000
1000
,  // measure 67
0000
0001
0000
1000
,  // measure 68
0000
0000
0000
0010
,  // measure 69
0000
1000
0000
0010
,  // measure 70
0000
0000
0000
0010
,  // measure 71
0000
0000
0000
0010
,  // measure 72
0000
0000
0000
1000
,  // measure 73
0000
1000
0000
0001
,  // measure 74
0000
0001
0000
1000
,  // measure 75
0000
1000
0000
0100
,  // measure 76
0000
0100
0000
1000
,  // measure 77
0000
1000
0000
0010
,  // measure 78
0000
0010
0000
1000
,  // measure 79
0000
1000
0000
0001
,  // measure 80
0000
0000
0000
0100
,  // measure 81
0000
0100
0000
1000
,  // measure 82
0000
0000
0000
0010
,  // measure 83
0000
1000
0000
0010
,  // measure 84
0000
0000
0000
1000
,  // measure 85
0000
0001
0000
1000
,  // measure 86
0000
0000
0000
0100
,  // measure 87
0000
1000
0000
0010
,  // measure 88
0000
0000
0000
0002
,  // measure 89
0000
1000
0000
1003
,  // measure 90
0000
0000
0000
2000
,  // measure 91
0000
0010
0000
3010
,  // measure 92
0000
0000
0000
0002
,  // measure 93
0000
0010
0000
0013
,  // measure 94
0000
0000
0000
0200
,  // measure 95
0000
1000
0000
1300
,  // measure 96
0000
0000
0000
0010
,  // measure 97
0000
1000
0000
0010
,  // measure 98
0000
0000
0000
1000
,  // measure 99
0000
0001
0000
1000
,  // measure 100
0000
0000
0000
0100
,  // measure 101
0000
1000
0000
0010
,  // measure 102
0000
1000
0000
0001
,  // measure 103
0000
0010
0000
0100
,  // measure 104
0000
0000
0000
1000
,  // measure 105
0000
0001
0000
1000
,  // measure 106
0000
0000
0000
0010
,  // measure 107
0000
1000
0000
0100
,  // measure 108
0000
0000
0000
1000
,  // measure 109
0000
0001
0000
1000
,  // measure 110
0000
0000
0000
0100
,  // measure 111
0000
0010
0000
0001
,  // measure 112
0000
1000
0000
0010
,  // measure 113
0000
1000
0000
0100
,  // measure 114
0000
0000
0000
0010
,  // measure 115
0000
1000
0000
0001
,  // measure 116
0000
0000
0000
0100
,  // measure 117
0000
1000
0000
0010
,  // measure 118
0000
0000
0000
0001
,  // measure 119
0000
1000
0000
0001
;
