#TITLE:Mare Maris;
#SUBTITLE:;
#ARTIST:M2U;
#TITLETRANSLIT:;
#SUBTITLETRANSLIT:;
#ARTISTTRANSLIT:;
#GENRE:;
#CREDIT:;
#BANNER:AV.avi;
#BACKGROUND:BG.png;
#LYRICSPATH:;
#CDTITLE:;
#MUSIC:audio.ogg;
#OFFSET:-0.314000;
#SAMPLESTART:37.139999;
#SAMPLELENGTH:15.000000;
#SELECTABLE:YES;
#BPMS:0.000000=151.141006
;
#STOPS:
;
#BGCHANGES:0.000=MV.avi=2.000=1=0=1===CrossFade==,
6.000=MV.avi=1.000=0=0=1=====,
99999=-nosongbg-=1.000=0=0=0 // don't automatically add -songbackground-
;
#KEYSOUNDS:;
#ATTACKS:;

//---------------dance-single - ----------------
#NOTES:
     dance-single:
     :
     Hard:
     16:
     0.757253,0.863454,0.249537,0.151234,0.657870,701.000000,668.000000,33.000000,20.000000,0.000000,0.000000,0.757253,0.863454,0.249537,0.151234,0.657870,701.000000,668.000000,33.000000,20.000000,0.000000,0.000000:
// measure 0
0000
0000
0000
0000
,  // measure 1
0000
0000
0000
0000
,  // measure 2
0000
0000
0000
0000
,  // measure 3
0000
0000
0000
0000
,  // measure 4
2000
0000
0000
0000
3001
0000
0100
0001
0100
0000
0010
0000
0000
0000
1000
0000
,  // measure 5
0100
0000
0010
0001
0010
0000
0001
0000
0010
0000
0100
0000
1000
0000
0010
0000
,  // measure 6
0100
0000
0010
0100
0010
0000
0100
0000
0001
0000
2000
0000
0000
0000
0000
0000
,  // measure 7
3100
0000
0011
0001
0010
0100
0010
0001
,  // measure 8
1000
0000
0010
0000
0110
0000
0001
0000
1000
0000
0100
0000
1000
0000
1000
0100
,  // measure 9
1000
0001
1000
0100
0010
0000
0001
0000
0010
0000
0001
0000
0100
0000
0010
0100
,  // measure 10
0010
1000
1010
0010
0100
0010
1000
0010
,  // measure 11
0100
0001
1001
1000
0010
0100
0001
0100
,  // measure 12
0010
0000
0100
0000
0110
0000
0001
0000
1000
0000
0010
0000
0100
0000
0100
0010
,  // measure 13
1000
0001
0100
0010
0100
0000
0010
0000
1000
0000
0010
0000
0100
0000
0001
0100
,  // measure 14
0001
0000
1000
0000
1010
0000
0010
0000
0100
0000
0010
1000
0001
1000
0100
0010
,  // measure 15
0100
0000
0000
0000
2001
0000
0000
0000
3001
0000
0001
0100
0010
0000
0010
0100
,  // measure 16
0001
0000
0001
0010
0100
0000
0100
1000
0001
0000
0001
1000
0010
0000
0010
0000
,  // measure 17
0100
0000
0001
1000
0200
0000
0000
0000
1300
0000
1000
0001
0010
0000
0010
0001
,  // measure 18
1000
0000
1000
0100
0010
0000
0010
0001
0100
0000
0001
0010
0100
1000
0001
0000
,  // measure 19
0010
0000
0000
0000
0200
0000
0000
0000
1300
0000
1000
0001
0100
0000
0100
0010
,  // measure 20
1000
0000
1000
0001
0010
0000
0001
1000
0100
1000
0001
0100
0010
0000
0010
0000
,  // measure 21
0100
0000
0001
0100
0002
0000
0000
0000
0103
0000
0010
1000
0001
0000
0001
1000
,  // measure 22
0010
0000
0010
1000
0001
0000
0000
0000
2000
0000
0000
0000
0100
0000
0000
0000
,  // measure 23
3010
0000
0000
0000
0001
0000
0100
0010
1000
0001
0010
0001
0010
0100
1000
0001
,  // measure 24
1000
0010
0100
0001
1000
0100
0010
0001
0010
0000
0100
0000
1000
0000
0010
0000
,  // measure 25
0100
0000
0001
0010
0001
0000
1000
0000
0100
0000
0001
0000
0100
0000
1000
0000
,  // measure 26
0100
0001
0200
0000
1000
0000
1000
0000
,  // measure 27
0310
0000
0000
0000
1100
0000
0100
1000
0100
0010
0001
1000
0100
1000
0001
0010
,  // measure 28
0100
0010
0001
0100
0001
0000
1000
0010
0100
0000
0010
0000
1000
0000
0001
0000
,  // measure 29
0001
0000
0100
0001
0100
0000
0001
0000
0010
0000
0200
0000
0000
0000
0000
0000
,  // measure 30
1300
0001
0010
0100
,  // measure 31
1100
0000
0000
0000
0001
0000
1000
0001
1000
0010
0100
0010
1000
0100
0010
0100
,  // measure 32
0010
0001
1000
0100
1000
0001
0100
0010
1000
0000
0001
0000
0001
0000
0100
0000
,  // measure 33
0010
0000
1000
0100
1000
0000
0001
0000
0010
0000
0100
0000
0010
0000
0001
0000
,  // measure 34
1000
0010
0200
0000
0001
0000
0010
0000
,  // measure 35
0301
0000
0000
0000
1100
0000
0001
0010
0100
1000
0001
0100
0010
0100
0001
0010
,  // measure 36
0100
0010
0001
0100
0010
1000
0001
0010
0100
0000
1000
0000
0010
0000
0100
0000
,  // measure 37
0001
0000
0010
0001
0010
0000
0100
0000
1000
0000
0020
0000
0100
0000
0000
0000
,  // measure 38
0130
0001
1100
0101
,  // measure 39
1010
0000
0000
0000
0011
0000
0000
0000
0101
0000
0000
0000
1000
0001
1000
0000
,  // measure 40
0010
0100
0001
0000
0100
0010
0100
0000
0001
1000
0010
0000
1000
0001
1000
0000
,  // measure 41
0100
0010
0001
0000
0010
0000
0001
0000
0100
0000
0010
0000
0100
0000
0001
0000
,  // measure 42
1000
0100
1000
0010
1000
0001
0010
0100
,  // measure 43
0010
0001
0010
0010
0001
0001
1000
1000
,  // measure 44
0100
0100
1000
1000
0010
0010
1000
1000
,  // measure 45
0001
0000
0001
0000
0010
0000
0010
0000
0001
0000
0001
0000
0010
0001
0010
0001
,  // measure 46
0010
0001
0010
0001
0020
0000
0000
0000
0000
0000
0000
0000
0000
0000
0000
0000
,  // measure 47
0031
0000
0000
0000
1001
0000
0000
0000
1001
0000
0000
0000
0100
1000
0100
1000
,  // measure 48
0000
1000
0001
0010
0000
0010
0100
1000
0000
1000
0001
1000
0010
0000
0000
0000
,  // measure 49
1000
0000
0000
0000
1100
0000
0000
0000
1100
0000
0000
0000
0001
0000
0100
0010
,  // measure 50
0000
0010
1000
0000
0001
0010
0100
0010
0001
0010
0100
1000
0001
0000
0000
0000
,  // measure 51
0001
0000
0000
0000
1001
0000
0000
0000
1001
0000
0000
0000
0100
0000
0100
1000
,  // measure 52
0000
1000
0001
0000
0001
0010
0100
0010
0001
1000
0100
1000
0001
0100
0001
0100
,  // measure 53
0002
0000
0000
0000
0103
0000
0000
0000
0010
0100
0010
0100
0001
0000
1000
0100
,  // measure 54
0000
0100
1000
0000
0001
0010
0100
0010
0001
0010
0100
1000
0001
0000
0000
0000
,  // measure 55
0001
0000
0000
0000
1001
0000
0000
0000
1002
0000
0000
0000
1003
0010
1000
0010
,  // measure 56
0000
0010
1000
0001
0000
0001
1000
0100
0000
0100
1000
0100
1000
0000
0000
0000
,  // measure 57
2001
0000
0000
0000
3001
0000
0000
0000
0010
0000
0001
0010
0100
0000
0100
0010
,  // measure 58
0000
0010
0001
0000
1000
0010
1000
0001
0010
0100
0010
0001
0010
0000
0000
0000
,  // measure 59
1000
0000
0000
0000
0110
0000
0000
0000
0110
0000
0000
0000
0001
0000
0001
1000
,  // measure 60
0000
1000
0001
0000
0001
0100
0010
0100
0001
1000
0100
0010
0001
0000
0000
0000
,  // measure 61
0001
0000
0000
0000
0011
0000
0000
0000
0011
0000
0000
0000
0100
0000
0000
0100
,  // measure 62
0000
0000
0100
0000
0000
0000
2000
0000
0000
3000
0001
1000
0002
0000
0003
0000
,  // measure 63
0100
0000
0000
0000
0001
0000
0010
0001
0010
0000
0100
0000
1000
0001
1000
0000
,  // measure 64
0010
0000
0100
0000
0001
0000
0010
0100
0010
0000
0001
0000
1000
0000
0010
0000
,  // measure 65
1000
0000
0001
1000
0001
0000
0010
0000
0100
0000
0010
0000
0001
0000
1000
0000
,  // measure 66
0010
1000
0200
0000
0010
0000
1000
0000
,  // measure 67
0310
0000
0000
0000
0001
0000
0010
0001
0010
0000
0100
0000
1000
0000
0001
1000
,  // measure 68
0001
0000
0100
0000
0010
0000
1000
0010
1000
0000
0001
0000
0010
0000
0100
0010
,  // measure 69
0100
1000
0001
0100
0010
2000
0000
0000
,  // measure 70
3001
0110
1100
1001
,  // measure 71
0110
0000
0000
0000
0001
0000
0100
1000
0100
0000
0001
0010
0001
0000
0100
1000
,  // measure 72
0100
0000
0010
0100
0001
0000
1000
0010
1000
0000
0001
1000
0010
0000
0100
0001
,  // measure 73
0100
0000
0010
1000
0001
0000
0100
0010
0100
0000
0001
1000
0010
0000
0100
0001
,  // measure 74
1000
0000
0100
0010
0002
0000
0000
0000
1000
0000
0000
0000
0100
0000
0000
0000
,  // measure 75
0013
0000
0000
0000
1000
0000
0100
1000
0001
0000
0010
0100
1000
0000
0001
0100
,  // measure 76
0010
0000
1000
0001
0010
0000
0100
1000
0001
0000
1000
0100
0010
0000
0100
1000
,  // measure 77
0001
0000
0100
0010
1000
0001
0010
0100
1000
0001
0100
0010
1000
0001
0010
0100
,  // measure 78
1000
0010
0100
0001
1000
0000
0000
0000
0100
0000
0000
0000
0011
0000
0000
0000
;

//---------------dance-single - ----------------
#NOTES:
     dance-single:
     :
     Medium:
     10:
     0.510956,0.537638,0.559568,0.226852,0.000000,473.000000,399.000000,74.000000,30.000000,0.000000,0.000000,0.510956,0.537638,0.559568,0.226852,0.000000,473.000000,399.000000,74.000000,30.000000,0.000000,0.000000:
// measure 0
0000
0000
0000
0000
,  // measure 1
0000
0000
0000
0000
,  // measure 2
0000
0000
0000
0000
,  // measure 3
0000
0000
0000
0000
,  // measure 4
1000
0000
0200
0000
0000
0000
0000
1300
,  // measure 5
0010
0100
0001
0010
0100
0010
0001
1000
,  // measure 6
0010
0100
0010
0100
0001
0020
0000
0000
,  // measure 7
0130
0000
1000
0100
1000
0100
1000
0100
,  // measure 8
1000
0001
0100
0010
0100
0010
0100
0001
,  // measure 9
1000
0100
0010
0100
0010
0100
0010
0001
,  // measure 10
0010
0100
1000
0100
1000
0100
1000
0001
,  // measure 11
0100
0010
1000
0010
1000
0010
1000
0001
,  // measure 12
0010
0100
0010
0100
0010
0100
0010
0001
,  // measure 13
0010
0001
0010
0100
1000
0001
0100
0010
,  // measure 14
0100
0001
1000
0100
1000
0100
1000
0001
,  // measure 15
1000
0002
1003
1001
,  // measure 16
1001
0000
1001
0000
1001
0000
1000
0100
,  // measure 17
1000
0200
0310
0110
,  // measure 18
0110
0000
0110
0000
0110
0000
0001
0010
,  // measure 19
0001
1200
1300
1100
,  // measure 20
1100
0000
1100
0000
1100
0000
0001
0010
,  // measure 21
0001
0020
1030
0110
,  // measure 22
0110
0110
0002
0000
,  // measure 23
1003
0000
0200
0000
0010
0000
1300
0001
,  // measure 24
1000
0010
1000
0001
1000
0100
1000
0010
,  // measure 25
1000
0001
0001
0010
0100
0010
0001
1000
,  // measure 26
0010
0100
0002
0000
0010
0000
1000
0000
,  // measure 27
0103
0000
0020
0000
1000
0000
0130
0001
,  // measure 28
1000
0100
1000
0001
1000
0010
1000
0001
,  // measure 29
1000
0100
0010
0001
0010
0200
0000
0000
,  // measure 30
1300
0001
0100
0010
,  // measure 31
0001
0000
0020
0000
1000
0000
0130
0001
,  // measure 32
1000
0100
1000
0001
1000
0100
1000
0001
,  // measure 33
1000
0010
0010
1000
0001
0010
0100
0100
,  // measure 34
0010
0001
2000
0000
0010
0000
0100
0000
,  // measure 35
3010
0000
0002
0000
0010
0000
1003
0010
,  // measure 36
0100
0001
0100
0010
0100
0001
0100
0010
,  // measure 37
0100
0001
0001
0010
0100
2000
0000
0000
,  // measure 38
3001
1010
1001
0120
,  // measure 39
0130
0001
0001
1000
,  // measure 40
1000
0010
0010
0100
,  // measure 41
0100
0001
0001
1000
,  // measure 42
1000
0100
0100
1000
,  // measure 43
1000
1010
1010
0110
,  // measure 44
0110
0011
0011
1100
,  // measure 45
1100
0001
0001
0001
,  // measure 46
0001
2000
0000
0000
,  // measure 47
3001
1001
1001
0100
,  // measure 48
0100
0010
0010
0011
,  // measure 49
0011
1100
1100
0001
,  // measure 50
0001
1000
1000
1010
,  // measure 51
1010
0110
0110
0001
,  // measure 52
0001
0010
0010
1001
,  // measure 53
1001
0110
0110
0001
,  // measure 54
0001
1000
1000
0110
,  // measure 55
0110
1001
1001
0010
,  // measure 56
0010
1000
1000
1100
,  // measure 57
1100
1010
1010
0001
,  // measure 58
0001
0010
0010
0110
,  // measure 59
0110
1001
1001
0010
,  // measure 60
0010
1000
1000
0110
,  // measure 61
0110
1001
1001
0110
,  // measure 62
0110
1100
1100
0021
,  // measure 63
0031
0000
0001
1000
0001
1000
0001
0001
,  // measure 64
0010
0001
0010
0010
0001
1000
0010
0010
,  // measure 65
1000
0001
0010
0010
0100
1000
0010
0010
,  // measure 66
1000
0001
0020
0000
0100
0000
0001
0000
,  // measure 67
0130
0000
0002
0000
1000
0000
0103
0010
,  // measure 68
1000
0001
0010
0010
0100
1000
0001
0001
,  // measure 69
1000
0100
1000
1000
0010
0200
0000
0000
,  // measure 70
0301
0100
1000
0010
,  // measure 71
1010
1200
1300
0012
,  // measure 72
0013
0210
0310
1002
,  // measure 73
1003
0210
0310
1002
,  // measure 74
1003
1020
1030
0120
,  // measure 75
0130
0000
0100
1000
0001
1000
0010
1000
,  // measure 76
0001
0010
0100
0010
0001
1000
0010
0100
,  // measure 77
0001
1000
0100
0010
0001
1000
0100
0000
,  // measure 78
0010
0011
1100
0210
,  // measure 79
0300
0000
0000
0000
;

//---------------dance-single - ----------------
#NOTES:
     dance-single:
     :
     Easy:
     5:
     0.307870,0.416840,0.128549,0.045370,0.000000,285.000000,268.000000,17.000000,6.000000,0.000000,0.000000,0.307870,0.416840,0.128549,0.045370,0.000000,285.000000,268.000000,17.000000,6.000000,0.000000,0.000000:
// measure 0
0000
0000
0000
0000
,  // measure 1
0000
0000
0000
0000
,  // measure 2
0000
0000
0000
0000
,  // measure 3
0000
0000
0000
0000
,  // measure 4
0000
1000
0001
1000
,  // measure 5
1000
0010
1000
0010
,  // measure 6
0010
1000
0100
0100
,  // measure 7
0000
1000
0100
1000
,  // measure 8
1000
0000
0001
0000
0001
0000
1000
0001
,  // measure 9
1000
0010
0010
1000
,  // measure 10
1000
0000
0100
0000
0100
0000
1000
0100
,  // measure 11
1000
0001
0001
0010
,  // measure 12
0010
0000
0100
0000
0100
0000
1000
0100
,  // measure 13
1000
0001
0001
1000
,  // measure 14
1000
0010
0010
0110
,  // measure 15
0000
0100
0100
1000
,  // measure 16
1000
0001
0001
1000
,  // measure 17
1000
0002
0000
1003
,  // measure 18
1000
0010
0010
0100
,  // measure 19
0100
0002
0000
1003
,  // measure 20
1000
0010
0010
0100
,  // measure 21
0100
0002
0000
0013
,  // measure 22
0010
0100
0200
0000
,  // measure 23
0300
0000
0001
0000
0000
0001
0000
0000
,  // measure 24
1000
0000
1000
0000
0000
1000
0000
0000
,  // measure 25
1000
0000
0010
0000
0000
0010
0000
0000
,  // measure 26
0010
0000
1000
0000
0000
1000
0000
0000
,  // measure 27
1000
0000
0001
0000
0000
0010
0000
0000
,  // measure 28
0010
0000
0001
0000
0000
1000
0000
0000
,  // measure 29
1000
0000
0010
0000
0000
0100
0000
0000
,  // measure 30
0100
0001
1000
0001
,  // measure 31
1000
0000
0100
0000
0000
0010
0000
0000
,  // measure 32
0010
0000
0001
0000
0000
1000
0000
0000
,  // measure 33
1000
0000
0010
0000
0000
0100
0000
0000
,  // measure 34
0100
0000
1000
0000
0000
0001
0000
0000
,  // measure 35
0001
0000
0010
0000
0000
0100
0000
0000
,  // measure 36
0100
0000
1000
0000
0000
0010
0000
0000
,  // measure 37
0010
0000
1000
0000
0000
0001
0000
0000
,  // measure 38
0001
1000
1000
0001
,  // measure 39
0001
0010
0010
0100
,  // measure 40
0100
1000
1000
0010
,  // measure 41
0010
1000
1000
0001
,  // measure 42
0001
1000
1000
0010
,  // measure 43
0010
1000
1000
1010
,  // measure 44
0000
0010
0010
1000
,  // measure 45
1000
0010
0010
0100
,  // measure 46
0100
0002
0000
0000
,  // measure 47
1003
0010
0010
1000
,  // measure 48
1000
0010
0010
0100
,  // measure 49
0100
0001
0001
1000
,  // measure 50
1000
0010
0010
1000
,  // measure 51
1000
0010
0010
1000
,  // measure 52
1000
0001
0001
0010
,  // measure 53
0010
0100
0100
1000
,  // measure 54
1000
0001
0001
1000
,  // measure 55
1000
0010
0010
1000
,  // measure 56
1000
0100
0100
1000
,  // measure 57
1000
0001
0001
0010
,  // measure 58
0010
0100
0100
1000
,  // measure 59
1000
0010
0010
1000
,  // measure 60
1000
0001
0001
0010
,  // measure 61
0010
0100
0100
1000
,  // measure 62
1000
0002
0000
1003
,  // measure 63
0000
0000
0010
0000
0000
0010
0000
0000
,  // measure 64
0110
0000
0100
0000
0000
0100
0000
0000
,  // measure 65
0110
0000
0001
0000
0000
0001
0000
0000
,  // measure 66
1001
0000
1000
0000
0000
1000
0000
0000
,  // measure 67
1100
0000
0010
0000
0000
0010
0000
0000
,  // measure 68
1010
0000
0001
0000
0000
0001
0000
0000
,  // measure 69
1001
0000
0010
0000
0000
0010
0000
0000
,  // measure 70
0110
0000
0001
0000
0000
1000
0000
0000
,  // measure 71
1001
0010
1000
0010
,  // measure 72
1000
0010
1000
0010
,  // measure 73
1000
0010
1000
0010
,  // measure 74
1000
0010
1000
0010
,  // measure 75
1000
1001
0001
1001
,  // measure 76
1000
1001
0001
1001
,  // measure 77
1000
1001
0001
0011
,  // measure 78
0100
1000
0010
0110
;

//---------------dance-single - ----------------
#NOTES:
     dance-single:
     :
     Beginner:
     2:
     0.153395,0.238194,0.000000,0.015123,0.000000,142.000000,142.000000,0.000000,2.000000,0.000000,0.000000,0.153395,0.238194,0.000000,0.015123,0.000000,142.000000,142.000000,0.000000,2.000000,0.000000,0.000000:
// measure 0
0000
0000
0000
0000
,  // measure 1
0000
0000
0000
0000
,  // measure 2
0000
0000
0000
0000
,  // measure 3
0000
0000
0000
0000
,  // measure 4
0000
1000
0000
0000
,  // measure 5
0000
0001
0000
0000
,  // measure 6
0000
0010
0000
0000
,  // measure 7
0000
0100
0000
0100
,  // measure 8
0000
0100
0000
0000
,  // measure 9
0000
1000
0000
1000
,  // measure 10
0000
1000
0000
0000
,  // measure 11
0000
0010
0000
0010
,  // measure 12
0000
0010
0000
0000
,  // measure 13
0000
0001
0000
1000
,  // measure 14
0000
0001
0000
0000
,  // measure 15
0000
0010
0000
0010
,  // measure 16
0000
0010
0000
0010
,  // measure 17
0000
1000
0000
1000
,  // measure 18
0000
1000
0000
1000
,  // measure 19
0000
0100
0000
0100
,  // measure 20
0000
0100
0000
0100
,  // measure 21
0000
0010
0000
0010
,  // measure 22
0000
0010
0000
0000
,  // measure 23
0000
1000
0000
1000
,  // measure 24
0000
0001
0000
0001
,  // measure 25
0000
1000
0000
0010
,  // measure 26
0000
2000
0000
0000
,  // measure 27
3000
0001
0000
0001
,  // measure 28
0000
1000
0000
1000
,  // measure 29
0000
0010
0000
0010
,  // measure 30
0000
0100
0000
0100
,  // measure 31
0000
1000
0000
1000
,  // measure 32
0000
0001
0000
0001
,  // measure 33
0000
0010
0000
0100
,  // measure 34
0000
0020
0000
0000
,  // measure 35
0030
1000
0000
0001
,  // measure 36
0000
1000
0000
0010
,  // measure 37
0000
0100
0000
1000
,  // measure 38
0000
0001
0000
1000
,  // measure 39
0000
0010
0000
0010
,  // measure 40
0000
0010
0000
0010
,  // measure 41
0000
0001
0000
0001
,  // measure 42
0000
0001
0000
0001
,  // measure 43
0000
1000
0000
1000
,  // measure 44
0000
1000
0000
1000
,  // measure 45
0000
0010
0000
1000
,  // measure 46
0000
0010
0000
0000
,  // measure 47
0000
1000
1000
1000
,  // measure 48
0000
0000
0000
0100
,  // measure 49
0000
0010
0010
0010
,  // measure 50
0000
0000
0000
0001
,  // measure 51
0000
0100
0100
0100
,  // measure 52
0000
0000
0000
0010
,  // measure 53
0000
0001
0001
0001
,  // measure 54
0000
0000
0000
1000
,  // measure 55
0000
0100
0010
0100
,  // measure 56
0000
0000
0000
1000
,  // measure 57
0000
0100
0010
0100
,  // measure 58
0000
0000
0000
0001
,  // measure 59
0000
1000
0100
1000
,  // measure 60
0000
0000
0000
0010
,  // measure 61
0000
1000
0001
1000
,  // measure 62
0000
0000
0000
0100
,  // measure 63
0000
1000
0000
1000
,  // measure 64
0000
0001
0000
0001
,  // measure 65
0000
0010
0000
0010
,  // measure 66
0000
0100
0000
0100
,  // measure 67
0000
1000
0000
1000
,  // measure 68
0000
0010
0000
0010
,  // measure 69
0000
0001
0000
0001
,  // measure 70
0000
0100
0000
0000
,  // measure 71
0000
1000
0000
1000
,  // measure 72
0000
1000
0000
1000
,  // measure 73
0000
1000
0000
1000
,  // measure 74
0000
1000
0000
1000
,  // measure 75
0000
0001
0010
0001
,  // measure 76
0000
0010
0001
0010
,  // measure 77
0000
0100
1000
0010
,  // measure 78
0001
0100
0000
0100
;
