#TITLE:unknown;
#SUBTITLE:;
#ARTIST:Unknown artist;
#TITLETRANSLIT:;
#SUBTITLETRANSLIT:;
#ARTISTTRANSLIT:;
#GENRE:;
#CREDIT:;
#BANNER:AV.avi;
#BACKGROUND:bg.png;
#JACKET:jacket.png;
#LYRICSPATH:;
#CDTITLE:;
#MUSIC:audio.ogg;
#OFFSET:-0.074000;
#SAMPLESTART:38.790672;
#SAMPLELENGTH:12.000000;
#SELECTABLE:YES;
#BPMS:0.000000=154.972000
,98.000000=77.486000
,106.000000=154.972000
;
#STOPS:
;
#BGCHANGES:;
#KEYSOUNDS:;
#ATTACKS:;

//---------------dance-single - ----------------
#NOTES:
     dance-single:
     :
     Hard:
     1:
     0.153428,0.210420,0.083787,0.091404,0.019043,141.000000,130.000000,11.000000,12.000000,0.000000,0.000000,0.153428,0.210420,0.083787,0.091404,0.019043,141.000000,130.000000,11.000000,12.000000,0.000000,0.000000:
// measure 0
0000
0000
0000
0000
,  // measure 1
0000
0000
0000
0000
,  // measure 2
0000
0000
0000
0000
,  // measure 3
0000
0000
0000
0000
,  // measure 4
0000
0000
0000
0000
,  // measure 5
0000
0000
0000
0000
,  // measure 6
0000
0000
0000
0000
,  // measure 7
0000
0000
0000
0000
,  // measure 8
0000
0000
0000
0000
0000
0000
0000
0000
1000
0000
0000
0010
0000
0000
0100
0000
,  // measure 9
0010
0000
0000
0000
0010
0000
0000
0000
0100
0000
0000
0001
0000
0000
0010
0000
,  // measure 10
0001
0000
1000
0000
0001
0000
0000
0000
1000
0000
0000
0001
0000
0000
1000
0000
,  // measure 11
0100
0000
0100
0000
1000
0100
1000
0001
,  // measure 12
0020
0000
0000
0000
0031
0000
0100
0000
0010
0000
0000
1000
0000
0000
0001
0000
,  // measure 13
0100
0000
0000
0000
0100
0000
0000
0000
0001
0000
0000
0010
0000
0000
0010
0000
,  // measure 14
0100
1000
0100
0000
2000
0000
3001
0200
,  // measure 15
0000
0300
0110
0000
0001
1000
0001
1000
,  // measure 16
0000
0010
0100
0000
1001
0000
1000
0010
,  // measure 17
0010
0000
0101
0000
1000
0010
1000
0000
,  // measure 18
0001
0000
0011
0000
0010
0001
0200
0301
,  // measure 19
0010
0200
1300
0010
0200
0310
1000
0200
,  // measure 20
1300
0000
0101
0000
1001
0000
1000
0100
,  // measure 21
0010
0000
0110
0000
0001
1000
0100
0000
,  // measure 22
1000
0000
1001
0000
0100
0010
1000
0001
,  // measure 23
0010
1000
0010
0001
0100
0010
1000
0000
,  // measure 24
1002
0000
2003
0000
,  // measure 25
3200
0000
0320
0000
,  // measure 26
0032
0000
1003
1000
,  // measure 27
0010
0100
0001
0000
1000
0001
1000
0000
,  // measure 28
0001
0000
0100
0000
1010
0000
1000
0100
,  // measure 29
0010
0001
1000
0010
0100
0001
0100
0001
,  // measure 30
1000
1001
0010
0100
,  // measure 31
0010
1000
0010
0000
0100
0000
0001
0100
,  // measure 32
1000
0100
0001
1000
0100
0000
0000
0000
;
