#VERSION:0.83;
#TITLE:Made You Look;
#SUBTITLE:;
#ARTIST:Meghan Trainor;
#TITLETRANSLIT:;
#SUBTITLETRANSLIT:;
#ARTISTTRANSLIT:;
#GENRE:;
#ORIGIN:;
#CREDIT:;
#BANNER:AV.avi;
#BACKGROUND:BG.png;
#PREVIEWVID:;
#JACKET:jacket.png;
#CDIMAGE:;
#DISCIMAGE:;
#LYRICSPATH:;
#CDTITLE:;
#MUSIC:audio.ogg;
#OFFSET:-0.271000;
#SAMPLESTART:52.948929;
#SAMPLELENGTH:15.000002;
#SELECTABLE:YES;
#BPMS:0.000=145.000;
#STOPS:;
#DELAYS:;
#WARPS:;
#TIMESIGNATURES:0.000=4=4;
#TICKCOUNTS:0.000=4;
#COMBOS:0.000=1;
#SPEEDS:0.000=1.000=0.000=0;
#SCROLLS:0.000=1.000;
#FAKES:;
#LABELS:0.000=Song Start;
#BGCHANGES:0.000=MV.avi=1.200=1=0=1===CrossFade==,
4.000=MV.avi=1.000=0=0=1=====,
99999=-nosongbg-=1.000=0=0=0 // don't automatically add -songbackground-
;
#KEYSOUNDS:;
#ATTACKS:
;

//---------------dance-single - ----------------
#NOTEDATA:;
#CHARTNAME:;
#STEPSTYPE:dance-single;
#DESCRIPTION:;
#CHARTSTYLE:;
#DIFFICULTY:Hard;
#METER:12;
#RADARVALUES:0.481928,0.568712,0.233434,0.843373,0.007530,448.000000,417.000000,31.000000,112.000000,0.000000,0.000000,0.000000,0.000000,0.000000,0.481928,0.568712,0.233434,0.843373,0.007530,448.000000,417.000000,31.000000,112.000000,0.000000,0.000000,0.000000,0.000000,0.000000;
#CREDIT:Musey's Chart;
#NOTES:
// measure 0
0000
0000
0000
0000
,  // measure 1
0000
0000
0000
0000
,  // measure 2
0000
0000
0000
0000
,  // measure 3
0000
0000
0000
0000
,  // measure 4
0000
0000
0000
0000
,  // measure 5
0000
0000
0000
0000
,  // measure 6
0000
0000
0000
0000
,  // measure 7
0000
0000
0000
0000
,  // measure 8
0000
0000
0000
0000
1001
1000
0100
0010
,  // measure 9
0001
0010
0002
0003
0011
0001
0010
0100
,  // measure 10
1000
0010
0200
0310
0010
0100
0010
1000
,  // measure 11
0001
0010
0100
0010
0001
0100
0010
0100
,  // measure 12
0002
0003
0020
0130
0010
0000
1000
0020
,  // measure 13
0000
0130
0010
1000
1000
0001
0010
0001
,  // measure 14
0010
0001
0010
0000
0020
0000
0030
0200
,  // measure 15
0000
0000
0310
0000
0001
0001
0010
0010
,  // measure 16
0100
0100
1000
1000
1010
0100
0010
0100
,  // measure 17
0001
0000
0100
0000
0020
0000
0030
0000
0011
0000
0001
0010
0001
0000
1000
0000
,  // measure 18
0020
0000
0230
0300
0001
0010
0100
0010
,  // measure 19
0001
0000
1000
0000
0010
0000
0100
0000
0010
0000
1000
0100
1000
0000
0001
0000
,  // measure 20
0010
0001
0100
0000
0010
0000
0200
0320
,  // measure 21
0030
0100
0010
1000
1000
0001
1000
0001
,  // measure 22
1000
0001
2000
0000
3020
0030
0000
0020
,  // measure 23
0000
0000
0130
0000
1000
1000
0100
0100
,  // measure 24
1000
1000
0010
1000
0020
0000
0030
0020
,  // measure 25
0000
0030
0010
2000
3000
1000
0100
1000
,  // measure 26
0010
1000
0001
0010
0002
0000
0003
0002
,  // measure 27
0000
0003
0001
0020
0030
0010
0100
1000
,  // measure 28
0010
1000
0001
1000
0002
0000
0003
0002
,  // measure 29
0000
0003
0010
0200
0300
0100
1000
0010
,  // measure 30
0100
0001
1000
0100
0020
0000
0030
0020
,  // measure 31
0000
0030
0000
0000
0010
0010
0000
0200
,  // measure 32
0300
1000
0100
0010
0001
1000
0000
0020
,  // measure 33
0000
1030
0001
2000
0010
0000
0000
3010
,  // measure 34
0000
0100
1000
0010
2000
0000
0000
3002
,  // measure 35
0000
0003
0001
0010
0002
0000
0003
0001
,  // measure 36
0010
0100
1000
0010
0100
0010
0000
0200
,  // measure 37
0000
0000
0010
0000
0310
1000
0001
0010
,  // measure 38
0100
0000
0100
0010
0100
0000
2000
0000
,  // measure 39
3002
2003
0000
3020
0000
1030
0100
0010
,  // measure 40
0001
0010
0100
1000
1001
0000
0000
1001
,  // measure 41
0000
0001
0010
0100
0110
0000
0000
0110
,  // measure 42
0000
1000
0010
1000
1010
0000
0000
1010
,  // measure 43
0000
0000
1000
0001
1001
0000
0000
1001
,  // measure 44
0010
0001
0010
0100
1010
0000
0000
1010
,  // measure 45
0000
1000
0001
0000
1001
0001
0020
0000
,  // measure 46
0230
0000
0310
0100
0010
0000
2000
0000
,  // measure 47
3002
2003
0000
3002
0003
2000
3200
2300
,  // measure 48
3200
2300
3200
0300
1100
1000
0001
0010
,  // measure 49
0200
0320
0032
0003
0011
0001
0010
0100
,  // measure 50
2000
3020
0230
0310
0010
1000
0100
1000
,  // measure 51
0200
0320
0032
0023
0130
1000
0020
2030
,  // measure 52
3020
0230
0302
0103
0001
1000
0001
2000
,  // measure 53
0000
3100
1000
0010
0010
2000
3002
2003
,  // measure 54
3002
2003
3002
0003
0200
0000
0300
0200
,  // measure 55
0000
0300
0020
0000
1030
1000
0001
0001
,  // measure 56
1000
1000
0001
1000
1001
0000
0000
1001
,  // measure 57
0000
0000
0001
0020
0030
0010
0100
1000
,  // measure 58
0010
0100
0001
1000
0002
0000
0003
0002
,  // measure 59
0000
0003
0100
0020
0030
0010
0001
0010
,  // measure 60
0100
1000
0001
1000
0020
0000
0000
1000
,  // measure 61
0000
0000
1030
0002
0000
1003
0100
1000
,  // measure 62
0010
1000
0001
0010
0200
0000
0300
0200
,  // measure 63
0000
0300
0000
0000
0100
0100
0000
0020
,  // measure 64
0000
1030
0100
1000
0010
0100
0000
0002
,  // measure 65
0000
0013
0100
0020
0100
0000
0000
0130
,  // measure 66
0000
1000
0001
1000
0010
2000
0000
3002
,  // measure 67
0000
0000
0013
0200
1000
0000
0300
1000
,  // measure 68
0200
0320
0032
0023
0230
2300
3000
0002
,  // measure 69
0000
0000
0000
0000
1003
0100
2000
0000
,  // measure 70
3020
0000
1030
0001
0010
0020
0032
0000
,  // measure 71
0023
0032
0000
0023
0030
1000
0100
1000
,  // measure 72
1000
1000
1000
1000
1001
0002
0003
0120
,  // measure 73
0000
0130
0010
0001
0011
1000
0010
2010
,  // measure 74
0000
3100
0010
0001
1001
0000
0010
1020
,  // measure 75
0000
0030
1000
0001
0011
0000
0000
0011
,  // measure 76
0001
0010
0100
1000
0110
0010
0000
0120
,  // measure 77
0000
1000
0130
0000
1001
0001
0010
0011
,  // measure 78
0100
0000
0100
1000
0010
0200
0302
0000
,  // measure 79
2003
3002
0000
2003
3000
0000
0000
0000
;

//---------------dance-single - ----------------
#NOTEDATA:;
#CHARTNAME:;
#STEPSTYPE:dance-single;
#DESCRIPTION:;
#CHARTSTYLE:;
#DIFFICULTY:Medium;
#METER:7;
#RADARVALUES:0.348537,0.388507,0.015060,0.097892,0.000000,324.000000,322.000000,2.000000,13.000000,0.000000,0.000000,0.000000,0.000000,0.000000,0.348537,0.388507,0.015060,0.097892,0.000000,324.000000,322.000000,2.000000,13.000000,0.000000,0.000000,0.000000,0.000000,0.000000;
#CREDIT:Musey's Chart;
#NOTES:
// measure 0
0000
0000
0000
0000
,  // measure 1
0000
0000
0000
0000
,  // measure 2
0000
0000
0000
0000
,  // measure 3
0000
0000
0000
0000
,  // measure 4
0000
0000
0000
0000
,  // measure 5
0000
0000
0000
0000
,  // measure 6
0000
0000
0000
0000
,  // measure 7
0000
0000
0000
0000
,  // measure 8
0000
0000
0000
0000
0000
1000
0100
1000
,  // measure 9
0010
0000
0010
0000
1000
0001
0010
0001
,  // measure 10
0010
0000
0010
0000
0001
0010
0100
1000
,  // measure 11
0010
0000
0010
0000
1000
0100
1000
0001
,  // measure 12
1000
1000
0001
1000
,  // measure 13
0001
1000
0001
0000
1000
0001
1000
0000
,  // measure 14
0001
1000
0001
0000
1000
0000
0000
1000
,  // measure 15
0000
0002
1003
1000
,  // measure 16
1000
0000
1000
0000
0001
1000
0100
0010
,  // measure 17
0001
0000
0001
0000
0001
0010
0100
1000
,  // measure 18
0010
0000
0010
0000
1000
0001
1000
0001
,  // measure 19
1000
0000
1000
0000
1000
0100
0010
0001
,  // measure 20
0010
0001
0010
0010
,  // measure 21
0100
0000
0100
0000
1000
0100
1000
0000
,  // measure 22
0100
1000
0100
0000
1000
0000
0000
1000
,  // measure 23
0000
0002
1003
1000
,  // measure 24
1000
0000
1000
0000
1001
0000
0000
1001
,  // measure 25
0000
0001
0010
0100
,  // measure 26
1000
0010
1000
0000
0001
0000
0000
0001
,  // measure 27
0000
1000
0100
0010
,  // measure 28
0001
0010
0001
0000
1000
0000
0000
1000
,  // measure 29
0000
0010
1000
0100
,  // measure 30
1000
0001
1000
0000
0001
0000
0000
0001
,  // measure 31
0000
0000
0000
0000
1000
0001
0000
1000
,  // measure 32
0000
0001
1000
0001
1000
0001
0000
0020
,  // measure 33
0000
0030
0000
0000
0010
0000
0000
0010
,  // measure 34
0000
0001
0010
0001
2000
0000
0000
3002
,  // measure 35
0000
0003
1000
0002
0000
0003
0000
1000
,  // measure 36
0100
0010
0001
0000
0010
0000
0000
0020
,  // measure 37
0000
0000
0000
0030
0001
1000
0001
0000
,  // measure 38
1000
0001
1000
0000
,  // measure 39
0000
0000
0000
0000
0000
1000
0100
1000
,  // measure 40
0100
1000
0100
1000
0100
1000
0000
1000
,  // measure 41
0000
0000
0001
0000
1000
0001
1000
0001
,  // measure 42
0000
1000
0001
0000
0010
0001
0010
0001
,  // measure 43
0000
0010
0001
0000
1000
0001
1000
0001
,  // measure 44
0000
0001
1000
0000
1000
0100
1000
0100
,  // measure 45
0000
1000
0100
0000
1000
0001
1000
0001
,  // measure 46
0000
1000
0001
0000
0010
0000
0000
0000
,  // measure 47
0000
0000
0000
0000
0000
1000
0001
1000
,  // measure 48
0001
1000
0001
0000
0001
0000
0010
0000
,  // measure 49
0100
0010
0100
0000
1000
0000
0010
0000
,  // measure 50
1000
0010
1000
0000
0001
0000
0010
0000
,  // measure 51
0001
0010
0001
0000
1000
0000
0100
0000
,  // measure 52
1000
0100
1000
0000
0010
0000
1000
0000
,  // measure 53
0001
0000
0010
0000
0100
0010
0001
0000
,  // measure 54
0001
0010
0100
0000
1000
0000
0000
1000
,  // measure 55
0000
0010
1000
1000
,  // measure 56
0100
1000
0100
0000
1000
0000
0000
1000
,  // measure 57
0000
0001
0010
0100
,  // measure 58
1000
0001
1000
0001
1000
0000
0000
0010
,  // measure 59
0000
1000
0100
0010
,  // measure 60
0001
0010
0001
0010
0001
0000
0000
1000
,  // measure 61
0000
0010
1000
0001
,  // measure 62
0010
0001
0010
0000
0001
0000
0000
0001
,  // measure 63
0000
0000
0000
0000
1000
0000
0000
0001
,  // measure 64
0000
1000
0001
1000
0001
1000
0000
0200
,  // measure 65
0000
0300
0000
0000
0100
0000
0000
0100
,  // measure 66
0000
1000
0100
1000
0002
0000
0000
2003
,  // measure 67
0000
3000
0001
2000
0000
3000
0000
0001
,  // measure 68
0010
0100
1000
0000
0100
0000
0000
0200
,  // measure 69
0000
0000
0000
0300
1000
0001
1000
0000
,  // measure 70
0001
1000
0001
0000
,  // measure 71
0000
0000
0000
0000
0000
0001
0010
0001
,  // measure 72
0010
0001
0010
0001
0010
0000
0000
1000
,  // measure 73
0000
0000
1000
0000
0100
1000
0010
1000
,  // measure 74
0000
1000
0001
0010
0001
0000
0001
0010
,  // measure 75
0000
0000
0010
0001
0010
0000
0000
0001
,  // measure 76
0010
0100
1000
0010
1000
0010
0000
2000
,  // measure 77
0000
0000
0000
0000
3001
1000
0001
0000
,  // measure 78
0001
0000
0010
0100
0000
0000
0010
0000
,  // measure 79
0100
0010
0000
0010
0000
0000
0000
0000
;

//---------------dance-single - ----------------
#NOTEDATA:;
#CHARTNAME:;
#STEPSTYPE:dance-single;
#DESCRIPTION:;
#CHARTSTYLE:;
#DIFFICULTY:Easy;
#METER:4;
#RADARVALUES:0.222676,0.269390,0.000000,0.000000,0.000000,207.000000,207.000000,0.000000,0.000000,0.000000,0.000000,0.000000,0.000000,0.000000,0.222676,0.269390,0.000000,0.000000,0.000000,207.000000,207.000000,0.000000,0.000000,0.000000,0.000000,0.000000,0.000000,0.000000;
#CREDIT:Musey's Chart;
#NOTES:
// measure 0
0000
0000
0000
0000
,  // measure 1
0000
0000
0000
0000
,  // measure 2
0000
0000
0000
0000
,  // measure 3
0000
0000
0000
0000
,  // measure 4
0000
0000
0000
0000
,  // measure 5
0000
0000
0000
0000
,  // measure 6
0000
0000
0000
0000
,  // measure 7
0000
0000
0000
0000
,  // measure 8
0000
0000
0001
1000
,  // measure 9
0001
0001
1000
0001
,  // measure 10
1000
1000
0100
1000
,  // measure 11
0100
0100
1000
0010
,  // measure 12
1000
1000
0001
0000
,  // measure 13
0001
0000
1000
0100
,  // measure 14
1000
0100
1000
0000
,  // measure 15
1000
0000
0001
1000
,  // measure 16
0001
1000
0001
0001
,  // measure 17
0010
0000
0001
0010
,  // measure 18
0001
0000
0100
0010
,  // measure 19
0001
0000
0010
1000
,  // measure 20
0001
0000
1000
0100
,  // measure 21
1000
0000
0001
1000
,  // measure 22
0010
0000
0001
0000
,  // measure 23
0001
0000
1000
0100
,  // measure 24
1000
0100
1000
0000
,  // measure 25
1000
0000
0001
1000
,  // measure 26
0001
1000
0001
0000
,  // measure 27
0001
0000
0010
0100
,  // measure 28
1000
0100
0010
0000
,  // measure 29
0010
0000
0001
0010
,  // measure 30
0100
0010
0001
0000
,  // measure 31
0001
0000
1000
0000
,  // measure 32
1000
0000
0001
1000
,  // measure 33
0001
0000
1000
0001
,  // measure 34
1000
0000
0001
0010
,  // measure 35
0100
0000
1000
0100
,  // measure 36
1000
0000
0001
1000
,  // measure 37
0001
0000
1000
0010
,  // measure 38
1000
0000
0010
0000
,  // measure 39
0000
0000
0000
1000
,  // measure 40
0100
1000
0001
0001
,  // measure 41
1000
0000
0001
0010
,  // measure 42
0100
0000
0001
1000
,  // measure 43
0001
0000
1000
0010
,  // measure 44
1000
0000
1000
0100
,  // measure 45
0010
0000
0001
0010
,  // measure 46
0100
0000
1000
0000
,  // measure 47
1000
0000
0001
0000
,  // measure 48
0000
0000
1000
0001
,  // measure 49
1000
1000
0001
1000
,  // measure 50
0001
0001
0010
0001
,  // measure 51
0010
0010
0001
0010
,  // measure 52
0001
0001
0010
0000
,  // measure 53
0010
0000
0001
0010
,  // measure 54
0100
1000
0010
0000
,  // measure 55
0010
0000
1000
0001
,  // measure 56
1000
0001
1000
0000
,  // measure 57
1000
0000
0010
1000
,  // measure 58
0001
1000
0010
0000
,  // measure 59
0010
0000
1000
0100
,  // measure 60
0010
0100
1000
0000
,  // measure 61
1000
0000
0001
1000
,  // measure 62
0010
1000
0001
0000
,  // measure 63
0000
0000
0000
0000
,  // measure 64
0000
0000
1000
0001
,  // measure 65
1000
0000
0001
1000
,  // measure 66
0001
0000
0010
0001
,  // measure 67
0010
0000
0001
0010
,  // measure 68
0001
0000
0001
0010
,  // measure 69
0001
0000
1000
0001
,  // measure 70
1000
0000
0010
0000
,  // measure 71
0000
0000
0000
1000
,  // measure 72
0100
1000
0001
0001
,  // measure 73
1000
0000
0010
1000
,  // measure 74
0010
0000
1000
0100
,  // measure 75
1000
0000
0001
1000
,  // measure 76
0010
0000
1000
0100
,  // measure 77
0010
0000
0001
0010
,  // measure 78
0100
0000
1000
0000
,  // measure 79
1000
0000
1000
0000
;

//---------------dance-single - ----------------
#NOTEDATA:;
#CHARTNAME:;
#STEPSTYPE:dance-single;
#DESCRIPTION:;
#CHARTSTYLE:;
#DIFFICULTY:Beginner;
#METER:1;
#RADARVALUES:0.110800,0.177334,0.015060,0.000000,0.000000,103.000000,101.000000,2.000000,0.000000,0.000000,0.000000,0.000000,0.000000,0.000000,0.110800,0.177334,0.015060,0.000000,0.000000,103.000000,101.000000,2.000000,0.000000,0.000000,0.000000,0.000000,0.000000,0.000000;
#CREDIT:Musey's Chart;
#NOTES:
// measure 0
0000
0000
0000
0000
,  // measure 1
0000
0000
0000
0000
,  // measure 2
0000
0000
0000
0000
,  // measure 3
0000
0000
0000
0000
,  // measure 4
0000
0000
0000
0000
,  // measure 5
0000
0000
0000
0000
,  // measure 6
0000
0000
0000
0000
,  // measure 7
0000
0000
0000
0000
,  // measure 8
0000
0000
1000
0000
,  // measure 9
0000
0000
0001
0000
,  // measure 10
0000
0000
0010
0000
,  // measure 11
0000
0000
1000
0000
,  // measure 12
0000
0000
0100
0000
,  // measure 13
0000
0000
1000
0000
,  // measure 14
0000
0000
0010
0000
,  // measure 15
0000
0000
0000
0000
,  // measure 16
0000
0000
1000
0000
,  // measure 17
1000
0000
0001
0000
,  // measure 18
0001
0000
0010
0000
,  // measure 19
0010
0000
1000
0000
,  // measure 20
1000
0000
0001
0000
,  // measure 21
0001
0000
0100
0000
,  // measure 22
0100
0000
0001
0000
,  // measure 23
0000
0000
0000
0000
,  // measure 24
0000
0000
1000
0000
,  // measure 25
1000
0000
0010
0000
,  // measure 26
0010
0000
0001
0000
,  // measure 27
0001
0000
1000
0000
,  // measure 28
1000
0000
0010
0000
,  // measure 29
0010
0000
1000
0000
,  // measure 30
1000
0000
0001
0000
,  // measure 31
0000
0000
0000
0000
,  // measure 32
0000
0000
1000
0000
,  // measure 33
0000
0000
0010
0000
,  // measure 34
0000
0000
0001
0000
,  // measure 35
0000
0000
1000
0000
,  // measure 36
0000
0000
0010
0000
,  // measure 37
0000
0000
1000
0000
,  // measure 38
0000
0000
0001
0000
,  // measure 39
0000
0000
0000
0000
,  // measure 40
0000
0000
1000
0000
,  // measure 41
1000
0000
0001
0000
,  // measure 42
0001
0000
0010
0000
,  // measure 43
0010
0000
1000
0000
,  // measure 44
1000
0000
0001
0000
,  // measure 45
0001
0000
0010
0000
,  // measure 46
0010
0000
1000
0000
,  // measure 47
0000
0000
0000
0000
,  // measure 48
0000
0000
1000
0000
,  // measure 49
0001
0000
1000
0000
,  // measure 50
0001
0000
0001
0000
,  // measure 51
1000
0000
1000
0000
,  // measure 52
0001
0000
0010
0000
,  // measure 53
0010
0000
1000
0000
,  // measure 54
1000
0000
0100
0000
,  // measure 55
0000
0000
1000
0000
,  // measure 56
1000
0000
0001
0000
,  // measure 57
0001
0000
0010
0000
,  // measure 58
0010
0000
1000
0000
,  // measure 59
1000
0000
0001
0000
,  // measure 60
0001
0000
0100
0000
,  // measure 61
0100
0000
1000
0000
,  // measure 62
1000
0000
0010
0000
,  // measure 63
0000
0000
0000
0000
,  // measure 64
0000
0000
1000
0000
,  // measure 65
0000
0000
0001
0000
,  // measure 66
0000
0000
1000
0000
,  // measure 67
0000
0000
0010
0000
,  // measure 68
0000
0000
1000
0000
,  // measure 69
0000
0000
0010
0000
,  // measure 70
0000
0000
1001
0000
,  // measure 71
0000
0000
0000
0000
,  // measure 72
0000
0000
1000
0000
,  // measure 73
1000
0000
0010
0000
,  // measure 74
0010
0000
1000
0000
,  // measure 75
1000
0000
0001
0000
,  // measure 76
0001
0000
1000
0000
,  // measure 77
0001
0000
1000
0000
,  // measure 78
0010
0000
1010
0000
;
