#TITLE:Like Psycho;
#SUBTITLE:;
#ARTIST:WeNa;
#TITLETRANSLIT:;
#SUBTITLETRANSLIT:;
#ARTISTTRANSLIT:;
#GENRE:;
#CREDIT:;
#BANNER:AV.avi;
#BACKGROUND:bg.png;
#LYRICSPATH:;
#CDTITLE:;
#MUSIC:audio.ogg;
#OFFSET:-0.192000;
#SAMPLESTART:45.720116;
#SAMPLELENGTH:15.000016;
#SELECTABLE:YES;
#BPMS:0.000000=174.988007
;
#STOPS:
;
#BGCHANGES:;
#KEYSOUNDS:;
#ATTACKS:;

//---------------dance-single - ----------------
#NOTES:
     dance-single:
     :
     Beginner:
     2:
     0.158490,0.178170,0.000000,0.029389,0.000000,151.000000,151.000000,0.000000,4.000000,0.000000,0.000000,0.158490,0.178170,0.000000,0.029389,0.000000,151.000000,151.000000,0.000000,4.000000,0.000000,0.000000:
// measure 0
0000
0000
0000
0000
,  // measure 1
0000
0000
0000
0000
,  // measure 2
0000
0000
0000
0000
,  // measure 3
0000
0000
0000
0000
,  // measure 4
0000
0000
0000
0000
,  // measure 5
0000
0000
0000
0000
,  // measure 6
0000
0000
0000
0000
,  // measure 7
0000
0000
0000
0000
,  // measure 8
0000
0000
0000
0000
,  // measure 9
0000
0000
1000
0000
,  // measure 10
1000
0000
0001
0000
,  // measure 11
0001
0000
0100
0000
,  // measure 12
0100
0000
0010
0000
,  // measure 13
0010
0000
1000
0000
,  // measure 14
0001
0000
1000
0000
,  // measure 15
1000
0000
0100
0000
,  // measure 16
0010
0000
0001
0000
,  // measure 17
1000
0000
0100
0000
,  // measure 18
0100
0000
1000
0000
,  // measure 19
1000
0000
0010
0000
,  // measure 20
0010
0000
0001
0000
,  // measure 21
0001
0000
0100
0000
,  // measure 22
1000
0000
0100
0000
,  // measure 23
0100
0000
0010
0000
,  // measure 24
0010
0000
0100
0000
,  // measure 25
0100
0000
0002
0000
,  // measure 26
0000
0000
1003
0000
,  // measure 27
0000
0000
2000
0000
,  // measure 28
0000
0000
3001
0000
,  // measure 29
0000
0000
0200
0000
,  // measure 30
0000
0000
0001
0300
,  // measure 31
0000
0000
0020
0000
,  // measure 32
0000
0000
1030
0000
,  // measure 33
0000
0000
0001
0000
,  // measure 34
0100
0000
0001
0000
,  // measure 35
0001
0000
1000
0000
,  // measure 36
0010
0000
1000
0000
,  // measure 37
1000
0000
0100
0000
,  // measure 38
0001
0000
1000
0000
,  // measure 39
1000
0000
0001
0000
,  // measure 40
0010
0000
0100
0000
,  // measure 41
0100
0000
1000
0000
,  // measure 42
1000
0000
1000
0000
,  // measure 43
0000
0000
0001
0000
,  // measure 44
0001
0000
0001
0000
,  // measure 45
0000
0000
0100
0000
,  // measure 46
1000
0000
0010
0000
,  // measure 47
0001
0000
0010
0000
,  // measure 48
0010
0000
0100
0000
,  // measure 49
0100
0000
1000
0000
,  // measure 50
0000
0000
1000
0000
,  // measure 51
1000
0000
1000
0000
,  // measure 52
0000
0000
0001
0000
,  // measure 53
0001
0000
0001
0000
,  // measure 54
0100
0000
0010
0000
,  // measure 55
0100
0000
1000
0000
,  // measure 56
0001
0000
1000
0000
,  // measure 57
1000
0000
0010
0000
,  // measure 58
0010
0000
0100
0000
,  // measure 59
0100
0000
0001
0000
,  // measure 60
0001
0000
1000
0000
,  // measure 61
1000
0000
0100
0000
,  // measure 62
1000
0000
0100
0000
,  // measure 63
0010
0000
1000
0000
,  // measure 64
0000
0000
1000
0000
,  // measure 65
0000
0000
0001
0000
,  // measure 66
0001
0000
0001
0000
,  // measure 67
0000
0000
1000
0000
,  // measure 68
1000
0000
1000
0000
,  // measure 69
0000
0000
0100
0000
,  // measure 70
1000
0000
0010
0000
,  // measure 71
0000
0000
0100
0000
,  // measure 72
0100
0000
0100
0000
,  // measure 73
0000
0000
1000
0000
,  // measure 74
0001
0000
1000
0000
,  // measure 75
1000
0000
0001
0000
,  // measure 76
1000
0000
0001
0000
,  // measure 77
0001
0000
0100
0000
,  // measure 78
0000
0000
0100
0000
,  // measure 79
0000
0000
0010
0000
,  // measure 80
0100
0000
0010
0000
,  // measure 81
0000
0000
1000
0000
,  // measure 82
1000
0000
1000
0000
,  // measure 83
0000
0000
0001
0000
,  // measure 84
0001
0000
0001
0000
,  // measure 85
0000
0000
0100
0000
,  // measure 86
0010
0000
0100
0000
,  // measure 87
1000
0000
0001
0000
,  // measure 88
0000
0000
0001
0000
,  // measure 89
0000
0000
1000
0000
,  // measure 90
1000
0000
0010
0000
,  // measure 91
0010
0000
1000
0000
,  // measure 92
1000
0000
0100
0000
,  // measure 93
0100
0000
0001
0000
,  // measure 94
0001
0000
1000
0000
,  // measure 95
1000
0000
0010
0000
,  // measure 96
0010
0000
1000
0000
,  // measure 97
1000
0000
0000
0000
;

//---------------dance-single - ----------------
#NOTES:
     dance-single:
     :
     Easy:
     5:
     0.274996,0.322359,0.000000,0.000000,0.000000,262.000000,262.000000,0.000000,0.000000,0.000000,0.000000,0.274996,0.322359,0.000000,0.000000,0.000000,262.000000,262.000000,0.000000,0.000000,0.000000,0.000000:
// measure 0
0000
0000
0000
0000
,  // measure 1
0000
0000
0000
0000
,  // measure 2
0000
0000
0000
0000
,  // measure 3
0000
0000
0000
0000
,  // measure 4
0000
0000
0000
0000
,  // measure 5
0000
0000
0000
0000
,  // measure 6
0000
0000
0000
0000
,  // measure 7
0000
0000
0000
0000
,  // measure 8
0000
0000
0000
0000
,  // measure 9
0000
0000
1000
0000
,  // measure 10
0001
0000
1000
0010
,  // measure 11
1000
0000
0100
1000
,  // measure 12
0001
0000
0010
0000
,  // measure 13
0010
0000
1000
0100
,  // measure 14
1000
0000
1000
0001
,  // measure 15
1000
0000
1000
0100
,  // measure 16
0010
0001
0010
0000
,  // measure 17
0100
0000
1000
1000
,  // measure 18
0001
0001
1000
1000
,  // measure 19
0001
0001
0100
0100
,  // measure 20
0010
0010
0100
0100
,  // measure 21
0010
0000
1000
1000
,  // measure 22
0001
0001
1000
1000
,  // measure 23
0001
0000
0100
0100
,  // measure 24
0001
0001
1000
0010
,  // measure 25
1000
0000
0100
0000
,  // measure 26
0100
0000
0001
0000
,  // measure 27
0001
0000
1000
0000
,  // measure 28
1000
0000
0010
0000
,  // measure 29
0010
0000
1000
0010
,  // measure 30
1000
0000
1000
0001
,  // measure 31
1000
0000
1000
0100
,  // measure 32
0010
0001
0010
0100
,  // measure 33
1000
0000
0001
1000
,  // measure 34
0001
0000
1000
0001
,  // measure 35
1000
0000
1000
0010
,  // measure 36
1000
0000
0100
1000
,  // measure 37
0001
0000
1000
0100
,  // measure 38
1000
1000
0001
1000
,  // measure 39
0001
0000
0010
0100
,  // measure 40
0010
0010
0100
0001
,  // measure 41
1000
0000
0010
0000
,  // measure 42
0010
0000
0100
0000
,  // measure 43
0100
0000
0001
1000
,  // measure 44
0001
0000
1000
0001
,  // measure 45
1000
0000
1000
0100
,  // measure 46
0010
0000
0100
1000
,  // measure 47
0001
1000
0001
0000
,  // measure 48
0001
0000
1000
0000
,  // measure 49
1000
0000
0100
1000
,  // measure 50
0100
0000
0100
0010
,  // measure 51
0100
0000
0100
0001
,  // measure 52
1000
1000
0001
1000
,  // measure 53
0001
0000
0100
0010
,  // measure 54
0100
0000
0100
1000
,  // measure 55
0100
0000
0001
1000
,  // measure 56
0001
0000
0100
0010
,  // measure 57
1000
0000
1000
0000
,  // measure 58
1000
0000
0001
1000
,  // measure 59
0001
0000
0100
0000
,  // measure 60
0100
0000
0100
1000
,  // measure 61
0010
0000
1000
0001
,  // measure 62
1000
0000
0010
0100
,  // measure 63
0001
0000
0001
0000
,  // measure 64
0001
0000
1000
0000
,  // measure 65
1000
0000
0010
0100
,  // measure 66
0010
0000
0010
0100
,  // measure 67
0010
0000
0001
1000
,  // measure 68
0001
0000
0001
1000
,  // measure 69
0001
0000
1000
0000
,  // measure 70
1000
0000
0100
0000
,  // measure 71
0100
0000
1000
0100
,  // measure 72
0010
0001
0010
0000
,  // measure 73
0010
0000
0100
0100
,  // measure 74
0001
0000
1000
0001
,  // measure 75
1000
0000
0100
1000
,  // measure 76
0010
0000
0100
0001
,  // measure 77
1000
0000
0100
0100
,  // measure 78
1000
0000
1000
0001
,  // measure 79
1000
0000
0010
0100
,  // measure 80
1000
0001
1000
0000
,  // measure 81
1000
0000
0001
0010
,  // measure 82
0001
0000
0001
0010
,  // measure 83
0001
0000
0100
1000
,  // measure 84
0100
0000
0100
1000
,  // measure 85
0100
0000
1000
0001
,  // measure 86
1000
0010
1000
0000
,  // measure 87
1000
0000
0001
0000
,  // measure 88
0001
0000
0100
0000
,  // measure 89
0100
0000
1000
0010
,  // measure 90
1000
1000
0010
1000
,  // measure 91
0010
0000
0100
0001
,  // measure 92
0100
0100
0001
0100
,  // measure 93
0001
0000
1000
0001
,  // measure 94
1000
1000
0001
1000
,  // measure 95
0001
0000
1000
0100
,  // measure 96
0010
0001
0010
0100
,  // measure 97
1000
0001
1000
0000
;

//---------------dance-single - ----------------
#NOTES:
     dance-single:
     :
     Medium:
     9:
     0.427188,0.465630,0.220416,0.330625,0.000000,407.000000,377.000000,30.000000,45.000000,0.000000,0.000000,0.427188,0.465630,0.220416,0.330625,0.000000,407.000000,377.000000,30.000000,45.000000,0.000000,0.000000:
// measure 0
0000
0000
0000
0000
,  // measure 1
0000
0000
0000
0000
,  // measure 2
0000
0000
0000
0000
,  // measure 3
0000
0000
0000
0000
,  // measure 4
0000
0000
0000
0000
,  // measure 5
0000
0000
0000
0000
,  // measure 6
0000
0000
0000
0000
,  // measure 7
0000
0000
0000
0000
,  // measure 8
0000
0000
0000
0000
,  // measure 9
0000
0000
0000
0000
1000
0000
0010
1000
,  // measure 10
0010
0000
1001
0000
0001
0000
1000
0100
,  // measure 11
0010
0000
0001
0000
0001
1000
0010
0000
,  // measure 12
1010
0000
0100
0000
0010
0000
1000
0010
,  // measure 13
0001
0000
0010
0000
0010
0100
0001
0000
,  // measure 14
1001
0000
0001
0000
0100
0000
0010
1000
,  // measure 15
0100
0000
0001
0000
1000
0100
0010
0000
,  // measure 16
0011
1000
0001
0100
,  // measure 17
0010
0000
1000
0000
1001
0000
0100
0010
,  // measure 18
0000
0010
0100
0000
0001
0000
1000
0000
,  // measure 19
0100
0000
0010
1000
0001
0000
1000
0010
,  // measure 20
0000
0010
1000
0000
0001
0000
1000
0000
,  // measure 21
0100
0010
1001
0010
,  // measure 22
0100
1000
1001
0100
,  // measure 23
0010
0100
1001
0010
,  // measure 24
1000
0100
0010
0100
,  // measure 25
0010
0001
1000
0000
,  // measure 26
0010
0000
0100
0000
,  // measure 27
0001
0000
1000
0000
,  // measure 28
0100
0000
0010
0000
,  // measure 29
1000
0010
1000
0010
,  // measure 30
0100
0001
0100
0001
,  // measure 31
1000
0010
0100
0010
,  // measure 32
0010
0100
0001
0000
2000
0000
0000
0000
,  // measure 33
3000
0000
0000
0000
1001
0000
1000
0001
,  // measure 34
1000
0000
0010
0100
0000
0100
0010
0000
,  // measure 35
1000
0000
0010
0000
1010
0000
1000
0001
,  // measure 36
0100
0000
0001
1000
0000
1000
0010
0000
,  // measure 37
0100
0000
0010
0000
1001
0000
1000
0010
,  // measure 38
0100
0100
0001
1000
,  // measure 39
0010
0000
0100
0000
0010
0000
0010
0100
,  // measure 40
0001
0010
0100
1000
,  // measure 41
0010
0000
1000
0001
0100
0000
0010
0100
,  // measure 42
0000
0100
0010
0000
1001
0000
0100
0001
,  // measure 43
0000
0001
1000
0000
0001
0000
1000
0100
,  // measure 44
0000
0100
1000
0000
1001
0000
0010
0000
,  // measure 45
0001
0000
0100
0000
0010
0000
1000
0002
,  // measure 46
0000
0003
1000
0020
0000
0030
0100
0002
,  // measure 47
0000
0003
1000
0010
1000
0000
0001
0000
,  // measure 48
0010
0100
1000
0010
,  // measure 49
1000
0010
0100
0001
,  // measure 50
0010
0000
0100
1000
0010
0000
0010
0100
,  // measure 51
0000
0100
0001
0000
1001
0000
0100
0000
,  // measure 52
0100
0000
0001
1000
0001
0000
1000
0010
,  // measure 53
0000
0010
0100
0000
0101
0000
0001
0000
,  // measure 54
1000
0001
0110
1000
,  // measure 55
0001
1000
0110
0001
,  // measure 56
1000
0010
1000
0001
,  // measure 57
1000
0010
1000
0000
1001
0000
0001
0100
,  // measure 58
0002
2003
3200
0320
,  // measure 59
0032
0000
2003
3000
1010
0000
0010
0100
,  // measure 60
0002
0023
0230
2300
,  // measure 61
3020
0230
0302
1003
,  // measure 62
0010
0100
0001
0010
,  // measure 63
0100
1000
0010
1000
,  // measure 64
0100
0010
0001
1000
,  // measure 65
0010
1000
0001
0000
,  // measure 66
1000
0000
0010
0000
,  // measure 67
1000
0000
0100
0000
,  // measure 68
0001
0000
1000
0000
,  // measure 69
0010
0100
0010
0100
,  // measure 70
0001
1000
0001
1000
,  // measure 71
0010
0100
0001
1000
,  // measure 72
1000
0100
0010
0000
0002
0000
0000
0000
,  // measure 73
0003
0000
0000
0000
1001
0000
0001
1000
,  // measure 74
0100
0000
1000
0100
0000
0100
0010
0000
,  // measure 75
1000
0000
0001
0000
0101
0000
0001
1000
,  // measure 76
0010
0000
1000
0100
0000
0100
0010
0000
,  // measure 77
0001
0000
0100
0000
1001
0000
0001
0100
,  // measure 78
0010
0010
1000
0001
,  // measure 79
0100
0000
0010
0000
0100
0000
0100
0010
,  // measure 80
1000
0100
0010
0001
,  // measure 81
0100
0000
0001
1000
0010
0000
0100
0010
,  // measure 82
0000
0010
0100
0000
1001
0000
0010
0100
,  // measure 83
0000
0100
0010
0000
1000
0000
0001
0010
,  // measure 84
0000
0010
0001
0000
1001
0000
0100
0000
,  // measure 85
1000
0000
0010
0000
0100
0000
0001
2000
,  // measure 86
0000
3000
0001
0200
0000
0300
0010
2000
,  // measure 87
0000
3000
0001
0100
0001
0000
1000
0000
,  // measure 88
0010
0100
0001
1000
,  // measure 89
0010
0100
0001
0000
1001
0000
0020
0030
,  // measure 90
0200
0300
0020
0030
0200
0300
0002
0003
,  // measure 91
0110
0000
1001
0000
0002
0003
2000
3000
,  // measure 92
2000
3000
0020
0030
0200
0300
0002
0003
,  // measure 93
2000
3000
1000
0010
0200
0300
0002
0003
,  // measure 94
0002
0003
0020
0030
0200
0300
2000
3000
,  // measure 95
0101
0000
1010
0000
0002
0003
2000
3000
,  // measure 96
0020
0030
2000
3000
0200
0300
0020
0030
,  // measure 97
0001
1000
0001
0000
0110
0000
0000
0000
;

//---------------dance-single - ----------------
#NOTES:
     dance-single:
     :
     Hard:
     13:
     0.570984,0.573083,0.183680,0.499611,0.036736,544.000000,519.000000,25.000000,68.000000,0.000000,0.000000,0.570984,0.573083,0.183680,0.499611,0.036736,544.000000,519.000000,25.000000,68.000000,0.000000,0.000000:
// measure 0
0000
0000
0000
0000
,  // measure 1
0000
0000
0000
0000
,  // measure 2
0000
0000
0000
0000
,  // measure 3
0000
0000
0000
0000
,  // measure 4
0000
0000
0000
0000
,  // measure 5
0000
0000
0000
0000
,  // measure 6
0000
0000
0000
0000
,  // measure 7
0000
0000
0000
0000
,  // measure 8
0000
0000
0000
0000
,  // measure 9
0000
0000
0000
0000
1001
0000
0010
1000
,  // measure 10
0002
0000
1003
0100
0010
0001
2000
0000
,  // measure 11
3002
0000
2003
0000
3010
0100
0010
1000
,  // measure 12
0001
0000
0001
0010
0100
1000
0000
1000
,  // measure 13
0001
0010
1000
0010
0100
1000
0100
0010
,  // measure 14
0001
0000
0001
1000
0010
1000
0100
0010
,  // measure 15
0002
0000
2003
0000
3010
0010
0100
0001
,  // measure 16
1000
0000
0000
0000
0001
0000
0100
0000
0010
0000
0000
0010
0000
0000
0010
0000
,  // measure 17
0000
1000
0001
1000
0001
0000
0100
0020
,  // measure 18
1030
0000
0100
0020
0031
0010
0100
1000
,  // measure 19
0001
0000
0000
0001
0000
0000
0001
0000
1000
0000
0000
0000
0010
0000
0200
0000
,  // measure 20
0301
0000
0010
0200
1300
0000
0001
1000
,  // measure 21
0100
0010
0001
0100
0010
0000
0010
1000
,  // measure 22
0001
0010
1000
0010
0001
0000
0001
0100
,  // measure 23
0010
1000
0100
1000
0001
0000
1000
0001
,  // measure 24
0100
0000
0110
0000
0010
1000
0001
0010
,  // measure 25
0100
1000
0100
0010
0001
0000
0000
0010
,  // measure 26
1000
0001
1000
0200
0300
2000
3000
0002
,  // measure 27
0003
0020
0000
0030
2001
0000
3000
0002
,  // measure 28
0100
0003
0200
0000
0010
0000
0000
0000
,  // measure 29
0301
1000
0001
0010
,  // measure 30
0100
1000
0001
0100
,  // measure 31
0001
0000
1000
0100
0010
0001
0100
0001
,  // measure 32
1000
0001
1000
0100
0020
0000
0000
0000
,  // measure 33
0030
0000
0000
0000
0011
0000
0001
2000
,  // measure 34
0000
3001
0010
0100
0000
0100
0010
0001
,  // measure 35
1000
0001
0100
0010
1000
0000
0010
0200
,  // measure 36
0000
0301
1000
0001
0000
1000
0010
0100
,  // measure 37
0001
0010
0001
0010
0100
1000
0001
0010
,  // measure 38
0100
0010
0001
0000
1001
0000
0010
1000
,  // measure 39
0001
0010
1000
0010
0001
0000
1000
0100
,  // measure 40
1000
0000
0000
0000
1001
0000
0000
0000
0001
0000
0000
0001
0000
0000
0001
0000
,  // measure 41
0010
0100
1000
0001
0010
0000
1000
0002
,  // measure 42
0103
0000
0001
2000
3010
0000
0110
0000
,  // measure 43
0001
1000
0010
0100
0010
0000
1000
0020
,  // measure 44
0130
0000
0001
0200
0310
0001
0010
0100
,  // measure 45
0001
1000
0010
1000
0001
0000
0001
2000
,  // measure 46
0000
3010
0100
0000
1001
0000
0010
0200
,  // measure 47
0000
0301
1000
0000
0110
0000
0001
1000
,  // measure 48
0001
0000
0000
0000
0110
0000
0000
0000
0010
0000
0000
0010
0000
0000
0010
0000
,  // measure 49
1000
0100
1000
0001
0100
0000
0010
0100
,  // measure 50
0000
0000
0110
0000
1000
0010
0001
1000
,  // measure 51
0100
0001
1000
0100
1000
0000
0001
1000
,  // measure 52
0000
0000
1010
0000
0001
0100
1000
0001
,  // measure 53
0010
1000
0001
0010
0100
0000
0100
1000
,  // measure 54
0001
0000
0000
0001
0000
0000
0001
0000
0010
0000
0100
0000
1000
0000
0000
0000
,  // measure 55
1000
0000
0000
1000
0000
0000
1000
0000
0100
0000
0010
0000
0001
0000
0000
0000
,  // measure 56
0101
0000
0000
0000
0100
0000
0001
0000
1000
0000
0000
1000
0000
0000
1000
0000
,  // measure 57
0000
0010
1000
0010
0200
0000
0301
0100
,  // measure 58
2000
3000
1000
0100
0002
0003
1001
0000
,  // measure 59
0020
1030
0001
0100
0002
0003
1000
0010
,  // measure 60
0002
0003
0001
0010
2000
3000
1001
0000
,  // measure 61
0001
0010
0100
1000
0010
0000
0010
1000
,  // measure 62
0001
1000
0100
0010
0001
0000
0100
0010
,  // measure 63
1000
0000
1010
0000
0001
0000
0001
0010
,  // measure 64
0100
0000
1001
0000
0010
0100
0001
1000
,  // measure 65
0100
0010
0100
1000
0001
0000
0000
0100
,  // measure 66
0001
1000
0001
0020
0030
0002
0003
0200
,  // measure 67
0300
0020
0000
0030
0102
0000
0003
2000
,  // measure 68
0010
3000
0002
0000
0100
0000
0003
0000
,  // measure 69
1000
0001
1000
0100
,  // measure 70
0010
0001
1000
0010
,  // measure 71
1000
0000
0001
0100
0010
1000
0001
0010
,  // measure 72
1000
0010
0001
1000
0200
0000
0000
0000
,  // measure 73
0300
0000
0000
0000
1100
0000
1000
0002
,  // measure 74
0000
1003
0100
0010
0000
0010
0100
1000
,  // measure 75
0001
1000
0010
0100
0001
0000
0100
0020
,  // measure 76
0000
1030
0001
1000
0000
0001
0100
0010
,  // measure 77
1000
0100
1000
0100
0010
0001
1000
0100
,  // measure 78
0001
0100
1000
0000
0011
0000
0100
0001
,  // measure 79
1000
0010
0001
0010
1000
0000
0001
0100
,  // measure 80
0001
0000
0000
0000
1001
0000
0000
0000
1000
0000
0000
1000
0000
0000
1000
0000
,  // measure 81
0100
0010
0001
1000
0100
0000
0001
2000
,  // measure 82
3010
0000
1000
0002
0103
0000
0110
0000
,  // measure 83
1000
0001
0100
0010
0100
0000
0001
0200
,  // measure 84
0310
0000
1000
0020
0130
1000
0100
0010
,  // measure 85
1000
0010
0100
0001
1000
0000
1000
0002
,  // measure 86
0000
0103
0010
0000
1001
0000
0100
0020
,  // measure 87
0000
1030
0001
0000
0110
0000
1000
0001
,  // measure 88
1000
0000
0000
0000
0110
0000
0000
0000
0100
0000
0000
0100
0000
0000
0100
0000
,  // measure 89
0001
0010
0100
1000
0020
0030
0010
0100
,  // measure 90
0002
0003
0002
0003
0010
0100
2000
3000
,  // measure 91
0002
0013
1000
0010
0200
0300
0100
1000
,  // measure 92
0020
0030
2000
3000
0001
0010
0200
0310
,  // measure 93
0001
1000
0001
1000
0200
0300
0200
0310
,  // measure 94
0002
0003
2000
3000
0010
1000
0200
0300
,  // measure 95
2000
3100
0001
0100
0020
0030
0020
0031
,  // measure 96
0200
0000
0300
0000
0002
0000
0003
0000
1000
0000
0000
1000
0000
0000
1000
0000
,  // measure 97
0100
0001
0100
1000
0001
0000
0000
0000
;
