#VERSION:0.83;
#TITLE:Light Switch;
#SUBTITLE:;
#ARTIST:Charlie Puth;
#TITLETRANSLIT:;
#SUBTITLETRANSLIT:;
#ARTISTTRANSLIT:;
#GENRE:;
#ORIGIN:;
#CREDIT:;
#BANNER:AV.avi;
#BACKGROUND:bg.jpg;
#PREVIEWVID:;
#JACKET:jacket.png;
#CDIMAGE:;
#DISCIMAGE:;
#LYRICSPATH:;
#CDTITLE:;
#MUSIC:audio.ogg;
#OFFSET:-0.016000;
#SAMPLESTART:42.384087;
#SAMPLELENGTH:15.000002;
#SELECTABLE:YES;
#DISPLAYBPM:183.000000;
#BPMS:0.000=183.916,
124.000=160.916,
126.000=158.916,
128.000=150.916,
130.000=170.916,
132.000=183.916,
341.000=160.916,
345.000=150.916,
347.000=170.916,
350.000=183.916;
#STOPS:156.000=0.320,
207.000=0.300,
322.000=0.360;
#DELAYS:;
#WARPS:136.000=20.000,
187.000=20.000,
302.000=20.000,
461.000=20.000;
#TIMESIGNATURES:0.000=4=4;
#TICKCOUNTS:0.000=4;
#COMBOS:0.000=1;
#SPEEDS:0.000=1.000=0.000=0;
#SCROLLS:0.000=1.000,
296.000=0.800,
297.000=0.650,
298.000=0.500,
354.000=0.600,
355.000=0.700,
356.000=0.800,
357.000=1.000;
#FAKES:;
#LABELS:0.000=Song Start;
#BGCHANGES:0.000=MV.avi=1.200=1=0=1===CrossFade==,
2.500=MV.avi=1.000=0=0=1=====,
461.000=MV.avi=0.100=0=0=1=====,
481.000=MV.avi=0.100=0=0=1=====,
99999=-nosongbg-=1.000=0=0=0 // don't automatically add -songbackground-
;
#KEYSOUNDS:;
#ATTACKS:
;

//---------------dance-single - ----------------
#NOTEDATA:;
#CHARTNAME:;
#STEPSTYPE:dance-single;
#DESCRIPTION:;
#CHARTSTYLE:;
#DIFFICULTY:Hard;
#METER:12;
#RADARVALUES:0.485982,0.632125,0.007510,0.653340,0.000000,453.000000,452.000000,1.000000,87.000000,0.000000,0.000000,0.000000,0.000000,21.000000,0.485982,0.632125,0.007510,0.653340,0.000000,453.000000,452.000000,1.000000,87.000000,0.000000,0.000000,0.000000,0.000000,21.000000;
#CREDIT:Musey's Chart;
#DISPLAYBPM:183.000000;
#NOTES:
// measure 0
0000
0000
0000
0000
,  // measure 1
0000
0000
0000
0000
,  // measure 2
0000
0000
0000
0000
,  // measure 3
0000
0000
0000
0000
,  // measure 4
0000
0000
0000
0000
,  // measure 5
0000
0000
0000
0000
,  // measure 6
0000
0000
0000
0000
,  // measure 7
0000
0000
0000
0000
,  // measure 8
0000
0000
0000
0000
,  // measure 9
1000
0001
1000
0100
,  // measure 10
0010
0100
0010
1000
0001
0100
0001
0000
,  // measure 11
1000
0010
1000
0100
,  // measure 12
1000
0001
1000
0001
0010
0100
1000
0000
,  // measure 13
0001
0000
1000
0000
0001
0000
0001
0010
,  // measure 14
0001
0000
1000
0000
0001
0000
1000
0100
,  // measure 15
1000
0000
0010
0000
0001
0000
0100
0010
,  // measure 16
1000
0001
1000
0010
,  // measure 17
0100
0010
1000
0001
,  // measure 18
1000
0010
1000
0100
0010
0001
0010
0000
,  // measure 19
0001
1000
0010
1000
,  // measure 20
0100
1000
0010
1000
0001
0000
0010
0000
,  // measure 21
0001
0000
1000
0000
0010
0000
1000
0001
,  // measure 22
1000
0000
0010
0000
0100
0000
0001
1000
,  // measure 23
0001
0000
0010
0000
0100
0000
0010
0100
,  // measure 24
0010
0001
1000
0010
,  // measure 25
0010
1000
0001
0010
0100
1000
0001
1000
,  // measure 26
0020
1030
0020
1030
,  // measure 27
0001
0010
0100
1000
0001
0100
0010
1000
,  // measure 28
0002
1003
0002
1003
,  // measure 29
1000
0100
0010
0000
0001
1000
0010
0000
,  // measure 30
1000
0001
0010
0100
,  // measure 31
0020
0000
0000
0000
0030
0000
0000
0000
0002
0000
0000
0003
0000
0000
0000
0000
,  // measure 32
0200
0000
0000
0300
0000
0000
0010
0000
1000
0000
0000
0000
0010
0000
0000
0000
,  // measure 33
0010
0000
1000
0001
1000
0000
0001
0000
,  // measure 34
2000
3000
0000
0000
0000
0000
0000
0000
0000
0000
0000
0000
,  // measure 35
0000
0000
0000
0000
,  // measure 36
0000
0000
0000
0000
,  // measure 37
0000
0000
0000
0000
,  // measure 38
0000
0000
0000
0000
,  // measure 39
1000
0000
0001
1000
0001
0000
1000
0000
,  // measure 40
0100
0000
1000
0000
0010
1000
0020
0000
,  // measure 41
1000
0130
1000
0001
,  // measure 42
0010
0001
0010
0000
0001
0000
2000
3000
,  // measure 43
1000
0100
0010
0001
1000
0100
2000
3000
,  // measure 44
1000
0020
0030
0010
2000
3000
1000
0002
,  // measure 45
0003
0001
2000
3000
0100
0000
0010
0000
,  // measure 46
0001
0000
1000
0000
0010
0000
0000
0000
1000
0000
0000
0000
0020
0030
0000
0000
,  // measure 47
0000
0000
0000
0000
,  // measure 48
0000
0000
0000
0000
,  // measure 49
0000
0000
0000
0000
,  // measure 50
0000
0000
0000
0000
,  // measure 51
0000
0000
0000
0010
,  // measure 52
0001
1000
0001
0000
1000
0000
0100
0000
,  // measure 53
1000
0000
0010
1000
0002
0000
0010
0000
,  // measure 54
0103
0000
1000
0000
0010
1000
0001
0010
,  // measure 55
0100
0000
1000
0000
0020
0030
0010
1000
,  // measure 56
0001
0010
0100
0010
0002
0003
0001
2000
,  // measure 57
3000
1000
0200
0300
0100
2000
3000
1000
,  // measure 58
0020
0030
0200
0000
0010
0000
0000
0000
,  // measure 59
0301
0000
0001
0020
0030
0010
0002
0003
,  // measure 60
0001
0020
0030
0010
0002
0003
0001
0020
,  // measure 61
0030
0010
0001
0000
0001
0010
0100
1000
,  // measure 62
0010
1000
0020
1000
,  // measure 63
0130
0000
1000
0002
0003
0001
2000
3000
,  // measure 64
1000
0020
0030
0010
2000
3000
1000
0200
,  // measure 65
0300
0100
0010
0000
0010
0001
0010
0100
,  // measure 66
1000
0010
1000
0001
,  // measure 67
0010
0000
0001
0020
0030
0010
0002
0003
,  // measure 68
0001
0200
0300
0100
0020
0030
0010
2000
,  // measure 69
3000
1000
0020
0030
0010
1000
0100
1000
,  // measure 70
0010
1000
0002
0010
,  // measure 71
0103
0000
0010
2000
3000
1000
0020
0030
,  // measure 72
0010
2000
3000
1000
0200
0300
0100
0020
,  // measure 73
0030
0010
0002
0003
0010
0200
0300
0100
,  // measure 74
2000
0000
3020
0000
1030
0000
0001
1000
,  // measure 75
0001
0000
0000
0000
0010
0000
0000
0000
0002
0003
0000
0000
0000
0000
0000
0000
,  // measure 76
0000
0000
0000
0000
,  // measure 77
0000
0000
0000
0000
,  // measure 78
0000
0000
0000
0000
,  // measure 79
0000
0000
0000
0000
,  // measure 80
0000
0000
0000
0000
0001
0000
0001
1000
,  // measure 81
0001
1000
0010
1000
,  // measure 82
0100
0020
0000
0031
,  // measure 83
0000
0001
0010
0100
,  // measure 84
1000
0010
0000
1000
,  // measure 85
0000
0000
0000
0000
0200
0000
0000
0000
0300
0000
0000
0000
2000
0000
0000
3000
,  // measure 86
0000
0000
0000
0000
0020
0000
0000
0030
0000
0000
0000
0000
2000
0000
0000
0000
,  // measure 87
0000
0000
0000
0000
,  // measure 88
0000
0000
3010
0100
,  // measure 89
0010
0000
0001
0000
0100
0001
0100
0000
,  // measure 90
0010
0000
1000
0000
1000
0100
0010
0001
,  // measure 91
1000
0010
1000
0000
0001
0000
0010
0000
,  // measure 92
0100
0010
0002
0000
1000
0000
0013
0000
,  // measure 93
1000
0000
0001
1000
0010
1000
0001
0000
,  // measure 94
0010
0000
0100
0000
0001
0010
0100
1000
,  // measure 95
0010
1000
0002
0003
0001
2000
3000
1000
,  // measure 96
0020
0030
0010
2000
3000
1000
0002
0000
,  // measure 97
0023
0001
0031
0010
,  // measure 98
1000
0002
0003
1000
0020
0030
1000
0200
,  // measure 99
0300
1000
0020
0030
1000
0200
0300
1000
,  // measure 100
0002
0003
0001
0010
0100
1000
0010
0000
,  // measure 101
1000
0002
0010
0103
,  // measure 102
1000
0020
0030
1000
0200
0300
1000
0020
,  // measure 103
0030
1000
0200
0300
1000
0002
0003
1000
,  // measure 104
0020
0030
1000
0001
0010
0100
1000
0000
,  // measure 105
0010
0100
0001
0010
,  // measure 106
0001
0020
0030
0001
0200
0300
0001
0020
,  // measure 107
0030
0001
2000
3000
0001
0200
0300
0001
,  // measure 108
0020
0030
0100
1000
0010
1000
0001
0000
,  // measure 109
0010
0200
1000
0310
,  // measure 110
0001
1000
0000
2000
3010
0000
0020
1030
,  // measure 111
0000
2000
3001
0000
0002
0013
0000
0010
,  // measure 112
0200
0300
1000
0100
0010
0100
2000
0000
,  // measure 113
3010
0000
0001
0000
0001
1000
0000
1000
,  // measure 114
0010
1000
0010
0000
0010
1000
0000
1000
,  // measure 115
0010
0000
0000
0000
2020
3030
0000
0000
0100
0000
0000
0000
0200
0000
0301
0000
,  // measure 116
0000
0002
0103
0000
0200
1300
0000
2000
,  // measure 117
3001
0000
0002
0013
0000
0020
0130
0000
,  // measure 118
0200
1300
0000
2000
3000
0000
0000
0000
,  // measure 119
0000
0000
0000
0000
,  // measure 120
0000
1010
0000
0000
;

//---------------dance-single - ----------------
#NOTEDATA:;
#CHARTNAME:;
#STEPSTYPE:dance-single;
#DESCRIPTION:;
#CHARTSTYLE:;
#DIFFICULTY:Medium;
#METER:8;
#RADARVALUES:0.357245,0.496669,0.022529,0.142683,0.000000,333.000000,330.000000,3.000000,19.000000,0.000000,0.000000,0.000000,0.000000,13.000000,0.357245,0.496669,0.022529,0.142683,0.000000,333.000000,330.000000,3.000000,19.000000,0.000000,0.000000,0.000000,0.000000,13.000000;
#CREDIT:Musey's Chart;
#DISPLAYBPM:183.000000;
#NOTES:
// measure 0
0000
0000
0000
0000
,  // measure 1
0000
0000
0000
0000
,  // measure 2
0000
0000
0000
0000
,  // measure 3
0000
0000
0000
0000
,  // measure 4
0000
0000
0000
0000
,  // measure 5
0000
0000
0000
0000
,  // measure 6
0000
0000
0000
0000
,  // measure 7
0000
0000
0000
0000
,  // measure 8
0000
0000
0000
0000
,  // measure 9
1000
0100
1000
0010
,  // measure 10
1000
0000
0001
0000
1000
0001
1000
0000
,  // measure 11
0001
0010
0001
0010
,  // measure 12
0100
0000
1000
0000
0010
1000
0010
0000
,  // measure 13
1000
0001
0010
0100
,  // measure 14
2000
3100
0200
1300
,  // measure 15
1000
0010
1000
0001
,  // measure 16
1000
0100
1000
0010
,  // measure 17
0100
0010
1000
0001
,  // measure 18
0010
0100
0010
0000
0001
0000
1000
0000
,  // measure 19
0001
0100
0010
1000
,  // measure 20
0001
0010
0001
0000
0100
0000
0010
0000
,  // measure 21
1000
0000
0001
0000
0010
0000
0001
0010
,  // measure 22
0001
0000
0100
0000
0010
0000
1000
0010
,  // measure 23
1000
0000
0001
0000
0010
0000
0001
0010
,  // measure 24
0001
0100
0010
1000
,  // measure 25
0001
1000
0001
0000
1000
0000
0100
0000
,  // measure 26
0020
0000
0031
0000
,  // measure 27
0001
0010
0100
1000
,  // measure 28
0020
0000
1030
0000
,  // measure 29
1000
0100
1000
0010
,  // measure 30
1000
0001
0010
0100
,  // measure 31
1000
0000
0001
0000
,  // measure 32
1000
0000
0000
0000
,  // measure 33
0001
0010
0001
1000
,  // measure 34
0002
0003
0000
0000
0000
0000
0000
0000
0000
0000
0000
0000
0000
0000
0000
0000
,  // measure 35
0000
0000
0000
0000
,  // measure 36
0000
0000
0000
0000
,  // measure 37
0000
0000
0000
0000
,  // measure 38
0000
0000
0000
0000
,  // measure 39
0001
1000
0001
1000
,  // measure 40
0010
1000
0001
0020
,  // measure 41
0000
0130
1000
0001
,  // measure 42
0100
0010
0100
0002
,  // measure 43
0000
0013
0100
2000
,  // measure 44
0000
3002
0000
0203
,  // measure 45
0000
0320
0000
1030
,  // measure 46
0001
0000
0000
0000
0010
0000
0000
0000
0001
0000
0000
0000
2000
3000
0000
0000
,  // measure 47
0000
0000
0000
0000
,  // measure 48
0000
0000
0000
0000
,  // measure 49
0000
0000
0000
0000
,  // measure 50
0000
0000
0000
0000
,  // measure 51
0000
0000
0000
1000
,  // measure 52
0001
0100
0010
0100
,  // measure 53
0001
0010
0200
0000
,  // measure 54
1300
0001
1000
0010
,  // measure 55
0100
0001
0010
0001
,  // measure 56
0100
0010
0100
0100
,  // measure 57
0010
0010
1000
1000
,  // measure 58
0001
0001
0010
0001
,  // measure 59
0100
0010
1000
1000
,  // measure 60
0010
0010
0100
0100
,  // measure 61
0001
0001
0010
0001
,  // measure 62
0010
0001
1000
1000
,  // measure 63
0010
0010
0100
0100
,  // measure 64
0001
0001
1000
1000
,  // measure 65
0001
0001
0010
0001
,  // measure 66
0010
0001
0100
0100
,  // measure 67
0010
0010
1000
1000
,  // measure 68
0001
0001
0010
0010
,  // measure 69
0001
0001
0100
0010
,  // measure 70
0100
0010
1000
1000
,  // measure 71
0100
0100
0010
0010
,  // measure 72
0001
0001
1000
1000
,  // measure 73
0001
0001
0100
0010
,  // measure 74
2000
0000
3001
0000
,  // measure 75
0001
0000
0000
0000
0000
0000
0000
0000
0200
0300
0000
0000
0000
0000
0000
0000
,  // measure 76
0000
0000
0000
0000
,  // measure 77
0000
0000
0000
0000
,  // measure 78
0000
0000
0000
0000
,  // measure 79
0000
0000
0000
0000
,  // measure 80
0000
0000
0100
0000
,  // measure 81
0000
0100
0000
0010
,  // measure 82
0000
0002
0000
0000
,  // measure 83
0000
1003
0000
0010
,  // measure 84
0000
1000
0000
0000
,  // measure 85
0000
0010
0000
0000
,  // measure 86
0000
0010
0000
0000
,  // measure 87
0000
0020
0000
0000
,  // measure 88
0000
0000
0000
0000
,  // measure 89
0000
1030
0001
1000
,  // measure 90
0010
1000
0001
0010
,  // measure 91
0100
1000
0001
1000
,  // measure 92
0010
0200
0001
0310
,  // measure 93
1000
0001
0010
0100
,  // measure 94
1000
0001
0100
0010
,  // measure 95
0100
0002
0013
0020
,  // measure 96
0031
0002
0103
2000
,  // measure 97
3010
1000
1000
0001
,  // measure 98
0001
0100
0100
0010
,  // measure 99
0010
1000
1000
0001
,  // measure 100
0001
0010
0001
0010
,  // measure 101
0011
0001
0001
0100
,  // measure 102
0100
0010
0010
1000
,  // measure 103
1000
0010
0010
1000
,  // measure 104
1000
0001
0010
0001
,  // measure 105
0011
0001
0001
0100
,  // measure 106
0100
0010
0010
1000
,  // measure 107
1000
0010
0010
0100
,  // measure 108
0100
0001
0010
0001
,  // measure 109
0011
0001
0001
0100
,  // measure 110
0100
0010
0010
1000
,  // measure 111
1000
0001
0001
0010
,  // measure 112
0010
0001
1000
0001
,  // measure 113
0100
0010
0010
1000
,  // measure 114
1000
0001
0001
1000
,  // measure 115
0001
0000
0000
0000
2000
3000
0000
0000
1000
0000
0000
0000
0001
0000
0000
0000
,  // measure 116
0001
0010
0010
0100
,  // measure 117
0100
1000
1000
0000
,  // measure 118
0000
0000
0000
0000
,  // measure 119
0000
0000
0000
0000
,  // measure 120
0000
1000
0000
0000
;

//---------------dance-single - ----------------
#NOTEDATA:;
#CHARTNAME:;
#STEPSTYPE:dance-single;
#DESCRIPTION:;
#CHARTSTYLE:;
#DIFFICULTY:Easy;
#METER:4;
#RADARVALUES:0.192032,0.361214,0.120154,0.015019,0.000000,179.000000,163.000000,16.000000,2.000000,0.000000,0.000000,0.000000,0.000000,7.000000,0.192032,0.361214,0.120154,0.015019,0.000000,179.000000,163.000000,16.000000,2.000000,0.000000,0.000000,0.000000,0.000000,7.000000;
#CREDIT:Musey's Chart;
#DISPLAYBPM:183.000000;
#NOTES:
// measure 0
0000
0000
0000
0000
,  // measure 1
0000
0000
0000
0000
,  // measure 2
0000
0000
0000
0000
,  // measure 3
0000
0000
0000
0000
,  // measure 4
0000
0000
0000
0000
,  // measure 5
0000
0000
0000
0000
,  // measure 6
0000
0000
0000
0000
,  // measure 7
0000
0000
0000
0000
,  // measure 8
0000
0000
0000
0000
,  // measure 9
1000
0000
1000
0000
,  // measure 10
0001
0000
0001
0000
,  // measure 11
0010
0000
0010
0000
,  // measure 12
0100
0000
0100
0000
,  // measure 13
1000
0000
1000
0000
,  // measure 14
0001
0000
0001
0000
,  // measure 15
1000
0000
0001
0000
,  // measure 16
1000
0000
0010
0000
,  // measure 17
0010
0000
0001
0000
,  // measure 18
0100
0000
0010
0000
,  // measure 19
1000
0000
1000
0000
,  // measure 20
0001
0000
0010
0000
,  // measure 21
0100
0000
0100
0000
,  // measure 22
0001
0000
0001
0000
,  // measure 23
0010
0000
0001
0000
,  // measure 24
0100
0000
0100
0000
,  // measure 25
0010
0000
0100
0000
,  // measure 26
0001
0000
0001
0000
,  // measure 27
0010
0000
0001
0000
,  // measure 28
0100
0000
0100
0000
,  // measure 29
0010
0000
1000
0000
,  // measure 30
0100
0000
0100
0000
,  // measure 31
2000
0000
0000
0000
,  // measure 32
3000
0000
0000
0000
,  // measure 33
1000
0000
0000
0000
,  // measure 34
2000
3000
0000
0000
0000
0000
0000
0000
,  // measure 35
0000
0000
0000
0000
,  // measure 36
0000
0000
0000
0000
,  // measure 37
0000
0000
0000
0000
,  // measure 38
0000
0000
0000
0000
,  // measure 39
1000
0000
0000
0001
,  // measure 40
0000
1000
0000
0001
,  // measure 41
0000
0001
0000
0100
,  // measure 42
0000
0010
0000
1000
,  // measure 43
0000
0100
0000
0010
,  // measure 44
0000
0010
0000
0001
,  // measure 45
0000
0001
0000
1000
,  // measure 46
0000
0000
0001
0000
0000
0000
2000
3000
,  // measure 47
0000
0000
0000
0000
,  // measure 48
0000
0000
0000
0000
,  // measure 49
0000
0000
0000
0000
,  // measure 50
0000
0000
0000
0000
,  // measure 51
0000
0000
0000
1000
,  // measure 52
0000
0000
1000
0000
,  // measure 53
0001
0000
1000
0000
,  // measure 54
0010
0000
0100
0000
,  // measure 55
0001
0000
0100
0000
,  // measure 56
0001
0000
0010
0000
,  // measure 57
0010
0000
0100
0000
,  // measure 58
0100
0000
1000
0000
,  // measure 59
0001
0000
1000
0000
,  // measure 60
0010
0000
1000
0000
,  // measure 61
0100
0000
1000
0000
,  // measure 62
0010
0000
1000
0000
,  // measure 63
0001
0000
0010
0000
,  // measure 64
0001
0000
0100
0000
,  // measure 65
0001
0000
0010
0000
,  // measure 66
0001
0000
0100
0000
,  // measure 67
0010
0000
0100
0000
,  // measure 68
1000
0000
0100
0000
,  // measure 69
0001
0000
0100
0000
,  // measure 70
0010
0000
1000
0000
,  // measure 71
0010
0000
0100
0000
,  // measure 72
0010
0000
0001
0000
,  // measure 73
0010
0000
0100
0000
,  // measure 74
0010
0000
1000
0000
,  // measure 75
0000
0000
0000
0000
,  // measure 76
0000
0000
0000
0000
,  // measure 77
0000
0000
0000
0000
,  // measure 78
0000
0000
0000
0000
,  // measure 79
0000
0000
0000
0000
,  // measure 80
0000
0000
0000
0000
,  // measure 81
0000
0001
0000
0000
,  // measure 82
0000
0100
0000
0000
,  // measure 83
0000
1000
0000
0000
,  // measure 84
0000
0010
0000
0000
,  // measure 85
0000
2000
0000
0000
,  // measure 86
0000
0000
0000
0000
,  // measure 87
0000
0000
0000
0000
,  // measure 88
0000
0000
0000
0000
,  // measure 89
0000
3001
0000
0000
,  // measure 90
0000
0001
0000
0000
,  // measure 91
0000
0100
0000
0100
,  // measure 92
0000
0010
0000
0010
,  // measure 93
0000
1000
0000
0001
,  // measure 94
0000
1000
0000
0100
,  // measure 95
0000
0010
0000
0010
,  // measure 96
0000
0001
0000
0001
,  // measure 97
0000
0100
0000
0001
,  // measure 98
0000
0101
0000
0101
,  // measure 99
0000
0001
0000
0010
,  // measure 100
0000
0011
0000
0011
,  // measure 101
0000
1000
0000
0001
,  // measure 102
0000
1001
0000
1001
,  // measure 103
0000
0010
0000
1000
,  // measure 104
0000
1010
0000
1010
,  // measure 105
0000
1000
0000
0100
,  // measure 106
0000
1100
0000
1100
,  // measure 107
0000
0001
0000
0010
,  // measure 108
0000
0011
0000
0011
,  // measure 109
0000
0100
0000
0001
,  // measure 110
0000
0101
0000
0101
,  // measure 111
0000
0001
0000
1000
,  // measure 112
0000
1001
0000
1001
,  // measure 113
0000
0010
0000
1000
,  // measure 114
0000
0010
0000
1000
,  // measure 115
0000
0000
0000
0000
2000
3000
0000
0000
0000
0000
0000
0000
1000
0000
0000
0000
,  // measure 116
0000
0100
0000
0001
,  // measure 117
0000
1000
0000
0000
,  // measure 118
0000
0000
0000
0000
,  // measure 119
0000
0000
0000
0000
,  // measure 120
0000
1000
0000
0000
;

//---------------dance-single - ----------------
#NOTEDATA:;
#CHARTNAME:;
#STEPSTYPE:dance-single;
#DESCRIPTION:;
#CHARTSTYLE:;
#DIFFICULTY:Beginner;
#METER:1;
#RADARVALUES:0.109426,0.180607,0.000000,0.007510,0.000000,102.000000,102.000000,0.000000,1.000000,0.000000,0.000000,0.000000,0.000000,6.000000,0.109426,0.180607,0.000000,0.007510,0.000000,102.000000,102.000000,0.000000,1.000000,0.000000,0.000000,0.000000,0.000000,6.000000;
#CREDIT:Musey's Chart;
#DISPLAYBPM:183.000000;
#NOTES:
// measure 0
0000
0000
0000
0000
,  // measure 1
0000
0000
0000
0000
,  // measure 2
0000
0000
0000
0000
,  // measure 3
0000
0000
0000
0000
,  // measure 4
0000
0000
0000
0000
,  // measure 5
0000
0000
0000
0000
,  // measure 6
0000
0000
0000
0000
,  // measure 7
0000
0000
0000
0000
,  // measure 8
0000
0000
0000
0000
,  // measure 9
1000
0000
0000
0000
,  // measure 10
1000
0000
0000
0000
,  // measure 11
0001
0000
0000
0000
,  // measure 12
0001
0000
0000
0000
,  // measure 13
0010
0000
0000
0000
,  // measure 14
0010
0000
0000
0000
,  // measure 15
0100
0000
0000
0000
,  // measure 16
0100
0000
0000
0000
,  // measure 17
1000
0000
0000
0000
,  // measure 18
1000
0000
0000
0000
,  // measure 19
0001
0000
0000
0000
,  // measure 20
0001
0000
0000
0000
,  // measure 21
0010
0000
0000
0000
,  // measure 22
0010
0000
0000
0000
,  // measure 23
0100
0000
0000
0000
,  // measure 24
1000
0000
0000
0000
,  // measure 25
0100
0000
0000
0000
,  // measure 26
1000
0000
0000
0000
,  // measure 27
0010
0000
0000
0000
,  // measure 28
0100
0000
0000
0000
,  // measure 29
0001
0000
0000
0000
,  // measure 30
0010
0000
0000
0000
,  // measure 31
0100
0000
0000
0000
,  // measure 32
0000
0000
0000
0000
,  // measure 33
0001
0000
0000
0000
,  // measure 34
0002
0003
0000
0000
0000
0000
0000
0000
0000
0000
0000
0000
0000
0000
0000
0000
,  // measure 35
0000
0000
0000
0000
,  // measure 36
0000
0000
0000
0000
,  // measure 37
0000
0000
0000
0000
,  // measure 38
0000
0000
0000
0000
,  // measure 39
0001
0000
0000
1000
,  // measure 40
0000
0000
0000
0010
,  // measure 41
0000
0000
0000
1000
,  // measure 42
0000
0000
0000
0001
,  // measure 43
0000
0000
0000
1000
,  // measure 44
0000
0000
0000
0010
,  // measure 45
0000
0000
0000
1000
,  // measure 46
0000
0000
0000
0000
0000
0000
0000
0000
0000
0000
0000
0000
0200
0300
0000
0000
,  // measure 47
0000
0000
0000
0000
,  // measure 48
0000
0000
0000
0000
,  // measure 49
0000
0000
0000
0000
,  // measure 50
0000
0000
0000
0000
,  // measure 51
0000
0000
0000
0100
,  // measure 52
0000
0000
0010
0000
,  // measure 53
0000
0000
0001
0000
,  // measure 54
0000
0000
1000
0000
,  // measure 55
0000
0000
0010
0000
,  // measure 56
0000
0000
1000
0000
,  // measure 57
0000
0000
0001
0000
,  // measure 58
0000
0000
0100
0000
,  // measure 59
0001
0000
0100
0000
,  // measure 60
0000
0000
1000
0000
,  // measure 61
0010
0000
1000
0000
,  // measure 62
0000
0000
0001
0000
,  // measure 63
1000
0000
0001
0000
,  // measure 64
0000
0000
0100
0000
,  // measure 65
0001
0000
0100
0000
,  // measure 66
0000
0000
0010
0000
,  // measure 67
0000
0000
0100
0000
,  // measure 68
0000
0000
0010
0000
,  // measure 69
0100
0000
0010
0000
,  // measure 70
0000
0000
1000
0000
,  // measure 71
0000
0000
0001
0000
,  // measure 72
0000
0000
1000
0000
,  // measure 73
0001
0000
1000
0000
,  // measure 74
0000
0000
0100
0000
,  // measure 75
0000
0000
0000
0000
,  // measure 76
0000
0000
0000
0000
,  // measure 77
0000
0000
0000
0000
,  // measure 78
0000
0000
0000
0000
,  // measure 79
0000
0000
0000
0000
,  // measure 80
0000
0000
0000
0000
,  // measure 81
0000
1000
0000
0000
,  // measure 82
0000
0000
0000
0000
,  // measure 83
0000
0001
0000
0000
,  // measure 84
0000
0000
0000
0000
,  // measure 85
0000
2000
0000
0000
,  // measure 86
0000
0000
0000
0000
,  // measure 87
0000
0000
0000
0000
,  // measure 88
0000
0000
0000
0000
,  // measure 89
0000
3001
0000
0000
,  // measure 90
0000
0001
0000
0000
,  // measure 91
0000
0010
0000
0000
,  // measure 92
0000
0010
0000
0000
,  // measure 93
0000
1000
0000
0000
,  // measure 94
0000
0100
0000
0000
,  // measure 95
0000
1000
0000
0000
,  // measure 96
0000
0010
0000
0000
,  // measure 97
0000
1000
0000
1000
,  // measure 98
0000
0001
0000
0000
,  // measure 99
0000
0010
0000
0100
,  // measure 100
0000
0010
0000
0000
,  // measure 101
0000
0001
0000
1000
,  // measure 102
0000
0001
0000
0000
,  // measure 103
0000
0100
0000
0001
,  // measure 104
0000
0100
0000
0000
,  // measure 105
0000
1000
0000
0010
,  // measure 106
0000
1000
0000
0000
,  // measure 107
0000
0001
0000
0100
,  // measure 108
0000
0001
0000
0000
,  // measure 109
0000
1000
0000
0010
,  // measure 110
0000
1000
0000
0000
,  // measure 111
0000
0100
0000
1000
,  // measure 112
0000
0001
0000
0000
,  // measure 113
0000
1000
0000
0010
,  // measure 114
0000
1000
0000
0100
,  // measure 115
0000
1000
0000
0000
,  // measure 116
0100
0000
0000
0010
,  // measure 117
0000
0000
0000
0000
0000
0000
0000
0000
2000
3000
0000
0000
0000
0000
0000
0000
,  // measure 118
0000
0000
0000
0000
,  // measure 119
0000
0000
0000
0000
,  // measure 120
0000
1000
0000
0000
;
