#TITLE:Lia=Fail;
#SUBTITLE:;
#ARTIST:Team Grimoire;
#TITLETRANSLIT:;
#SUBTITLETRANSLIT:;
#ARTISTTRANSLIT:;
#GENRE:;
#CREDIT:;
#BANNER:AV.avi;
#BACKGROUND:bg.jpg;
#LYRICSPATH:;
#CDTITLE:;
#MUSIC:audio.ogg;
#OFFSET:0.176000;
#SAMPLESTART:67.814354;
#SAMPLELENGTH:14.999995;
#SELECTABLE:YES;
#BPMS:0.000000=93.000000
,28.000000=186.000000
,232.000000=93.000000
,244.000000=186.000000
,268.000000=93.000000
,280.000000=186.000000
;
#STOPS:
;
#BGCHANGES:0.000=MV.avi=0.400=1=0=1===CrossFade==,
3.000=MV.avi=1.000=0=0=1=====,
99999=-nosongbg-=1.000=0=0=0 // don't automatically add -songbackground-
;
#KEYSOUNDS:;
#ATTACKS:;

//---------------dance-single - ----------------
#NOTES:
     dance-single:
     :
     Hard:
     16:
     0.706005,0.806537,0.184351,0.652320,0.464424,697.000000,671.000000,26.000000,92.000000,0.000000,0.000000,0.706005,0.806537,0.184351,0.652320,0.464424,697.000000,671.000000,26.000000,92.000000,0.000000,0.000000:
// measure 0
0000
0000
0000
0000
,  // measure 1
0200
0300
0000
0000
0001
0000
2000
3001
1000
0000
0010
0000
0200
0300
0001
0000
,  // measure 2
0010
0000
0200
0300
0000
0000
0100
0000
0020
0030
0000
0000
0010
0000
0002
0013
,  // measure 3
0001
0000
0010
0000
0200
0300
0100
1000
0100
0000
2000
3000
0000
0000
0200
0300
,  // measure 4
0200
0300
0000
0000
1000
0000
2000
3100
1000
0000
0001
0000
2000
3000
1000
0000
,  // measure 5
0001
0000
0020
0030
0000
0000
1000
0000
0020
0030
0000
0010
0100
0000
0200
0300
,  // measure 6
0000
0001
1000
0001
2000
3000
0000
0000
0000
0000
0002
0003
0000
0000
0000
0000
,  // measure 7
2001
0000
0000
0000
3020
0000
1030
0001
,  // measure 8
2000
0000
3001
0010
0200
0000
0320
0000
,  // measure 9
0032
0013
0020
0230
,  // measure 10
2300
0000
0000
0000
3001
0100
0001
1000
,  // measure 11
0010
0000
1000
0001
1000
0001
0010
0001
,  // measure 12
0020
0032
0010
0010
,  // measure 13
2003
0000
0000
0000
3200
0000
1300
0100
,  // measure 14
2000
0000
3001
1000
0002
0000
2003
0000
,  // measure 15
3001
0000
1001
0000
1001
0001
0001
0000
,  // measure 16
1001
0000
0000
0001
1000
0000
1000
0000
1010
0000
0010
1000
0010
0000
0100
0000
,  // measure 17
0010
0000
1000
0000
0010
0100
0010
0000
0100
0000
0010
0000
0100
0000
0010
0000
,  // measure 18
0100
0000
0001
0000
1000
0000
0000
1000
0000
0000
0001
0000
0100
0001
0100
0001
,  // measure 19
0200
0000
0000
0000
0301
0000
0000
0000
0010
0000
0000
0000
0001
0000
0010
0100
,  // measure 20
0010
0000
0100
0000
1000
0000
0001
0000
0100
0000
0001
0000
1000
0000
0001
1000
,  // measure 21
0001
0000
0010
0000
0100
0000
1000
0100
1000
0000
0001
0000
0100
0000
0001
0000
,  // measure 22
0020
0000
0000
0000
0001
0000
0000
0000
0130
0000
0000
0000
1000
0000
0100
1000
,  // measure 23
0100
0000
1000
0000
0001
0000
0100
0010
0100
0000
0000
0000
0100
0000
0010
0000
,  // measure 24
1000
0000
0001
0000
0010
0000
0100
0000
0010
0000
0001
0000
1000
0001
1000
0001
,  // measure 25
2000
0000
0000
0000
3001
0000
0000
0000
1000
0000
0000
0000
0001
0000
0100
0001
,  // measure 26
0100
0000
0100
0010
0100
0000
0010
0000
1000
0000
0001
0000
0010
0000
0100
0000
,  // measure 27
0010
0000
0001
0000
1000
0000
0001
1000
0001
0000
1000
0000
0010
0000
0100
0010
,  // measure 28
0100
0000
0010
0000
1000
0000
0010
0000
1000
0000
0010
1000
0010
0000
1000
0000
,  // measure 29
0001
0000
1000
0000
0001
1000
0001
1000
0001
0000
1000
0001
1000
0000
0001
1000
,  // measure 30
0001
0000
0000
0000
0000
0000
1000
0000
0000
0100
0000
0000
1000
0000
0000
0000
0001
0000
0000
0000
0100
0000
0000
0000
0001
0000
0000
0000
1000
0000
0000
0000
0010
0000
0000
0000
1000
0000
0000
0000
0001
0000
0000
0000
0100
0000
0000
0000
,  // measure 31
0001
0000
0000
0000
1000
0000
0000
0000
0001
0000
0010
0000
0100
0000
0000
0100
,  // measure 32
0000
0000
1000
0000
0010
0000
0000
0000
1000
0000
0000
1000
0000
0000
0100
0000
,  // measure 33
0010
0001
1000
0000
0010
0000
1000
0001
,  // measure 34
0010
0100
1000
0001
1000
0001
0100
0010
,  // measure 35
0100
0000
0001
0100
0001
0000
1000
0000
0100
0000
0010
0000
0001
0000
0010
0000
,  // measure 36
0100
1000
1001
0000
1001
0000
1001
0000
,  // measure 37
1001
0000
0000
0000
0001
0000
0000
0000
0100
0000
0010
0000
0100
0000
0000
0100
,  // measure 38
0000
0000
0010
0000
0100
0000
0000
0000
1000
0000
0000
0010
0000
0000
0010
0000
,  // measure 39
1000
0000
0010
0000
1010
0000
0000
0000
1000
0000
0001
0000
1000
0010
1000
0000
,  // measure 40
0001
0000
0100
0000
0010
1000
0010
0000
1000
0000
0001
0010
0001
0000
1000
0000
,  // measure 41
0010
0100
0010
0000
1000
0000
1000
0001
1000
0000
0100
0000
0010
0000
0001
0000
,  // measure 42
0010
0000
0000
0100
0000
0000
1000
0000
0001
0000
1000
0000
0010
0000
0100
0000
0010
0000
1000
0000
0001
0000
1000
0000
,  // measure 43
0010
0010
0010
0010
,  // measure 44
0010
0000
0000
0000
0010
0000
0000
0000
0010
0000
0000
0100
0010
0000
0100
0000
,  // measure 45
0010
0000
0100
0000
0010
0000
0000
0100
0010
0000
1000
0000
0002
0000
0000
0000
,  // measure 46
2003
0000
3001
0010
0200
0000
0320
0000
,  // measure 47
0001
0000
0230
0000
2300
0000
3010
1000
,  // measure 48
0002
0023
0100
0032
,  // measure 49
2003
0000
3010
0100
0002
0000
0023
0000
,  // measure 50
0100
0032
2003
3020
,  // measure 51
2030
3001
1001
1001
,  // measure 52
0002
0000
0013
0100
2000
0000
3020
0000
,  // measure 53
1000
0000
0230
0000
0302
0000
0013
0100
,  // measure 54
2000
0000
3010
0000
1000
0010
1000
0001
,  // measure 55
1001
0000
1000
0000
0100
0000
0010
0000
0001
0000
1000
0001
1000
0000
0001
0000
,  // measure 56
0010
0000
0100
0000
1000
0001
1000
0001
1000
0000
0001
0000
0010
0000
0100
0000
,  // measure 57
1000
0000
0000
0001
0000
0000
1000
0000
0100
0000
0010
0000
0001
0000
1000
0000
0001
0000
0020
0000
0000
0000
0000
0000
,  // measure 58
0230
0000
1300
0010
2000
0000
3002
0000
0010
0000
2003
0000
3200
0000
1300
0010
,  // measure 59
2000
0000
3002
0000
0010
0000
2003
0000
3020
0000
1030
0001
0020
0000
0032
0000
,  // measure 60
1000
0103
0101
1001
1010
0110
1001
1001
,  // measure 61
0002
0000
0000
0000
0013
0000
0100
0000
1000
0000
0001
0000
1000
0000
0000
1000
,  // measure 62
0000
0000
1000
0000
0001
0000
0000
0000
1001
0000
0000
0001
0000
0000
0010
0000
,  // measure 63
0100
0000
1000
0000
0010
0000
1000
0000
0001
0000
0010
0000
0100
0010
0100
0000
,  // measure 64
1000
0000
0001
0000
1000
0000
0010
0000
0100
0000
0010
1000
0001
0000
0100
0000
,  // measure 65
0010
0000
1000
0000
0001
0000
0100
0001
0100
0000
0001
0000
1000
0000
0010
0000
,  // measure 66
0100
0000
0000
0000
0000
0000
0001
0000
0000
1000
0000
0000
0001
0000
0000
0000
0100
0000
0000
0000
0001
0000
0000
0000
1000
0000
0000
0000
0100
0000
0000
0000
1000
0000
0000
0000
0001
0000
0000
0000
0100
0000
0000
0000
0001
0000
0000
0000
,  // measure 67
2000
0000
0000
0000
3020
0000
2030
0000
0000
3001
0010
0100
2000
0000
0000
3010
,  // measure 68
2000
0000
3020
0000
2030
0000
3002
0000
0023
0000
0000
0130
0010
0001
0020
0000
,  // measure 69
0230
2300
3002
0023
0230
2300
0000
0000
,  // measure 70
3002
0000
1000
0000
0103
0010
0100
0000
,  // measure 71
0001
0000
0001
0000
1000
0001
0100
0000
0002
0000
0000
0000
0103
0000
0001
0000
,  // measure 72
2000
0000
3002
0000
0010
0000
0103
0001
,  // measure 73
1000
0010
0100
0001
0100
0010
1000
0010
0100
0001
1000
0001
,  // measure 74
0100
0000
0010
0000
0100
0000
0001
0000
1000
0000
0001
0000
1000
0000
0000
0010
0000
0000
0100
0000
0000
0001
0000
0000
,  // measure 75
1000
0000
1000
0010
1000
0000
0001
0000
0010
0000
0001
0000
0001
1000
0001
1000
,  // measure 76
0001
0000
0000
1000
0000
0000
0100
0000
0000
0010
0000
0000
0100
0000
0000
1000
0000
0000
1000
0000
0001
0000
0100
0000
,  // measure 77
0001
0000
0000
0000
1000
0000
0000
0000
0010
0000
0000
0000
1000
0000
0000
0000
0001
0000
0000
0000
0100
0000
0000
0000
0001
0000
0000
0000
0000
0000
0001
0000
0000
1000
0000
0000
0001
0000
0000
0000
0000
0000
1000
0000
0000
0000
0000
0000
,  // measure 78
0010
0000
0100
0000
0001
0000
0000
0001
0000
0000
1000
0000
0010
1000
0010
1000
,  // measure 79
0010
0000
0000
1000
0000
0000
0001
0000
1000
0010
1000
0010
1000
0000
0001
0000
,  // measure 80
0010
0100
1000
0100
1000
0001
1000
0010
,  // measure 81
1000
0100
0010
0001
1000
0010
0100
0001
,  // measure 82
1000
0100
0010
0001
0010
0100
1100
0000
,  // measure 83
1100
0000
0000
0000
1100
0000
0000
0000
1001
0000
1000
0001
1000
0000
0001
0000
,  // measure 84
0100
0000
0010
0000
1000
0000
0000
1000
0000
0000
0001
0000
0100
0001
0100
0001
,  // measure 85
0100
0000
0000
0001
0000
0000
1000
0000
0001
0100
0001
0100
0001
0000
0000
0000
,  // measure 86
1001
0000
0000
0000
1001
0000
0000
0000
0001
0000
1000
0001
1000
0000
0010
0000
,  // measure 87
1000
0010
1000
0010
1000
0000
0010
0100
0010
0100
0010
1000
0001
1000
0001
1000
,  // measure 88
0001
0000
0000
0010
0000
0000
0001
0000
0000
0010
0000
0000
0001
0000
0000
0010
0000
0000
0001
0000
0010
0000
0100
0000
,  // measure 89
1000
0100
0010
0001
0010
0100
2000
0000
0000
0000
0000
0000
,  // measure 90
0000
0000
0000
0000
,  // measure 91
3000
0000
0000
0000
;

//---------------dance-single - ----------------
#NOTES:
     dance-single:
     :
     Medium:
     9:
     0.398077,0.507675,0.212713,0.475059,0.000000,393.000000,363.000000,30.000000,67.000000,0.000000,0.000000,0.398077,0.507675,0.212713,0.475059,0.000000,393.000000,363.000000,30.000000,67.000000,0.000000,0.000000:
// measure 0
0000
0000
0000
0000
,  // measure 1
1000
0000
0000
0001
0000
0000
0010
0100
,  // measure 2
1000
0010
0000
0000
0001
0000
0000
1000
,  // measure 3
0000
0000
0001
1000
0010
1000
0000
0000
,  // measure 4
0001
0000
0000
0010
0000
0000
0100
1000
,  // measure 5
0100
1000
0000
0000
0010
0000
0000
1000
,  // measure 6
0000
0000
0001
0000
0000
1000
0000
0000
,  // measure 7
0002
0000
0000
0000
1003
0000
0001
0010
,  // measure 8
0002
0023
0230
2300
,  // measure 9
3020
2030
0000
3010
,  // measure 10
0020
0000
0000
0000
1030
0000
0001
1000
,  // measure 11
0001
0000
0010
0000
0100
0000
1000
0010
,  // measure 12
1000
0002
0000
0013
,  // measure 13
2000
0000
0000
0000
3001
0000
0010
0001
,  // measure 14
0020
0230
2300
3020
,  // measure 15
2030
3002
2003
3001
,  // measure 16
1001
1001
0001
0011
,  // measure 17
0011
0001
1000
0100
,  // measure 18
0010
0001
0010
0001
0010
0000
0010
0000
,  // measure 19
0011
0000
0001
0000
1000
0000
0100
1000
,  // measure 20
0100
1000
0010
1000
,  // measure 21
0001
0000
0010
0000
0100
0000
1000
0001
,  // measure 22
1000
0000
0001
0000
0001
0000
1000
0100
,  // measure 23
0010
0100
0010
0001
,  // measure 24
0010
0000
0001
0000
0001
0000
1000
0001
,  // measure 25
0100
0000
1000
0000
0010
0000
1000
0010
,  // measure 26
1000
0010
1000
0001
,  // measure 27
1000
0100
0010
0001
,  // measure 28
0011
0001
0010
0110
,  // measure 29
0100
1000
1100
1000
,  // measure 30
0010
1000
1000
1000
,  // measure 31
0002
0013
0100
1000
,  // measure 32
1000
0010
1000
0000
0002
0000
0013
0000
,  // measure 33
0100
1000
0010
1000
,  // measure 34
0020
1030
0001
0010
,  // measure 35
0100
0001
1000
0000
0010
0000
0100
0000
,  // measure 36
0001
1000
1000
0001
,  // measure 37
1001
0000
0001
0000
0010
0100
0010
0000
,  // measure 38
0010
0001
1000
0010
,  // measure 39
1000
0001
1000
0000
0001
0000
1000
0000
,  // measure 40
1001
0010
0100
1001
,  // measure 41
0010
1000
1001
0010
,  // measure 42
0100
0000
0001
1000
0001
1000
0001
1000
,  // measure 43
0002
0000
0000
0000
,  // measure 44
0000
0000
0000
0000
,  // measure 45
0000
0000
0000
0000
,  // measure 46
2003
0001
3002
2003
,  // measure 47
0010
3020
2030
0001
,  // measure 48
3002
0023
0100
0032
,  // measure 49
0023
0100
0230
2300
,  // measure 50
0001
3020
2030
0001
,  // measure 51
3002
0013
0100
0010
,  // measure 52
0002
1000
2003
3020
,  // measure 53
0100
2030
3200
0010
,  // measure 54
0320
0032
0100
2003
,  // measure 55
3010
0010
0010
1010
,  // measure 56
1000
1000
1001
0010
,  // measure 57
0100
1000
0010
1000
,  // measure 58
0002
0000
0000
0023
0000
0000
0230
0000
,  // measure 59
0000
2300
0000
0000
3002
0000
0000
0023
,  // measure 60
0000
0000
0130
1000
0010
1000
1000
1000
,  // measure 61
0020
0000
0000
1030
0002
0000
0023
0000
,  // measure 62
0000
0000
0031
0000
0002
0000
0000
1003
,  // measure 63
0010
1000
0020
0000
0000
0000
1030
0000
,  // measure 64
0002
0000
0013
0001
1000
0000
2000
0000
,  // measure 65
3010
1000
0001
0000
2001
0000
0010
0000
,  // measure 66
3001
1002
0100
1003
,  // measure 67
0020
0000
0000
2030
0000
0000
3002
0000
,  // measure 68
0000
2003
0000
0000
3002
0000
0000
0023
,  // measure 69
0000
0000
0230
0000
0000
2300
0000
0000
,  // measure 70
3001
0010
0100
0010
,  // measure 71
0001
0010
0100
0010
0001
0000
1000
0000
,  // measure 72
0010
1000
0100
1000
,  // measure 73
1100
0001
0010
0011
,  // measure 74
0100
0010
0110
0001
,  // measure 75
1000
1001
0010
1000
,  // measure 76
0002
0010
1000
0100
,  // measure 77
0010
1003
0010
1000
,  // measure 78
1000
0000
0001
0010
0001
0010
0001
0000
,  // measure 79
1000
0000
0010
0000
1000
0000
0100
1000
,  // measure 80
0100
0000
1000
0000
0001
0010
0001
0000
,  // measure 81
0010
0000
0100
1000
0100
0000
1000
0000
,  // measure 82
0001
1000
0010
0000
1000
0000
0100
0000
,  // measure 83
1000
0100
1100
0001
,  // measure 84
0001
0000
0010
0100
1000
0100
0010
0000
,  // measure 85
0010
1000
0001
0000
1000
0000
0010
0000
,  // measure 86
1000
0001
1001
0001
,  // measure 87
0010
0011
0100
0010
,  // measure 88
0110
0110
0110
1001
,  // measure 89
1001
1001
1001
0000
;

//---------------dance-single - ----------------
#NOTES:
     dance-single:
     :
     Easy:
     5:
     0.200558,0.285567,0.035452,0.482150,0.000000,198.000000,193.000000,5.000000,68.000000,0.000000,0.000000,0.200558,0.285567,0.035452,0.482150,0.000000,198.000000,193.000000,5.000000,68.000000,0.000000,0.000000:
// measure 0
0000
0000
0000
0000
,  // measure 1
1000
0000
0000
0001
0000
0000
0010
0000
,  // measure 2
0000
0100
0000
0000
1000
0000
0000
0010
,  // measure 3
0000
0000
1000
0000
0000
0010
0000
0000
,  // measure 4
1000
0000
0000
0001
0000
0000
0010
0000
,  // measure 5
0000
0001
0000
0000
0010
0000
0000
0100
,  // measure 6
0000
0000
1000
0000
0000
0010
0000
0000
,  // measure 7
2000
0000
0000
3020
,  // measure 8
0000
0000
2030
0000
,  // measure 9
0000
3002
0000
0000
,  // measure 10
0023
0000
0000
0230
,  // measure 11
0000
0000
2300
0000
,  // measure 12
0000
3020
0000
0030
,  // measure 13
0020
0000
0000
2030
,  // measure 14
0000
0000
3002
0000
,  // measure 15
0000
0023
0000
0000
,  // measure 16
0230
0000
0000
2300
,  // measure 17
0000
0000
3020
0000
,  // measure 18
0000
2030
0000
3000
,  // measure 19
0001
1000
0001
0010
,  // measure 20
0001
0010
0100
1000
,  // measure 21
0010
1000
0000
0000
,  // measure 22
0001
0010
0100
1000
,  // measure 23
0010
1000
0001
0010
,  // measure 24
0001
0010
0000
0000
,  // measure 25
0100
1000
0010
1000
,  // measure 26
0001
1000
0100
0010
,  // measure 27
0001
0010
0000
0000
,  // measure 28
1001
0000
0000
1001
,  // measure 29
0000
0000
1001
0000
,  // measure 30
0000
1001
0000
0000
,  // measure 31
0010
0000
0010
1000
,  // measure 32
0000
1000
0010
0000
,  // measure 33
0010
1000
0000
1000
,  // measure 34
0001
0000
0001
0010
,  // measure 35
0000
0010
0001
0000
,  // measure 36
0000
0001
0010
0001
,  // measure 37
0010
0000
0001
0010
,  // measure 38
0000
0010
0100
0000
,  // measure 39
0100
0010
0000
0010
,  // measure 40
0001
0001
0001
1000
,  // measure 41
1000
1000
0010
1000
,  // measure 42
0010
2000
0000
0000
,  // measure 43
3002
0000
0000
0000
,  // measure 44
0000
0000
0000
0000
,  // measure 45
0000
0000
0000
0000
,  // measure 46
2003
0000
0000
3020
,  // measure 47
0000
0000
2030
0000
,  // measure 48
0000
3002
0000
0000
,  // measure 49
0023
0000
0000
0230
,  // measure 50
0000
0000
2300
0000
,  // measure 51
0000
3020
0000
0000
,  // measure 52
2030
0000
0000
3002
,  // measure 53
0000
0000
0023
0000
,  // measure 54
0000
0230
0000
0000
,  // measure 55
2300
0000
0000
3020
,  // measure 56
0000
0000
2030
0000
,  // measure 57
0000
3002
0000
0000
,  // measure 58
2003
0000
0000
3002
0000
0000
0023
0000
,  // measure 59
0000
0032
0000
0000
0023
0000
0000
0230
,  // measure 60
0000
0000
2300
0000
0000
3020
0000
0000
,  // measure 61
2030
0000
0000
3020
,  // measure 62
0000
0000
2030
0000
,  // measure 63
0000
3002
0000
0000
,  // measure 64
0023
0000
0000
0230
,  // measure 65
0000
0000
2300
0000
,  // measure 66
0000
0000
0000
0000
,  // measure 67
3002
0000
0000
0023
0000
0000
0032
0000
,  // measure 68
0000
0023
0000
0000
0230
0000
0000
2300
,  // measure 69
0000
0000
3020
0000
0000
2030
0000
0000
,  // measure 70
3002
0000
0000
0023
,  // measure 71
0000
0000
0000
0000
0031
0002
0000
0000
,  // measure 72
0000
2003
0000
0000
,  // measure 73
3002
0000
0000
0023
,  // measure 74
0000
0000
0230
0000
,  // measure 75
0000
2300
0000
0000
,  // measure 76
3002
0000
0000
0000
,  // measure 77
0000
0000
1003
0010
,  // measure 78
1000
0001
0001
0000
,  // measure 79
1000
0010
1000
0001
,  // measure 80
0001
0000
0010
0100
,  // measure 81
0010
0001
0001
0001
,  // measure 82
1000
0010
1000
0001
,  // measure 83
0001
0001
1000
0010
,  // measure 84
1000
0100
0100
0100
,  // measure 85
1000
0001
0010
0100
,  // measure 86
0100
0100
0010
0001
,  // measure 87
0010
0100
1000
0010
,  // measure 88
2000
0000
0000
0002
,  // measure 89
0000
3003
1001
0000
;

//---------------dance-single - ----------------
#NOTES:
     dance-single:
     :
     Beginner:
     2:
     0.109395,0.158649,0.021271,0.077995,0.000000,108.000000,105.000000,3.000000,11.000000,0.000000,0.000000,0.109395,0.158649,0.021271,0.077995,0.000000,108.000000,105.000000,3.000000,11.000000,0.000000,0.000000:
// measure 0
0000
0000
0000
0000
,  // measure 1
1000
0000
0000
0010
,  // measure 2
0000
0000
0001
0000
,  // measure 3
0000
0010
0000
0000
,  // measure 4
1000
0000
0000
1000
,  // measure 5
0000
0000
0010
0000
,  // measure 6
0000
0010
0000
0000
,  // measure 7
0100
0000
0000
0000
,  // measure 8
0000
0000
0001
0000
,  // measure 9
0000
0000
0000
0000
,  // measure 10
0010
0000
0000
0000
,  // measure 11
0000
0000
1000
0000
,  // measure 12
0000
0000
0000
0000
,  // measure 13
1010
0000
0000
0000
,  // measure 14
0000
0000
0001
0000
,  // measure 15
0000
0000
0000
0000
,  // measure 16
0010
0000
0000
0000
,  // measure 17
0000
0000
1000
0000
,  // measure 18
0000
0000
0000
0000
,  // measure 19
0100
0000
0000
0000
,  // measure 20
0000
0000
0010
0000
,  // measure 21
0000
0000
0000
0000
,  // measure 22
1000
0000
0000
0000
,  // measure 23
0000
0000
0001
0000
,  // measure 24
0000
0000
0000
0000
,  // measure 25
1001
0000
0000
0000
,  // measure 26
0000
0000
0010
0000
,  // measure 27
0000
0000
0000
0000
,  // measure 28
0001
0000
0000
0000
,  // measure 29
0000
0000
0010
0000
,  // measure 30
0000
0000
0000
0000
,  // measure 31
1000
0000
0000
1000
,  // measure 32
0000
0000
0001
0000
,  // measure 33
0000
0001
0000
0000
,  // measure 34
0010
0000
0000
0010
,  // measure 35
0000
0000
0100
0000
,  // measure 36
0000
0100
0000
0000
,  // measure 37
1000
0000
0000
1000
,  // measure 38
0000
0000
0001
0000
,  // measure 39
0000
0001
0000
0000
,  // measure 40
1000
0000
0000
1000
,  // measure 41
0000
0000
0010
0000
,  // measure 42
0000
0010
0000
0000
,  // measure 43
2000
0000
0000
0000
,  // measure 44
0000
0000
0000
0000
,  // measure 45
0000
0000
0000
0000
,  // measure 46
3001
0000
0000
0001
,  // measure 47
0000
0000
1000
0000
,  // measure 48
0000
1000
0000
0000
,  // measure 49
0010
0000
0000
0010
,  // measure 50
0000
0000
1000
0000
,  // measure 51
0000
1000
0000
0000
,  // measure 52
0100
0000
0000
0100
,  // measure 53
0000
0000
1000
0000
,  // measure 54
0000
1000
0000
0000
,  // measure 55
0001
0000
0000
0001
,  // measure 56
0000
0000
0010
0000
,  // measure 57
0000
0010
0000
0000
,  // measure 58
0002
0000
0000
2003
,  // measure 59
0000
0000
3002
0000
,  // measure 60
0000
0023
0000
0000
,  // measure 61
0130
0000
0000
1000
,  // measure 62
0000
0000
0010
0000
,  // measure 63
0000
1000
0000
0000
,  // measure 64
0001
0000
0000
0010
,  // measure 65
0000
0000
0100
0000
,  // measure 66
0000
1000
0000
0000
,  // measure 67
0002
0000
0000
0023
,  // measure 68
0000
0000
0032
0000
,  // measure 69
0000
2003
0000
0000
,  // measure 70
3010
0000
0000
1000
,  // measure 71
0000
0000
0001
0000
,  // measure 72
0000
0010
0000
0000
,  // measure 73
0100
0000
0000
1000
,  // measure 74
0000
0000
0001
0000
,  // measure 75
0000
1000
0000
0000
,  // measure 76
0002
0000
0000
0000
,  // measure 77
0000
0000
0013
0000
,  // measure 78
0010
0000
0000
0000
,  // measure 79
0010
0001
0010
0001
,  // measure 80
0000
0000
1000
0000
,  // measure 81
0000
1000
0000
0000
,  // measure 82
0010
1000
0010
1000
,  // measure 83
0000
0000
0001
0000
,  // measure 84
0000
0001
0000
0000
,  // measure 85
1000
0001
1000
0001
,  // measure 86
0000
0000
0010
0000
,  // measure 87
0000
0001
0000
0000
,  // measure 88
2000
0000
0000
3001
,  // measure 89
0000
0000
1001
0000
;
