#TITLE:+Let's Celebrate;
#SUBTITLE:;
#ARTIST:Dan Thiessen;
#TITLETRANSLIT:;
#SUBTITLETRANSLIT:;
#ARTISTTRANSLIT:;
#GENRE:;
#CREDIT:;
#BANNER:BN.png;
#BACKGROUND:BG.png;
#LYRICSPATH:;
#CDTITLE:;
#MUSIC:audio.ogg;
#OFFSET:-0.021000;
#SAMPLESTART:49.823074;
#SAMPLELENGTH:12.000000;
#SELECTABLE:YES;
#BPMS:0.000000=173.000000
;
#STOPS:
;
#BGCHANGES:;
#KEYSOUNDS:;
#ATTACKS:;

//---------------dance-single - ----------------
#NOTES:
     dance-single:
     :
     Hard:
     13:
     0.534610,0.740492,0.415176,0.557360,0.051186,658.000000,585.000000,73.000000,98.000000,0.000000,0.000000,0.534610,0.740492,0.415176,0.557360,0.051186,658.000000,585.000000,73.000000,98.000000,0.000000,0.000000:
// measure 0
0000
0000
0000
0000
,  // measure 1
0000
0000
0000
0000
,  // measure 2
0000
0000
0000
0000
,  // measure 3
0000
0000
0000
0000
,  // measure 4
0000
0000
0000
0000
,  // measure 5
0000
0000
0000
0000
,  // measure 6
0000
0000
0000
0000
,  // measure 7
0000
0000
0000
0000
,  // measure 8
0000
0000
0000
0000
,  // measure 9
0000
0000
0000
0000
0000
0001
0010
0100
,  // measure 10
2000
0000
0000
0000
3002
0000
0000
0103
,  // measure 11
0000
1000
0000
1000
0000
1000
0100
0010
,  // measure 12
0002
0000
0000
0000
0203
0000
0000
0320
,  // measure 13
0000
0000
0000
0000
0030
0001
1000
0010
,  // measure 14
0200
0000
0000
0000
0320
0000
0000
1030
,  // measure 15
0000
0001
0000
0002
0000
0000
0000
0003
,  // measure 16
0100
0010
0000
1000
0000
1000
0000
2002
,  // measure 17
0000
0000
0000
0000
,  // measure 18
3003
0000
0000
0000
,  // measure 19
0000
0000
0000
0000
,  // measure 20
0100
0000
0001
1000
0001
0000
0000
0000
2000
0000
3000
0000
1000
0000
0010
0000
,  // measure 21
0001
0010
1000
0100
2000
3000
1000
0100
,  // measure 22
0001
0100
0010
0001
0010
1000
0001
0100
,  // measure 23
1000
0001
1000
0010
0100
0001
0020
0030
,  // measure 24
0001
0000
1000
0001
1000
0000
0000
0000
0002
0000
0003
0000
0001
0000
0100
0000
,  // measure 25
1000
0100
0001
0010
0002
0003
0001
0010
,  // measure 26
2000
3000
1000
0010
0001
0100
0020
0000
,  // measure 27
1000
2030
3002
0000
,  // measure 28
1003
0000
0010
0100
0001
0000
0000
0000
0102
0000
0003
0000
1000
0000
0001
0000
,  // measure 29
0010
0100
0010
0001
2000
3000
0110
0000
,  // measure 30
0001
0000
0001
0000
1000
0100
1000
0001
,  // measure 31
0010
0000
0011
0000
0001
0010
0100
1000
,  // measure 32
0001
0000
0100
0010
1000
0000
0000
0000
0210
0000
0300
0000
0010
0000
0100
0000
,  // measure 33
1000
0001
0010
0100
0002
0003
0001
1000
,  // measure 34
0100
0000
1100
0000
1000
0001
1000
0020
,  // measure 35
0100
0000
1000
0000
0130
0010
0100
0000
,  // measure 36
0010
0000
1000
0010
1000
0000
0000
0000
0010
0000
0001
0000
0010
0000
0100
0000
,  // measure 37
0001
0000
1000
0000
0100
0000
1000
0000
0010
0100
0010
0000
0100
0000
0001
0000
,  // measure 38
1000
0000
1001
0000
0001
0010
0001
0100
,  // measure 39
0010
1000
0100
1000
0100
0100
0010
0010
,  // measure 40
0001
0000
1000
0100
0010
0000
0000
0000
0011
0000
0000
0000
0001
0000
1000
0000
,  // measure 41
0001
0000
0100
0000
1000
0000
0100
0000
0010
0100
0010
0000
0100
0000
0001
0000
,  // measure 42
1000
0000
0101
0000
0001
1000
0010
0100
,  // measure 43
0001
0010
0100
1000
0100
0010
0001
1000
,  // measure 44
0010
0010
0110
0000
,  // measure 45
0010
1000
0000
1000
0000
0001
0010
0100
,  // measure 46
1000
1000
1001
0000
,  // measure 47
0010
0100
0000
0100
0000
0010
0100
0001
,  // measure 48
1000
1000
1100
0000
,  // measure 49
0010
0001
0000
0001
0000
0100
0010
0100
,  // measure 50
0001
0000
1000
0000
0001
0010
0000
0010
,  // measure 51
0100
0010
0100
1000
0000
1000
0100
0010
,  // measure 52
0001
1000
0021
0030
1000
0001
1200
0300
,  // measure 53
1000
0010
0100
1000
0100
0001
0010
0001
,  // measure 54
0010
0100
1002
0003
0100
0010
2001
3000
,  // measure 55
1000
0100
0010
0001
0010
1000
0010
0001
,  // measure 56
1000
0010
0201
0300
0001
0100
2010
3000
,  // measure 57
0001
0100
1000
0100
0001
0100
0010
1000
,  // measure 58
1002
0003
0120
0030
1002
0003
0120
0030
,  // measure 59
1000
0001
1000
0001
0100
0010
0110
0110
,  // measure 60
0000
0000
0000
0000
,  // measure 61
0000
0000
0000
0000
,  // measure 62
2001
3001
0200
0310
,  // measure 63
0100
0002
0000
2003
0000
3001
0010
0100
,  // measure 64
2000
3010
0200
0301
,  // measure 65
0001
2000
0000
3200
0000
1300
0010
0100
,  // measure 66
0002
1003
2000
3010
,  // measure 67
1000
0002
0000
0023
0000
0031
0100
0010
,  // measure 68
2000
0000
3001
0000
0001
1000
0010
0100
,  // measure 69
0010
1000
0010
1000
0001
0100
0001
0100
,  // measure 70
0120
0130
2001
3010
,  // measure 71
0001
2000
0000
3020
0000
1030
0001
0100
,  // measure 72
0002
0103
2001
3001
,  // measure 73
0001
0200
0000
0320
0000
0130
0010
1000
,  // measure 74
0002
0103
2010
3001
,  // measure 75
0001
0200
0000
0302
0000
0023
0000
0030
,  // measure 76
1001
1001
1001
1001
,  // measure 77
0110
0000
0110
0000
0100
0001
1000
0001
,  // measure 78
0000
0000
0000
0000
,  // measure 79
0000
0000
0000
0000
,  // measure 80
1002
0000
0000
0000
0000
0000
0000
0000
0000
0000
0000
0000
0000
0000
0000
0000
0000
0000
0000
0000
0000
0000
0000
0000
0000
0000
0000
0000
0000
0000
0000
0000
0000
0000
0000
0000
0000
0000
0000
0000
0000
0000
0000
0000
0000
0000
0000
0000
0000
0000
0000
0000
0000
0000
0000
0000
0000
0000
0000
0000
0000
0000
0000
0000
0000
0000
0000
0000
0000
0000
0000
0000
0000
0000
0000
0000
0000
0000
0000
0000
0000
0000
0000
0000
0000
0000
0000
0000
0000
0000
0000
0000
0000
0000
0000
0000
2003
0000
0000
0000
0000
0000
0000
0000
0000
0000
0000
0000
0000
0000
0000
0000
0000
0000
0000
0000
0000
0000
0000
0000
0000
0000
0000
0000
0000
0000
0000
0000
0000
0000
0000
0000
0000
0000
0000
0000
0000
0000
0000
0000
0000
0000
0000
0000
0000
0000
0000
0000
0000
0000
0000
0000
0000
0000
0000
0000
0000
0000
0000
0000
0000
0000
0000
0000
0000
0000
0000
0000
0000
0000
0000
0000
0000
0000
0000
0000
0000
0000
0000
0000
0000
0000
0000
0000
0000
0000
0000
0000
0000
0000
0000
3000
,  // measure 81
1010
0000
0000
0000
0000
0000
0000
0000
0000
0000
0000
0000
0000
0000
0000
0000
0000
0000
0000
0000
0000
0000
0000
0000
0010
0000
0000
0000
0000
0000
0000
0000
0000
0000
0000
0000
0000
0000
0000
0000
0000
0000
0000
0000
0000
0000
0000
0000
0000
0000
0000
0000
0000
0000
0000
0000
0000
0000
0000
0000
0000
0000
0000
0000
0000
0000
0000
0000
0000
0000
0000
0000
0020
0000
0000
0000
0000
0000
0000
0000
0000
0000
0000
0000
0000
0000
0000
0000
0000
0000
0000
0000
0000
0000
0000
0000
0000
0000
0000
0000
0000
0000
0000
0000
0000
0000
0000
0000
0000
0000
0000
0000
0000
0000
0000
0000
0000
0000
0000
0000
0000
0000
0000
0000
0000
0000
0000
0000
0000
0000
0000
0000
0000
0000
0000
0000
0000
0000
0000
0000
0000
0000
0000
0000
0000
0000
0000
0000
0000
0000
0000
0000
0000
0000
0000
0000
0000
0000
0000
0000
0000
0000
0000
0000
0000
0000
0000
0000
0000
0000
0000
0000
0000
0000
0000
0000
0000
0000
0000
0000
0000
0000
0000
0000
0000
0000
0000
0000
0000
0000
0000
0030
,  // measure 82
0210
0000
0000
0000
0302
0000
0000
2003
,  // measure 83
0000
0000
0000
0000
0000
0000
0000
0000
0000
0000
0000
0000
0000
0000
0000
0000
0000
0000
0000
0000
0000
0000
0000
0000
0000
0000
0000
0000
0000
0000
0000
0000
0000
0000
0000
0000
0000
0000
0000
0000
0000
0000
0000
0000
0000
0000
0000
0000
0000
0000
0000
0000
0000
0000
0000
0000
0000
0000
0000
0000
0000
0000
0000
0000
0000
0000
0000
0000
0000
0000
0000
0000
0000
0000
0000
0000
0000
0000
0000
0000
0000
0000
0000
0000
0000
0000
0000
0000
0000
0000
0000
0000
0000
0000
0000
0000
0000
0000
0000
0000
0000
0000
0000
0000
0000
0000
0000
0000
0000
0000
0000
0000
0000
0000
0000
0000
0000
0000
0000
0000
0000
0000
0000
0000
0000
0000
0000
0000
0000
0000
0000
0000
0000
0000
0000
0000
0000
0000
0000
0000
0000
0000
0000
0000
0000
0000
0000
0000
0000
0000
0000
0000
0000
0000
0000
0000
0000
0000
0000
0000
0000
0000
0000
0000
0000
0000
0000
0000
0000
0000
0000
0000
0000
0000
0000
0000
0000
0000
0000
0000
0000
0000
0000
0000
0000
0000
0000
0000
0000
0000
0000
3000
,  // measure 84
1200
0000
0000
0000
0000
0000
0000
0000
0000
0000
0000
0000
0000
0000
0000
0000
0000
0000
0000
0000
0000
0000
0000
0000
0000
0000
0000
0000
0000
0000
0000
0000
0000
0000
0000
0000
0000
0000
0000
0000
0000
0000
0000
0000
0000
0000
0000
0000
0000
0000
0000
0000
0000
0000
0000
0000
0000
0000
0000
0000
0000
0000
0000
0000
0000
0000
0000
0000
0000
0000
0000
0000
0000
0000
0000
0000
0000
0000
0000
0000
0000
0000
0000
0000
0000
0000
0000
0000
0000
0000
0000
0000
0000
0000
0000
0000
0320
0000
0000
0000
0000
0000
0000
0000
0000
0000
0000
0000
0000
0000
0000
0000
0000
0000
0000
0000
0000
0000
0000
0000
0000
0000
0000
0000
0000
0000
0000
0000
0000
0000
0000
0000
0000
0000
0000
0000
0000
0000
0000
0000
0000
0000
0000
0000
0000
0000
0000
0000
0000
0000
0000
0000
0000
0000
0000
0000
0000
0000
0000
0000
0000
0000
0000
0000
0000
0000
0000
0000
0000
0000
0000
0000
0000
0000
0000
0000
0000
0000
0000
0000
0000
0000
0000
0000
0000
0000
0000
0000
0000
0000
0000
0030
,  // measure 85
0011
0000
0000
0000
0000
0000
0000
0000
0000
0000
0000
0000
0000
0000
0000
0000
0000
0000
0000
0000
0000
0000
0000
0000
0001
0000
0000
0000
0000
0000
0000
0000
0000
0000
0000
0000
0000
0000
0000
0000
0000
0000
0000
0000
0000
0000
0000
0000
0000
0000
0000
0000
0000
0000
0000
0000
0000
0000
0000
0000
0000
0000
0000
0000
0000
0000
0000
0000
0000
0000
0000
0000
0002
0000
0000
0000
0000
0000
0000
0000
0000
0000
0000
0000
0000
0000
0000
0000
0000
0000
0000
0000
0000
0000
0000
0000
0000
0000
0000
0000
0000
0000
0000
0000
0000
0000
0000
0000
0000
0000
0000
0000
0000
0000
0000
0000
0000
0000
0000
0000
0000
0000
0000
0000
0000
0000
0000
0000
0000
0000
0000
0000
0000
0000
0000
0000
0000
0000
0000
0000
0000
0000
0000
0000
0000
0000
0000
0000
0000
0000
0000
0000
0000
0000
0000
0000
0000
0000
0000
0000
0000
0000
0000
0000
0000
0000
0000
0000
0000
0000
0000
0000
0000
0000
0000
0000
0000
0000
0000
0000
0000
0000
0000
0000
0000
0000
0000
0000
0000
0000
0000
0003
,  // measure 86
2001
0000
0000
0000
0000
0000
0000
0000
0000
0000
0000
0000
0000
0000
0000
0000
0000
0000
0000
0000
0000
0000
0000
0000
0000
0000
0000
0000
0000
0000
0000
0000
0000
0000
0000
0000
0000
0000
0000
0000
0000
0000
0000
0000
0000
0000
0000
0000
0000
0000
0000
0000
0000
0000
0000
0000
0000
0000
0000
0000
0000
0000
0000
0000
0000
0000
0000
0000
0000
0000
0000
0000
0000
0000
0000
0000
0000
0000
0000
0000
0000
0000
0000
0000
0000
0000
0000
0000
0000
0000
0000
0000
0000
0000
0000
0000
0000
0000
0000
0000
0000
0000
0000
0000
0000
0000
0000
0000
0000
0000
0000
0000
0000
0000
0000
0000
0000
0000
0000
0000
0000
0000
0000
0000
0000
0000
0000
0000
0000
0000
0000
0000
0000
0000
0000
0000
0000
0000
0000
0000
0000
0000
0000
0000
0000
0000
0000
0000
0000
0000
0000
0000
0000
0000
0000
0000
0000
0000
0000
0000
0000
0000
0000
0000
0000
0000
0000
0000
0000
0000
0000
0000
0000
0000
0000
0000
0000
0000
0000
0000
0000
0000
0000
0000
0000
0000
0000
0000
0000
0000
0000
3000
,  // measure 87
1020
0000
0000
0000
0000
0000
0000
0000
0000
0000
0000
0000
0000
0000
0000
0000
0000
0000
0000
0000
0000
0000
0000
0000
0000
0000
0000
0000
0000
0000
0000
0000
0000
0000
0000
0000
0000
0000
0000
0000
0000
0000
0000
0000
0000
0000
0000
0000
0000
0000
0000
0000
0000
0000
0000
0000
0000
0000
0000
0000
0000
0000
0000
0000
0000
0000
0000
0000
0000
0000
0000
0000
0000
0000
0000
0000
0000
0000
0000
0000
0000
0000
0000
0000
0000
0000
0000
0000
0000
0000
0000
0000
0000
0000
0000
0030
0210
0000
0000
0000
0000
0000
0000
0000
0000
0000
0000
0000
0000
0000
0000
0000
0000
0000
0000
0000
0000
0000
0000
0000
0000
0000
0000
0000
0000
0000
0000
0000
0000
0000
0000
0000
0000
0000
0000
0000
0000
0000
0000
0000
0000
0000
0000
0000
0000
0000
0000
0000
0000
0000
0000
0000
0000
0000
0000
0000
0000
0000
0000
0000
0000
0000
0000
0000
0000
0000
0000
0000
0000
0000
0000
0000
0000
0000
0000
0000
0000
0000
0000
0000
0000
0000
0000
0000
0000
0000
0000
0000
0000
0000
0000
0000
,  // measure 88
0301
0000
1000
0010
1000
0000
0000
0000
0010
0000
0000
0000
1000
0000
0100
0000
,  // measure 89
0010
0000
0100
0000
0010
0000
0001
0000
1000
0001
1000
0000
0001
0000
0010
0000
,  // measure 90
0100
1000
0100
0010
1000
0010
0100
0010
,  // measure 91
0001
1000
0001
0100
0010
0100
1000
0000
,  // measure 92
0010
0000
0100
0010
0100
0000
0000
0000
0001
0000
0000
0000
0001
0000
1000
0000
,  // measure 93
0100
0000
1000
0000
0010
0000
0100
0000
0010
0100
0001
0000
1000
0000
0001
0000
,  // measure 94
2010
0000
0000
0000
0000
0000
0000
0000
0000
0000
0000
0000
0000
0000
0000
0000
0000
0000
0000
0000
0000
0000
0000
0000
0000
0000
0000
0000
0000
0000
0000
0000
0000
0000
0000
0000
0000
0000
0000
0000
0000
0000
0000
0000
0000
0000
0000
3000
1002
0000
0000
0000
0000
0000
0000
0000
0000
0000
0000
0000
0000
0000
0000
0000
0000
0000
0000
0000
0000
0000
0000
0000
0000
0000
0000
0000
0000
0000
0000
0000
0000
0000
0000
0000
0000
0000
0000
0000
0000
0000
0000
0000
0000
0000
0000
0003
0201
0000
0000
0000
0000
0000
0000
0000
0000
0000
0000
0000
0000
0000
0000
0000
0000
0000
0000
0000
0000
0000
0000
0000
0000
0000
0000
0000
0000
0000
0000
0000
0000
0000
0000
0000
0000
0000
0000
0000
0000
0000
0000
0000
0000
0000
0000
0300
0120
0000
0000
0000
0000
0000
0000
0000
0000
0000
0000
0000
0000
0000
0000
0000
0000
0000
0000
0000
0000
0000
0000
0000
0000
0000
0000
0000
0000
0000
0000
0000
0000
0000
0000
0000
0000
0000
0000
0000
0000
0000
0000
0000
0000
0000
0000
0030
,  // measure 95
1010
1000
0001
1000
0001
1000
0001
1000
,  // measure 96
1001
0000
0001
0100
0010
0000
0000
0000
1020
0000
1030
0000
0001
0000
1000
0000
,  // measure 97
0001
0100
0010
1000
1002
0003
1001
0001
,  // measure 98
0101
0000
0101
0100
0001
0010
0100
1000
,  // measure 99
0010
0100
0001
0010
1000
0010
0002
0003
,  // measure 100
1010
0000
1000
0010
0100
0000
0000
0000
2001
0000
3001
0000
0100
0000
0001
0000
,  // measure 101
1000
0100
0010
0001
1200
0300
1100
1000
,  // measure 102
1001
0000
1001
0001
0100
0001
0100
0010
,  // measure 103
1000
0000
0100
0000
0001
0000
0100
0000
1000
0000
0001
0100
0001
0000
1000
0000
,  // measure 104
1002
1003
0120
0130
,  // measure 105
1001
1000
0010
0100
0001
0010
1000
0010
,  // measure 106
0100
1000
0011
0000
0010
0001
1100
0000
,  // measure 107
0001
0000
0100
0000
0001
0000
0100
0010
0100
0000
0010
0000
1000
0000
0100
0000
,  // measure 108
2100
3001
0012
1003
,  // measure 109
0110
0010
1000
0001
0010
0001
0100
0010
,  // measure 110
1020
0000
0000
0000
0000
0000
0000
0000
0000
0000
0000
0000
0000
0000
0000
0000
0000
0000
0000
0000
0000
0000
0000
0000
0000
0000
0000
0000
0000
0000
0000
0000
0000
0000
0000
0000
0000
0000
0000
0000
0000
0000
0000
0000
0000
0000
0000
0030
0210
0000
0000
0000
0000
0000
0000
0000
0000
0000
0000
0000
0000
0000
0000
0000
0000
0000
0000
0000
0000
0000
0000
0000
0000
0000
0000
0000
0000
0000
0000
0000
0000
0000
0000
0000
0000
0000
0000
0000
0000
0000
0000
0000
0000
0000
0000
0300
2100
0000
0000
0000
0000
0000
0000
0000
0000
0000
0000
0000
0000
0000
0000
0000
0000
0000
0000
0000
0000
0000
0000
0000
0000
0000
0000
0000
0000
0000
0000
0000
0000
0000
0000
0000
0000
0000
0000
0000
0000
0000
0000
0000
0000
0000
0000
3000
1002
0000
0000
0000
0000
0000
0000
0000
0000
0000
0000
0000
0000
0000
0000
0000
0000
0000
0000
0000
0000
0000
0000
0000
0000
0000
0000
0000
0000
0000
0000
0000
0000
0000
0000
0000
0000
0000
0000
0000
0000
0000
0000
0000
0000
0000
0000
0000
,  // measure 111
1003
0000
0100
0000
1000
0000
0001
0100
0001
0000
0010
0000
0100
0000
0010
0001
,  // measure 112
1000
0000
0000
0000
,  // measure 113
0000
0000
0000
0000
,  // measure 114
0002
0000
0000
0000
0103
0010
1000
0000
,  // measure 115
0001
0100
0000
0200
0000
0000
0000
0000
,  // measure 116
0320
0000
1030
0001
0010
0100
1000
0200
,  // measure 117
1000
0000
0000
1300
0000
0000
0000
0000
,  // measure 118
0002
0000
0000
0000
1003
0100
1000
0010
,  // measure 119
0100
0010
0000
0020
0000
0000
0000
0000
,  // measure 120
1030
0000
1000
0010
0100
0001
0000
0200
,  // measure 121
0000
0000
0000
0300
,  // measure 122
2002
0000
0000
0000
,  // measure 123
0000
0000
0000
0000
,  // measure 124
3003
0000
0000
0000
;

//---------------dance-single - ----------------
#NOTES:
     dance-single:
     :
     Medium:
     8:
     0.400552,0.528923,0.335553,0.284367,0.000000,493.000000,434.000000,59.000000,50.000000,0.000000,0.000000,0.400552,0.528923,0.335553,0.284367,0.000000,493.000000,434.000000,59.000000,50.000000,0.000000,0.000000:
// measure 0
0000
0000
0000
0000
,  // measure 1
0000
0000
0000
0000
,  // measure 2
0000
0000
0000
0000
,  // measure 3
0000
0000
0000
0000
,  // measure 4
0000
0000
0000
0000
,  // measure 5
0000
0000
0000
0000
,  // measure 6
0000
0000
0000
0000
,  // measure 7
0000
0000
0000
0000
,  // measure 8
0000
0000
0000
0000
,  // measure 9
0000
0000
0000
0000
0000
0000
0010
1000
,  // measure 10
0020
0000
0000
0000
0230
0000
0000
0302
,  // measure 11
0000
1003
0000
2000
0000
0000
3001
1000
,  // measure 12
0002
0000
0000
0000
0203
0000
0000
0302
,  // measure 13
0000
0000
0000
0000
0003
0000
1000
0010
,  // measure 14
0200
0000
0000
0000
0302
0000
0000
0103
,  // measure 15
0000
0010
0000
0020
0000
0000
0000
0000
,  // measure 16
1030
0200
0000
2300
0000
3001
0000
0002
,  // measure 17
0000
0000
0000
0000
0000
0000
0000
0003
,  // measure 18
0000
0000
0000
0000
,  // measure 19
0000
0000
0000
0000
,  // measure 20
1000
0010
0100
0000
0010
0000
0010
0100
,  // measure 21
0001
0000
0010
0000
0001
0000
0010
0100
,  // measure 22
1000
0001
0100
1000
,  // measure 23
0100
0000
0001
0000
0010
0100
0010
0000
,  // measure 24
0100
0010
0100
0000
0001
0000
0001
1000
,  // measure 25
0010
0000
1000
0000
0001
0000
1000
0010
,  // measure 26
0001
0001
0010
0010
,  // measure 27
0100
1000
0001
0000
,  // measure 28
0100
0010
0100
0000
0001
0000
0010
0001
,  // measure 29
1000
0000
0001
0000
0100
0000
0010
0001
,  // measure 30
0010
0100
0001
1000
,  // measure 31
0001
0000
0100
0000
0010
1000
0010
0000
,  // measure 32
0100
0010
0001
0000
1000
0000
1000
0100
,  // measure 33
1000
0000
1000
0000
0010
0000
0100
0010
,  // measure 34
0100
0000
0001
0000
1000
0001
1000
0001
,  // measure 35
0100
0000
0010
0000
0010
1000
0001
0000
,  // measure 36
0100
0000
0101
0000
1000
0000
0010
0100
,  // measure 37
0010
0100
0001
0000
1000
0000
0100
0010
,  // measure 38
0100
0000
0001
0000
1000
0100
0010
0001
,  // measure 39
0000
0001
0010
0000
0001
0100
0010
0000
,  // measure 40
1000
0000
1010
0000
0010
0000
0100
0001
,  // measure 41
0100
0001
1000
0000
0010
0000
1000
0100
,  // measure 42
0010
0000
0001
0000
0010
0100
1000
0001
,  // measure 43
0000
0001
1000
0000
0010
0000
0100
0000
,  // measure 44
0020
0000
0030
0000
0210
0000
0300
2000
,  // measure 45
0000
3002
0000
0203
0000
0300
0000
0000
,  // measure 46
0020
0000
0030
0000
2010
0000
3000
0200
,  // measure 47
0000
0000
0000
0000
0300
0000
1000
0001
,  // measure 48
2000
3000
1002
0003
,  // measure 49
0010
0200
0000
0320
0000
0000
0030
0000
,  // measure 50
0002
0000
0003
0000
0201
0000
0300
0010
,  // measure 51
1000
0001
1000
0001
0000
0001
1000
0010
,  // measure 52
0100
1001
0010
1001
,  // measure 53
1000
0001
0100
0000
0100
0010
1000
0000
,  // measure 54
0001
1100
1000
0101
,  // measure 55
0001
0100
0001
0000
1000
0010
1000
0000
,  // measure 56
0010
0101
0010
1100
,  // measure 57
1000
0010
0100
0000
0001
1000
0001
0000
,  // measure 58
1000
0011
1000
0011
,  // measure 59
0001
0000
1100
0000
0001
1000
0001
1000
,  // measure 60
0000
0000
0000
0000
,  // measure 61
0000
0000
0000
0000
,  // measure 62
1010
0010
0100
0001
,  // measure 63
0110
0010
1000
0001
,  // measure 64
0101
0010
1000
0100
,  // measure 65
1010
0001
0010
0100
,  // measure 66
1001
0001
0010
1000
,  // measure 67
0011
0001
1000
0100
,  // measure 68
1100
0100
1000
0010
,  // measure 69
1001
0010
0100
0001
,  // measure 70
1001
0100
0011
0100
,  // measure 71
0001
0000
0100
0000
1001
0000
1000
0010
,  // measure 72
0100
0001
1010
0100
,  // measure 73
1000
0010
0100
0000
1001
0000
0100
0001
,  // measure 74
1000
0010
0110
0010
,  // measure 75
1000
0001
0100
0000
0011
0000
0100
1000
,  // measure 76
0001
1000
0001
1000
,  // measure 77
0010
0000
0100
0000
0010
0100
0010
0100
,  // measure 78
0000
0000
0000
0000
,  // measure 79
0000
0000
0000
0000
,  // measure 80
1010
0000
1000
0000
,  // measure 81
1001
0000
0000
0000
,  // measure 82
1001
0000
0100
0000
,  // measure 83
1010
0000
0000
0000
,  // measure 84
0110
0000
1000
0000
,  // measure 85
0101
0000
0000
0000
,  // measure 86
1001
0000
0100
0000
,  // measure 87
1001
0000
0110
0000
,  // measure 88
1001
0000
1000
0000
1010
0000
0010
0100
,  // measure 89
0010
0000
1000
0000
1001
0000
0001
0100
,  // measure 90
0010
1000
1001
0010
,  // measure 91
0101
0000
0001
0000
1000
0010
1000
0000
,  // measure 92
1001
0000
0010
0000
1010
0000
0100
0001
,  // measure 93
1000
0000
0100
0000
0011
0000
0001
1000
,  // measure 94
0001
1000
0100
0001
,  // measure 95
0100
0000
1000
0000
0010
0100
0010
0100
,  // measure 96
0001
0000
1001
0000
0001
1000
0010
0100
,  // measure 97
0000
0100
0010
0000
1000
0001
1000
0000
,  // measure 98
0110
0000
0110
0000
0001
1000
0001
1000
,  // measure 99
0000
1000
0010
0000
0100
0001
1000
0000
,  // measure 100
0001
0000
1100
0000
0001
0010
0100
1000
,  // measure 101
0000
1000
0010
0000
0100
0010
0100
0000
,  // measure 102
1001
0000
1001
0000
0001
0010
0100
1000
,  // measure 103
0000
1000
0010
0000
0100
0001
1000
0000
,  // measure 104
0001
0011
1000
1100
,  // measure 105
0001
1000
0000
1000
0010
0000
0100
0001
,  // measure 106
0100
0000
1001
0000
0010
0100
0010
0100
,  // measure 107
0000
0100
0001
0000
1000
0001
1000
0000
,  // measure 108
0001
0110
1000
0110
,  // measure 109
0001
1000
0000
1000
0001
0000
0100
0010
,  // measure 110
2000
3200
0320
0032
,  // measure 111
0023
0230
2300
3002
,  // measure 112
0003
0000
0000
0000
,  // measure 113
0000
0000
0000
0000
,  // measure 114
2000
0000
3020
0000
,  // measure 115
0130
0002
0000
0000
0000
0000
0000
0000
,  // measure 116
2003
0000
0000
0000
3200
0000
0000
0320
,  // measure 117
0000
0000
0000
0030
,  // measure 118
2000
0000
3002
0000
,  // measure 119
0103
0020
0000
0000
0000
0000
0030
0000
,  // measure 120
0200
0000
0302
0000
0000
2003
0000
3020
,  // measure 121
0000
0000
0000
0030
,  // measure 122
0220
0000
0000
0000
,  // measure 123
0000
0000
0000
0000
,  // measure 124
0330
0000
0000
0000
;

//---------------dance-single - ----------------
#NOTES:
     dance-single:
     :
     Easy:
     4:
     0.268930,0.352615,0.181995,0.011375,0.000000,331.000000,299.000000,32.000000,2.000000,0.000000,0.000000,0.268930,0.352615,0.181995,0.011375,0.000000,331.000000,299.000000,32.000000,2.000000,0.000000,0.000000:
// measure 0
0000
0000
0000
0000
,  // measure 1
0000
0000
0000
0000
,  // measure 2
0000
0000
0000
0000
,  // measure 3
0000
0000
0000
0000
,  // measure 4
0000
0000
0000
0000
,  // measure 5
0000
0000
0000
0000
,  // measure 6
0000
0000
0000
0000
,  // measure 7
0000
0000
0000
0000
,  // measure 8
0000
0000
0000
0000
,  // measure 9
0000
0000
0000
0000
,  // measure 10
1000
0000
1000
0000
,  // measure 11
0010
0000
0010
0000
,  // measure 12
0100
0000
0100
0000
,  // measure 13
0001
0000
0001
0000
,  // measure 14
1000
0000
1000
0000
,  // measure 15
0001
0000
0001
0000
,  // measure 16
0100
0000
0010
0000
,  // measure 17
1000
0000
0100
0000
,  // measure 18
0010
0000
0000
0000
,  // measure 19
0000
0000
0000
0000
,  // measure 20
1000
0000
0010
0000
,  // measure 21
0100
0100
0010
0000
,  // measure 22
1000
0001
0100
0001
,  // measure 23
0010
1000
0010
0001
,  // measure 24
0001
0100
1000
0000
,  // measure 25
0010
0100
1000
0000
,  // measure 26
0001
1000
0100
0010
,  // measure 27
0001
0001
0100
0000
,  // measure 28
0100
0010
1000
0001
,  // measure 29
0100
0001
0010
1000
,  // measure 30
0100
0100
1000
0010
,  // measure 31
1000
1000
0100
0010
,  // measure 32
0001
0001
1000
0100
,  // measure 33
1000
0100
0010
0001
,  // measure 34
1000
1000
0010
0010
,  // measure 35
0100
0001
1000
0100
,  // measure 36
0010
0100
1000
0001
,  // measure 37
1000
0100
0001
0100
,  // measure 38
1000
0010
1000
0001
,  // measure 39
1000
0010
1000
0100
,  // measure 40
0001
0001
0100
0100
,  // measure 41
0010
0001
0001
0100
,  // measure 42
1000
1000
0100
0010
,  // measure 43
1000
0001
0001
1000
,  // measure 44
0001
0000
1010
0000
,  // measure 45
0001
0000
0110
0000
,  // measure 46
1000
0000
0110
0000
,  // measure 47
1000
0000
0101
0000
,  // measure 48
0100
0000
1010
0000
,  // measure 49
0010
0000
0110
0000
,  // measure 50
0001
0000
1001
0000
,  // measure 51
1000
0000
0010
0000
,  // measure 52
0100
0010
1000
0001
,  // measure 53
0100
0010
1000
0100
,  // measure 54
1000
0100
0100
0010
,  // measure 55
0001
0010
0001
0001
,  // measure 56
1000
0001
1000
0001
,  // measure 57
0100
0010
1000
0001
,  // measure 58
0010
0010
0100
0100
,  // measure 59
1000
1000
0001
0001
,  // measure 60
0000
0000
0000
0000
,  // measure 61
0000
0000
0000
0000
,  // measure 62
1000
0000
0010
0000
,  // measure 63
0100
0100
0001
0000
,  // measure 64
1000
0000
0010
0000
,  // measure 65
0001
0001
1000
0000
,  // measure 66
0100
0000
0010
0000
,  // measure 67
1000
1000
0001
0000
,  // measure 68
0010
0000
0100
0000
,  // measure 69
0001
0001
1000
0000
,  // measure 70
0100
0000
0110
0000
,  // measure 71
1000
0000
0101
0000
,  // measure 72
1000
0000
0110
0000
,  // measure 73
1000
0000
0011
0000
,  // measure 74
0100
0000
1001
0000
,  // measure 75
0010
0000
0101
0000
,  // measure 76
1000
0000
0011
0000
,  // measure 77
0100
0100
0010
0010
,  // measure 78
1000
0000
0000
0000
,  // measure 79
0000
0000
0000
0000
,  // measure 80
1001
0000
0000
0000
,  // measure 81
0110
0000
0000
0000
,  // measure 82
1010
0000
0000
0000
,  // measure 83
0101
0000
0000
0000
,  // measure 84
1001
0000
0000
0000
,  // measure 85
0011
0000
0000
0000
,  // measure 86
1010
0000
0000
0000
,  // measure 87
1100
0000
0000
0000
,  // measure 88
0001
0000
0001
0000
,  // measure 89
1000
0000
1000
0000
,  // measure 90
0010
0000
0010
0000
,  // measure 91
0100
0000
0100
0000
,  // measure 92
0001
1000
0001
1000
,  // measure 93
0010
0100
0010
0100
,  // measure 94
0001
0100
0010
1000
,  // measure 95
0010
0100
0001
1000
,  // measure 96
1001
0100
0010
1000
,  // measure 97
0001
0100
1000
0100
,  // measure 98
0001
0001
1000
0001
,  // measure 99
0100
1000
0100
0001
,  // measure 100
0100
0010
1000
0001
,  // measure 101
1000
0100
1000
0100
,  // measure 102
0010
0001
0010
1000
,  // measure 103
0010
0010
0001
0001
,  // measure 104
0100
0010
1000
0001
,  // measure 105
0100
0001
1000
0010
,  // measure 106
0100
1000
0100
0001
,  // measure 107
0010
1000
0001
0100
,  // measure 108
0001
0100
0010
0001
,  // measure 109
0100
0001
1000
0001
,  // measure 110
0100
0010
0100
1000
,  // measure 111
0100
0010
0100
1000
,  // measure 112
0000
0000
0000
0000
,  // measure 113
0000
0000
0000
0000
,  // measure 114
1001
0000
0000
0000
,  // measure 115
1001
0000
0000
0000
,  // measure 116
0110
0000
0000
0000
,  // measure 117
1010
0000
0000
0000
,  // measure 118
0101
0000
0000
0000
,  // measure 119
1001
0000
0000
0000
,  // measure 120
1100
0000
0000
0000
,  // measure 121
0110
0000
0000
0000
,  // measure 122
2002
0000
0000
0000
,  // measure 123
0000
0000
0000
0000
,  // measure 124
3003
0000
0000
0000
;

//---------------dance-single - ----------------
#NOTES:
     dance-single:
     :
     Beginner:
     2:
     0.119434,0.176308,0.022749,0.096685,0.000000,147.000000,143.000000,4.000000,17.000000,0.000000,0.000000,0.119434,0.176308,0.022749,0.096685,0.000000,147.000000,143.000000,4.000000,17.000000,0.000000,0.000000:
// measure 0
0000
0000
0000
0000
,  // measure 1
0000
0000
0000
0000
,  // measure 2
0000
0000
0000
0000
,  // measure 3
0000
0000
0000
0000
,  // measure 4
0000
0000
0000
0000
,  // measure 5
0000
0000
0000
0000
,  // measure 6
0000
0000
0000
0000
,  // measure 7
0000
0000
0000
0000
,  // measure 8
0000
0000
0000
0000
,  // measure 9
0000
0000
0000
0000
,  // measure 10
0100
0000
0000
0000
,  // measure 11
0010
0000
0000
0000
,  // measure 12
1000
0000
0000
0000
,  // measure 13
0001
0000
0000
0000
,  // measure 14
0100
0000
0000
0000
,  // measure 15
0001
0000
0000
0000
,  // measure 16
0100
0000
0000
0000
,  // measure 17
0010
0000
0000
0000
,  // measure 18
0000
0000
0000
0000
,  // measure 19
0000
0000
0000
0000
,  // measure 20
1000
0000
0000
0000
,  // measure 21
0100
0000
0000
0000
,  // measure 22
1000
0000
0000
0000
,  // measure 23
0010
0000
0000
0000
,  // measure 24
0100
0000
0000
0000
,  // measure 25
0001
0000
0000
0000
,  // measure 26
1000
0000
0000
0000
,  // measure 27
0001
0000
0000
0000
,  // measure 28
0100
0000
0100
0000
,  // measure 29
0010
0000
0010
0000
,  // measure 30
1000
0000
1000
0000
,  // measure 31
0001
0000
0001
0000
,  // measure 32
0100
0000
0100
0000
,  // measure 33
0001
0000
0001
0000
,  // measure 34
1000
0000
0010
0000
,  // measure 35
1000
0000
0001
0000
,  // measure 36
0100
0000
0000
0000
,  // measure 37
0010
0000
0010
0000
,  // measure 38
1000
0000
1000
0000
,  // measure 39
0001
0000
0001
0000
,  // measure 40
0100
0000
0100
0000
,  // measure 41
0010
0000
0010
0000
,  // measure 42
1000
0000
0001
0000
,  // measure 43
1000
0000
0010
0000
,  // measure 44
0200
0000
0300
0000
,  // measure 45
0002
0000
0003
0000
,  // measure 46
2000
0000
3000
0000
,  // measure 47
0020
0000
0030
0000
,  // measure 48
0200
0000
0300
0000
,  // measure 49
0002
0000
0003
0000
,  // measure 50
1000
0000
0001
0000
,  // measure 51
1000
0000
0000
0000
,  // measure 52
0010
0000
0100
0000
,  // measure 53
0010
0000
1000
0000
,  // measure 54
0001
0000
0100
0000
,  // measure 55
0001
0000
1000
0000
,  // measure 56
0100
0000
1000
0000
,  // measure 57
0010
0000
1000
0000
,  // measure 58
0001
0000
0100
0000
,  // measure 59
0001
0000
1000
0000
,  // measure 60
0000
0000
0000
0000
,  // measure 61
0000
0000
0000
0000
,  // measure 62
1000
0000
0000
0000
,  // measure 63
0010
0000
0000
0000
,  // measure 64
0100
0000
0000
0000
,  // measure 65
0001
0000
0000
0000
,  // measure 66
1000
0000
0000
0000
,  // measure 67
0100
0000
0000
0000
,  // measure 68
0010
0000
0000
0000
,  // measure 69
1000
0000
0000
0000
,  // measure 70
0001
0000
0000
0000
,  // measure 71
0100
0000
0000
0000
,  // measure 72
0010
0000
0000
0000
,  // measure 73
1000
0000
0000
0000
,  // measure 74
0001
0000
0000
0000
,  // measure 75
0100
0000
0000
0000
,  // measure 76
0002
0000
0000
0000
,  // measure 77
2003
0000
0000
0000
,  // measure 78
3000
0000
0000
0000
,  // measure 79
0000
0000
0000
0000
,  // measure 80
0101
0000
0000
0000
,  // measure 81
0000
0000
0000
0000
,  // measure 82
1001
0000
0000
0000
,  // measure 83
0000
0000
0000
0000
,  // measure 84
0110
0000
0000
0000
,  // measure 85
0000
0000
0000
0000
,  // measure 86
1010
0000
0000
0000
,  // measure 87
0000
0000
0000
0000
,  // measure 88
0001
0000
0000
0000
,  // measure 89
1000
0000
0000
0000
,  // measure 90
0100
0000
0000
0000
,  // measure 91
1000
0000
0000
0000
,  // measure 92
0010
0000
0000
0000
,  // measure 93
1000
0000
0000
0000
,  // measure 94
0001
0000
1000
0000
,  // measure 95
0001
0000
0100
0000
,  // measure 96
0010
0000
1000
0000
,  // measure 97
0100
0000
1000
0000
,  // measure 98
0010
0000
0100
0000
,  // measure 99
0001
0000
1000
0000
,  // measure 100
0100
0000
0001
0000
,  // measure 101
0010
0000
0001
0000
,  // measure 102
1000
0000
0010
0000
,  // measure 103
0100
0000
0001
0000
,  // measure 104
1000
0000
0100
0000
,  // measure 105
1000
0000
0001
0000
,  // measure 106
0010
0000
0001
0000
,  // measure 107
0100
0000
0010
0000
,  // measure 108
1000
0000
0001
0000
,  // measure 109
0100
0000
0001
0000
,  // measure 110
1000
0000
0001
0000
,  // measure 111
0100
0000
0010
0000
,  // measure 112
0000
0000
0000
0000
,  // measure 113
0000
0000
0000
0000
,  // measure 114
2000
0000
3000
0000
,  // measure 115
0002
0000
0003
0000
,  // measure 116
0200
0000
0300
0000
,  // measure 117
0020
0000
0030
0000
,  // measure 118
0002
0000
0003
0000
,  // measure 119
2000
0000
3000
0000
,  // measure 120
0200
0000
0300
0000
,  // measure 121
2000
0000
3000
0000
,  // measure 122
0020
0000
0000
0000
,  // measure 123
0000
0000
0000
0000
,  // measure 124
0030
0000
0000
0000
;
