#TITLE:Lay Low;
#SUBTITLE:;
#ARTIST:YooA;
#TITLETRANSLIT:;
#SUBTITLETRANSLIT:;
#ARTISTTRANSLIT:;
#GENRE:;
#CREDIT:;
#BANNER:AV.avi;
#BACKGROUND:bg.png;
#LYRICSPATH:;
#CDTITLE:;
#MUSIC:audio.ogg;
#OFFSET:-0.122000;
#SAMPLESTART:44.138111;
#SAMPLELENGTH:15.000001;
#SELECTABLE:YES;
#BPMS:0.000000=142.039993
,169.000000=71.019997
,185.000000=142.039993
;
#STOPS:105.000000=-0.001208,
105.500000=-0.001208,
106.000000=-0.001208,
106.500000=-0.001208,
107.000000=-0.001208,
107.500000=-0.001208,
108.000000=-0.001208,
108.500000=-0.001208,
109.000000=-0.001208,
109.500000=-0.001208,
110.000000=-0.001208,
110.500000=-0.001208,
111.000000=-0.001208,
111.500000=-0.001208,
112.000000=-0.001208,
112.500000=-0.001208,
121.000000=-0.001208,
121.500000=-0.001208,
122.000000=-0.001208,
122.500000=-0.001208,
123.000000=-0.001208,
123.500000=-0.001208,
124.000000=-0.001208,
124.500000=-0.001208,
125.000000=-0.001208,
125.500000=-0.001208,
126.000000=-0.001208,
126.500000=-0.001208,
127.000000=-0.001208,
127.500000=-0.001208,
128.000000=-0.001208,
128.500000=-0.001208,
185.000000=0.003792,
185.500000=0.003792,
186.000000=0.003792,
186.500000=0.003792,
187.000000=0.003792,
187.500000=0.003792,
188.000000=0.003792,
188.500000=-0.001208,
189.000000=-0.001208,
189.500000=-0.001208,
190.000000=-0.001208,
190.500000=-0.001208,
191.000000=-0.001208,
191.500000=-0.001208,
192.000000=-0.001208,
192.500000=-0.001208,
201.000000=-0.001208,
201.500000=-0.001208,
202.000000=-0.001208,
202.500000=-0.001208,
203.000000=-0.001208,
203.500000=-0.001208,
204.000000=-0.001208,
204.500000=-0.001208,
205.000000=-0.001208,
205.500000=-0.001208,
206.000000=-0.001208,
206.500000=-0.001208,
207.000000=-0.001208,
207.500000=-0.001208,
208.000000=-0.001208,
208.500000=-0.001208,
217.000000=0.003792,
217.500000=0.003792,
218.000000=0.003792,
218.500000=0.003792,
219.000000=0.003792,
219.500000=0.003792,
220.000000=0.003792,
220.500000=-0.001208,
221.000000=-0.001208,
221.500000=-0.001208,
222.000000=-0.001208,
222.500000=-0.001208,
223.000000=-0.001208,
223.500000=-0.001208,
224.000000=-0.001208,
224.500000=-0.001208,
233.000000=0.003792,
233.500000=0.003792,
234.000000=0.003792,
234.500000=0.003792,
235.000000=0.003792,
235.500000=0.003792,
236.000000=0.003792,
236.500000=-0.001208,
237.000000=-0.001208,
237.500000=-0.001208,
238.000000=-0.001208,
238.500000=-0.001208,
239.000000=-0.001208,
239.500000=-0.001208,
240.000000=-0.001208,
240.500000=-0.001208
;
#BGCHANGES:0.000=MV.avi=1.000=1=0=1===CrossFade==,
99999=-nosongbg-=1.000=0=0=0 // don't automatically add -songbackground-
;
#KEYSOUNDS:;
#ATTACKS:;

//---------------dance-single - ----------------
#NOTES:
     dance-single:
     :
     Hard:
     12:
     0.510217,0.732369,0.061126,0.305631,0.135351,409.000000,402.000000,7.000000,35.000000,0.000000,0.000000,0.510217,0.732369,0.061126,0.305631,0.135351,409.000000,402.000000,7.000000,35.000000,0.000000,0.000000:
// measure 0
0000
0000
0000
0000
,  // measure 1
0000
0000
0000
0000
0000
0000
0100
0010
,  // measure 2
0100
0001
1000
0000
1000
0000
1000
0001
,  // measure 3
0010
0100
0010
0000
0010
0000
0010
1000
,  // measure 4
0001
0010
0100
0000
0100
0000
0100
1000
,  // measure 5
0100
0010
0001
0000
0001
0000
0001
0100
,  // measure 6
0001
1000
0100
0000
0100
0000
0100
0010
,  // measure 7
0001
0010
1000
0000
1000
0000
1000
0001
,  // measure 8
0100
1000
0100
0000
0100
0000
0100
0001
,  // measure 9
0010
0100
1000
0000
0001
0000
0100
0000
,  // measure 10
0110
1000
0100
0010
0001
0010
0100
1000
,  // measure 11
0100
0010
1000
0001
0100
0010
2000
0000
,  // measure 12
3001
0001
0010
0100
1000
0100
0010
0001
,  // measure 13
0010
0100
0001
1000
0010
0100
2000
0000
,  // measure 14
3001
0000
0000
0000
1000
0000
0000
0100
0000
0000
1000
0000
0010
0000
0100
0000
,  // measure 15
0001
1000
0200
0000
0310
0000
0001
0000
,  // measure 16
0010
0000
0100
0000
1000
0000
0000
0010
0000
0000
0100
0000
0001
0000
0000
0010
,  // measure 17
0000
0100
0002
0000
0000
0000
0003
1000
,  // measure 18
1100
0000
1000
0100
1000
0001
0100
0010
,  // measure 19
1000
0000
0010
0000
1000
0000
0000
0001
0000
0000
1000
0000
0100
0000
0000
0000
,  // measure 20
1010
0000
1000
0100
0010
0001
0100
0010
,  // measure 21
1000
0000
0001
0000
0100
0000
0000
0001
0000
0000
0100
0000
0010
0000
0000
0000
,  // measure 22
1010
0000
0010
1000
0001
0010
0100
0001
,  // measure 23
1000
0010
0100
1000
0001
0010
0100
0000
,  // measure 24
0001
0000
1000
0000
0010
0000
0000
1000
0000
0000
0001
0000
0010
0000
0000
1000
,  // measure 25
0000
0001
0020
0000
0000
0000
0000
0000
,  // measure 26
0130
1000
0001
0001
0001
0001
0001
0001
,  // measure 27
0001
0001
0010
0010
0010
0010
0001
0001
,  // measure 28
0001
0001
2000
3000
0000
2000
3000
1000
,  // measure 29
0100
1000
0020
0030
0000
0020
0030
1000
,  // measure 30
0100
1000
0100
0100
0100
0100
0100
0100
,  // measure 31
0100
0100
0010
0010
0010
0010
0100
0100
,  // measure 32
0100
0100
2000
3000
0000
2000
3000
1000
,  // measure 33
0100
1000
0002
0003
0000
0002
0003
0001
,  // measure 34
0010
0100
1000
0000
1000
0010
0000
0010
,  // measure 35
1000
0010
1000
0000
1000
0001
0000
0001
,  // measure 36
1000
0001
1000
0000
1000
0100
0000
0100
,  // measure 37
1000
0100
1000
0000
1000
0010
0000
0010
,  // measure 38
0101
0001
0010
0000
0010
0001
0000
0001
,  // measure 39
0010
0100
1000
0000
1000
0010
0000
1000
,  // measure 40
0110
1000
0010
0000
0010
1000
0000
1000
,  // measure 41
0001
0010
0100
0000
2000
0000
3001
0010
,  // measure 42
0010
0000
0000
0000
0010
0000
0000
0000
0100
0000
0001
0000
0100
0000
0010
0000
1000
0000
0100
0000
1000
0000
0010
0000
1000
0000
0000
0001
0000
0000
0010
0000
,  // measure 43
0200
0000
0000
0000
0300
0000
0000
0000
1000
0000
0100
0000
0010
0000
0001
0000
1000
0000
0100
0000
0010
0000
1000
0000
0001
0000
0000
1000
0000
0000
0100
0000
,  // measure 44
0020
0000
0030
0000
1000
0010
0100
0001
1000
0100
0010
0001
0010
0100
1000
0010
,  // measure 45
0100
0000
0000
0000
0000
0000
1000
0000
0001
0000
0000
0010
0000
0000
1000
0000
0010
0000
0000
0100
0000
0000
1000
0000
0020
0000
0000
0000
0000
0000
0000
0000
,  // measure 46
0030
0000
0000
0100
0001
0000
0001
0000
0001
0000
0001
0000
0001
0000
0001
0000
,  // measure 47
0001
0001
0010
0010
0010
0010
0001
0001
,  // measure 48
0001
0001
2000
3000
0000
2000
3000
1000
,  // measure 49
0100
1000
0020
0030
0000
0020
0030
1000
,  // measure 50
0100
1000
0010
0010
0010
0010
0010
0010
,  // measure 51
0010
0010
0001
0001
0001
0001
0010
0010
,  // measure 52
0010
0010
0200
0300
0000
0200
0300
1000
,  // measure 53
0100
1000
0002
0003
0000
0002
0003
0010
,  // measure 54
0100
1000
0010
0010
0010
0010
0010
0010
,  // measure 55
0010
0010
1000
1000
1000
1000
0010
0010
,  // measure 56
0010
0010
0200
0300
0000
0200
0300
0001
,  // measure 57
0010
0001
0020
0030
0000
0020
0030
0100
,  // measure 58
1000
0002
1000
1000
1003
1000
1000
1000
,  // measure 59
1000
0002
0010
0010
0013
0010
1000
1000
,  // measure 60
1000
1000
0020
0030
0000
0020
0030
1000
,  // measure 61
0001
0010
0200
1300
0000
0200
0300
1000
,  // measure 62
1000
1001
0000
0000
0000
0000
0000
0000
;

//---------------dance-single - ----------------
#NOTES:
     dance-single:
     :
     Medium:
     8:
     0.427884,0.460194,0.017465,0.113520,0.004366,343.000000,341.000000,2.000000,13.000000,0.000000,0.000000,0.427884,0.460194,0.017465,0.113520,0.004366,343.000000,341.000000,2.000000,13.000000,0.000000,0.000000:
// measure 0
0000
0000
0000
0000
,  // measure 1
0000
0000
0000
0000
0000
0000
1000
0100
,  // measure 2
1000
0100
1000
0000
1000
0000
1000
0010
,  // measure 3
1000
0001
0010
0000
0010
0000
0010
0001
,  // measure 4
0010
0100
1000
0000
1000
0000
1000
0010
,  // measure 5
0100
0001
1000
0000
1000
0000
1000
0100
,  // measure 6
0010
0001
0010
0000
0010
0000
0010
0100
,  // measure 7
1000
0010
0100
0000
0100
0000
0100
0001
,  // measure 8
0010
0100
1000
0000
1000
0000
1000
0010
,  // measure 9
0100
0001
1000
0000
0100
0000
0010
0000
,  // measure 10
0001
0000
0001
0010
0100
0000
0010
1000
,  // measure 11
0010
0000
1000
0100
0010
0000
0020
0000
,  // measure 12
0130
0000
0100
1000
0100
0000
0010
0001
,  // measure 13
0010
0000
0001
0010
0100
0000
0020
0000
,  // measure 14
0031
0000
1000
0000
0010
0000
1000
0100
,  // measure 15
1000
0002
0013
0200
,  // measure 16
1300
0001
1001
1000
,  // measure 17
1001
0020
0000
0001
,  // measure 18
0031
0000
1000
0000
0001
0000
0010
0001
,  // measure 19
0010
0000
0100
1000
0010
0100
0001
0000
,  // measure 20
1000
0000
0010
1000
0100
0000
0001
0010
,  // measure 21
0100
0000
0001
1000
0010
1000
0001
0000
,  // measure 22
0010
0000
0100
1000
0001
0000
0010
1000
,  // measure 23
0001
0000
0100
0001
1000
0010
1000
0000
,  // measure 24
1000
0010
1000
0001
,  // measure 25
0010
0200
0000
1300
,  // measure 26
1000
0000
0001
1000
0001
1000
0001
1000
,  // measure 27
0001
1000
0010
1000
0010
1000
0001
1000
,  // measure 28
0001
1000
0001
0000
0000
0001
0000
0001
,  // measure 29
0010
0000
0001
0000
0000
0001
0000
0001
,  // measure 30
0010
0100
1000
0010
1000
0010
1000
0010
,  // measure 31
1000
0010
1000
0001
1000
0001
1000
0010
,  // measure 32
1000
0010
1000
0000
0000
1000
0000
0100
,  // measure 33
0010
0000
0001
0000
0000
0001
0000
0010
,  // measure 34
0100
0000
1000
0000
1000
0010
0000
0010
,  // measure 35
1000
0000
0001
0000
0001
1000
0000
1000
,  // measure 36
0001
0000
0010
0000
0010
0001
0000
0001
,  // measure 37
0010
0000
0100
0000
0100
1000
0000
1000
,  // measure 38
0010
0000
1000
0000
1000
0001
0000
0001
,  // measure 39
1000
0000
0100
0000
0100
1000
0000
1000
,  // measure 40
0010
0000
0001
0000
0001
0010
0000
0010
,  // measure 41
0100
1000
0002
2003
,  // measure 42
3020
0000
1030
0000
0001
1000
0200
1000
,  // measure 43
1300
0000
0010
0000
1000
0000
0002
0010
,  // measure 44
0013
0000
1000
0000
0100
0000
0020
0001
,  // measure 45
0031
0000
1000
0001
1000
0010
2000
0000
,  // measure 46
0000
0000
3000
0001
1000
0000
0001
0000
1000
0000
0001
0000
1000
0000
0001
0000
,  // measure 47
1000
0001
1000
0010
1000
0010
1000
0001
,  // measure 48
1000
0001
1000
0000
0000
1000
0000
1000
,  // measure 49
0100
1000
0010
0000
0000
0010
0000
1000
,  // measure 50
0001
0010
0100
0010
0100
0010
0100
0010
,  // measure 51
0100
0010
0001
0010
0001
0010
0100
0010
,  // measure 52
0100
0010
0001
0000
0000
0001
0000
1000
,  // measure 53
0010
0000
0010
0000
0000
0010
0000
1000
,  // measure 54
0001
1000
0100
0010
0001
0010
0100
0010
,  // measure 55
0001
0010
0100
0010
0100
0010
0001
0010
,  // measure 56
0001
0010
0100
0000
0000
0100
0000
1000
,  // measure 57
0010
1000
0010
0000
0000
0010
0000
1000
,  // measure 58
0001
0010
0100
0010
0001
1000
0010
1000
,  // measure 59
0001
0010
0100
0010
0001
1000
0010
1000
,  // measure 60
0001
0010
0100
0000
0000
0100
0000
1000
,  // measure 61
0001
0000
1000
0000
0000
1000
0000
0001
,  // measure 62
1000
0000
0000
0000
;

//---------------dance-single - ----------------
#NOTES:
     dance-single:
     :
     Easy:
     5:
     0.303137,0.351913,0.227041,0.130985,0.000000,243.000000,217.000000,26.000000,15.000000,0.000000,0.000000,0.303137,0.351913,0.227041,0.130985,0.000000,243.000000,217.000000,26.000000,15.000000,0.000000,0.000000:
// measure 0
0000
0000
0000
0000
,  // measure 1
0000
0000
0000
0000
,  // measure 2
0000
1000
1000
0001
,  // measure 3
0010
0001
0001
0010
,  // measure 4
0100
1000
1000
0001
,  // measure 5
1000
0001
0001
0010
,  // measure 6
0100
1000
1000
0010
,  // measure 7
1000
0001
0001
1000
,  // measure 8
0100
0010
0010
0001
,  // measure 9
1000
0002
0000
1003
,  // measure 10
0000
0000
0100
0000
1000
0000
0100
1000
,  // measure 11
0100
2000
0001
3001
,  // measure 12
0000
0000
0001
0000
0010
0000
0001
0010
,  // measure 13
0001
0200
0010
0310
,  // measure 14
0000
1000
0001
0010
,  // measure 15
0100
2000
0000
3001
,  // measure 16
0000
0001
1000
1000
,  // measure 17
0001
0002
0000
0013
,  // measure 18
0000
0100
1000
0010
,  // measure 19
1000
0001
0010
0200
,  // measure 20
0310
0001
0010
0100
,  // measure 21
1000
0001
1000
0020
,  // measure 22
1030
1000
0001
0010
,  // measure 23
0100
1000
0001
0020
,  // measure 24
0031
0001
1000
0001
,  // measure 25
1000
0020
0000
1030
,  // measure 26
1000
0001
1001
1000
,  // measure 27
1001
0001
1001
1000
,  // measure 28
1001
0000
0001
0000
0000
0001
0000
0000
,  // measure 29
0001
0000
0010
0000
0000
0010
0000
0000
,  // measure 30
0010
0001
1001
1000
,  // measure 31
1001
0001
1001
1000
,  // measure 32
1001
0000
0010
0000
0000
0010
0000
0000
,  // measure 33
1000
0000
0001
0000
0000
0001
0000
0000
,  // measure 34
1000
0100
1000
0010
,  // measure 35
1000
1000
0001
1000
,  // measure 36
0010
1000
0100
1000
,  // measure 37
0010
1000
0001
0010
,  // measure 38
0011
0001
0010
0100
,  // measure 39
1000
0010
1000
0100
,  // measure 40
1000
0001
0010
0100
,  // measure 41
1000
0002
0000
2003
,  // measure 42
0000
3020
1030
0001
,  // measure 43
0001
2000
3001
0100
,  // measure 44
0100
2000
3010
0001
,  // measure 45
0001
0010
0001
2000
,  // measure 46
3000
0010
1010
1000
,  // measure 47
1010
0010
1010
1000
,  // measure 48
1010
0000
0010
0000
0000
0010
0000
0000
,  // measure 49
0010
0000
0001
0000
0000
0001
0000
0000
,  // measure 50
0001
1000
1100
0100
,  // measure 51
1100
1000
1100
0100
,  // measure 52
1100
0000
0100
0000
0000
0100
0000
0000
,  // measure 53
0010
0000
0010
0000
0000
0010
0000
0000
,  // measure 54
0100
0001
1001
0001
,  // measure 55
0011
0001
1001
0001
,  // measure 56
0011
0000
0100
0000
0000
0100
0000
0000
,  // measure 57
0010
0000
1000
0000
0000
1000
0000
0000
,  // measure 58
0001
0100
0101
0001
,  // measure 59
0101
0100
0101
0001
,  // measure 60
0101
0000
0100
0000
0000
0100
0000
0000
,  // measure 61
0000
0000
0001
0000
0000
0001
0000
0000
,  // measure 62
1001
0000
0000
0000
;

//---------------dance-single - ----------------
#NOTES:
     dance-single:
     :
     Beginner:
     2:
     0.165914,0.188727,0.000000,0.008732,0.000000,133.000000,133.000000,0.000000,1.000000,0.000000,0.000000,0.165914,0.188727,0.000000,0.008732,0.000000,133.000000,133.000000,0.000000,1.000000,0.000000,0.000000:
// measure 0
0000
0000
0000
0000
,  // measure 1
0000
0000
0000
0000
,  // measure 2
0000
1000
0000
0000
,  // measure 3
0000
0001
0000
0000
,  // measure 4
0000
1000
0000
0000
,  // measure 5
0000
0010
0000
0000
,  // measure 6
0000
1000
0000
0000
,  // measure 7
0000
0001
0000
0000
,  // measure 8
0000
0010
0000
0000
,  // measure 9
0000
1000
0000
0000
,  // measure 10
0000
0001
0000
1000
,  // measure 11
0000
0010
1000
0010
,  // measure 12
0000
0001
0000
0100
,  // measure 13
0000
0001
0100
0001
,  // measure 14
0000
0010
0000
0010
,  // measure 15
0000
1000
0000
1000
,  // measure 16
0000
0100
0000
1000
,  // measure 17
0000
0001
0000
0000
,  // measure 18
0000
0010
1000
0010
,  // measure 19
0000
1000
0001
1000
,  // measure 20
0000
0100
1000
0100
,  // measure 21
0000
0010
0001
0010
,  // measure 22
0000
0100
0001
0100
,  // measure 23
0000
1000
0001
1000
,  // measure 24
0000
0010
0000
0010
,  // measure 25
0000
0020
0000
0000
,  // measure 26
0030
1000
1000
1000
,  // measure 27
0000
0001
0001
0001
,  // measure 28
0000
1000
0000
1000
,  // measure 29
0000
0010
0000
0010
,  // measure 30
0000
0100
0100
0100
,  // measure 31
0000
0010
0010
0010
,  // measure 32
0000
0001
0000
0001
,  // measure 33
0000
1000
0000
1000
,  // measure 34
0000
0100
1000
0100
,  // measure 35
0000
0010
0001
0010
,  // measure 36
0000
0100
0001
1000
,  // measure 37
0000
0010
1000
0001
,  // measure 38
0000
0100
0001
1000
,  // measure 39
0000
0010
0100
0001
,  // measure 40
0000
0100
1000
0010
,  // measure 41
0000
0100
0000
0100
,  // measure 42
0000
0001
0000
0000
,  // measure 43
0000
1000
0000
0000
,  // measure 44
0000
0010
0000
0000
,  // measure 45
0000
0100
0000
0000
,  // measure 46
0000
1000
1000
1000
,  // measure 47
0000
0001
0001
0001
,  // measure 48
0000
0010
0000
0010
,  // measure 49
0000
1000
0000
1000
,  // measure 50
0000
0100
0100
0100
,  // measure 51
0000
0010
0010
0010
,  // measure 52
0000
0001
0000
0001
,  // measure 53
0000
1000
0000
1000
,  // measure 54
0000
0001
1000
0001
,  // measure 55
0000
1000
0001
1000
,  // measure 56
0000
0001
0000
0001
,  // measure 57
0000
0010
0000
0010
,  // measure 58
0000
1000
0100
0001
,  // measure 59
0000
0001
0100
1000
,  // measure 60
0000
1000
0000
1000
,  // measure 61
0000
0001
0000
0001
;
