#TITLE:Loveticon;
#SUBTITLE:;
#ARTIST:CSR;
#TITLETRANSLIT:;
#SUBTITLETRANSLIT:;
#ARTISTTRANSLIT:;
#GENRE:;
#CREDIT:;
#BANNER:AV.avi;
#BACKGROUND:bg.png;
#LYRICSPATH:;
#CDTITLE:;
#MUSIC:audio.ogg;
#OFFSET:-0.179000;
#SAMPLESTART:43.961163;
#SAMPLELENGTH:14.999991;
#SELECTABLE:YES;
#BPMS:0.000000=160.000000
;
#STOPS:
;
#BGCHANGES:0.000=MV.avi=1.200=1=0=0=StretchNoLoop==CrossFade==,
3.000=MV.avi=1.000=0=0=1=====,
99999=-nosongbg-=1.000=0=0=0 // don't automatically add -songbackground-
;
#KEYSOUNDS:;
#ATTACKS:;

//---------------dance-single - ----------------
#NOTES:
     dance-single:
     :
     Hard:
     14:
     0.599922,0.748335,0.590194,0.665860,0.041616,555.000000,477.000000,78.000000,88.000000,0.000000,0.000000,0.599922,0.748335,0.590194,0.665860,0.041616,555.000000,477.000000,78.000000,88.000000,0.000000,0.000000:
// measure 0
0000
0000
0000
0000
,  // measure 1
0000
0000
0000
0000
,  // measure 2
0000
0000
0000
0000
,  // measure 3
0000
0000
0000
0000
,  // measure 4
0000
0000
0000
0000
,  // measure 5
0000
0000
0000
0000
2000
3000
0002
0003
,  // measure 6
0020
0030
0200
0300
2000
3000
0010
0200
,  // measure 7
0300
0100
0002
0003
2000
3000
0020
0030
,  // measure 8
0002
0003
0020
0030
0200
0300
0001
0010
,  // measure 9
1000
0010
0001
0000
2000
3000
0200
0300
,  // measure 10
0020
0030
0002
0003
0200
0300
0020
0030
,  // measure 11
1000
0002
0003
0000
0000
0000
0000
0000
,  // measure 12
0000
0000
0220
0330
2020
3030
0202
0303
,  // measure 13
2002
3003
0010
1000
0010
0000
1000
0001
,  // measure 14
1000
0000
0001
0100
0001
0000
1000
0001
,  // measure 15
0100
0001
1000
0010
1000
0000
0001
0100
,  // measure 16
0001
0000
0020
1000
0130
0002
1000
0003
,  // measure 17
1000
0100
0010
0100
1000
0000
0001
0010
,  // measure 18
1000
0000
1000
0010
0001
0000
1000
0001
,  // measure 19
0100
0000
0000
0000
0000
0000
0000
0000
0000
0000
0000
0000
0000
0000
0000
0000
0000
0000
0000
0000
0000
0000
0000
0000
0000
0000
0000
0000
0000
0000
0000
0000
0000
0000
0000
0000
0000
0000
0000
0000
0000
0000
0000
0000
0000
0000
0000
0000
0020
0000
0000
0000
0000
0000
0000
0000
0000
0000
0000
0000
0000
0000
0000
0000
0000
0000
0000
0000
0000
0000
0000
0000
0000
0000
0000
0000
0000
0000
0000
0000
0000
0000
0000
0000
0000
0000
0000
0000
0000
0000
0000
0000
0000
0000
0000
0030
0110
0000
0000
0000
0000
0000
0000
0000
0000
0000
0000
0000
0000
0000
0000
0000
0000
0000
0000
0000
0000
0000
0000
0000
0000
0000
0000
0000
0000
0000
0000
0000
0000
0000
0000
0000
0000
0000
0000
0000
0000
0000
0000
0000
0000
0000
0000
0000
2000
0000
0000
0000
0000
0000
0000
0000
0000
0000
0000
0000
0000
0000
0000
0000
0000
0000
0000
0000
0000
0000
0000
0000
0000
0000
0000
0000
0000
0000
0000
0000
0000
0000
0000
0000
0000
0000
0000
0000
0000
0000
0000
0000
0000
0000
0000
3000
,  // measure 20
1100
0000
0000
0000
0000
0000
0000
0000
0000
0000
0000
0000
0000
0000
0000
0000
0000
0000
0000
0000
0000
0000
0000
0000
0000
0000
0000
0000
0000
0000
0000
0000
0000
0000
0000
0000
0000
0000
0000
0000
0000
0000
0000
0000
0000
0000
0000
0000
0002
0000
0000
0000
0000
0000
0000
0000
0000
0000
0000
0000
0000
0000
0000
0000
0000
0000
0000
0000
0000
0000
0000
0000
0000
0000
0000
0000
0000
0000
0000
0000
0000
0000
0000
0000
0000
0000
0000
0000
0000
0000
0000
0000
0000
0000
0000
0003
0011
0000
0000
0000
0000
0000
0000
0000
0000
0000
0000
0000
0000
0000
0000
0000
0000
0000
0000
0000
0000
0000
0000
0000
0000
0000
0000
0000
0000
0000
0000
0000
0000
0000
0000
0000
0000
0000
0000
0000
0000
0000
0000
0000
0000
0000
0000
0000
2000
0000
0000
0000
0000
0000
0000
0000
0000
0000
0000
0000
0000
0000
0000
0000
0000
0000
0000
0000
0000
0000
0000
0000
0000
0000
0000
0000
0000
0000
0000
0000
0000
0000
0000
0000
0000
0000
0000
0000
0000
0000
0000
0000
0000
0000
0000
3000
,  // measure 21
1001
0000
0020
0000
0130
0000
0000
1000
,  // measure 22
0001
2000
0000
0000
3001
0000
0000
0010
,  // measure 23
0100
0020
0000
0000
0130
0000
2000
0000
,  // measure 24
0010
3002
0000
0000
0103
0000
0000
0000
,  // measure 25
1000
1001
1001
1001
,  // measure 26
1001
0110
0110
0110
,  // measure 27
0110
0000
1000
0001
1000
0001
1000
0001
,  // measure 28
1000
0000
0001
0000
1000
0001
1000
0001
0100
0001
0100
0001
1000
0100
0010
0100
,  // measure 29
1000
0001
1001
1000
,  // measure 30
1010
0000
0001
0100
0001
1000
0000
1000
,  // measure 31
0100
0010
0000
0010
0001
0000
0001
1000
,  // measure 32
0001
0000
0100
0010
1000
0100
1000
2020
,  // measure 33
3030
2020
3030
0000
1001
0000
1000
0000
,  // measure 34
0011
0000
1000
0001
0100
0001
0000
0001
,  // measure 35
1000
0100
0000
0100
1000
0000
0001
1000
,  // measure 36
0001
0000
1000
1000
0010
0001
1000
0100
,  // measure 37
0001
0000
1001
0000
0001
0100
0001
0010
,  // measure 38
0001
0100
0001
0000
1010
0000
1000
0100
,  // measure 39
0010
0001
1001
0000
1000
0010
1000
0100
,  // measure 40
1000
0010
1000
0100
0010
0001
0001
0000
,  // measure 41
0100
0000
1010
0000
0010
1000
0010
0001
,  // measure 42
0010
1000
0010
0001
0010
1000
0100
0010
,  // measure 43
0001
0000
0001
1000
0100
1000
0001
0100
,  // measure 44
0010
0100
0001
0010
0100
0010
0001
0000
,  // measure 45
0000
0000
1001
0001
2000
3001
0200
0000
,  // measure 46
0300
0000
0021
0000
0030
0000
0012
0000
1000
0000
1003
0001
0100
0000
0001
0000
,  // measure 47
2000
0000
3100
0100
2000
3010
0200
0001
,  // measure 48
0310
2001
3000
0102
0100
0000
2000
3000
,  // measure 49
0200
0300
2003
3001
0020
0130
2000
0000
,  // measure 50
3000
0000
0120
0000
0030
0000
0210
0000
0010
0300
0001
0100
0001
0000
1000
0000
,  // measure 51
0020
0030
1000
1000
0010
0001
0020
0100
,  // measure 52
1030
0102
0003
2001
0001
0000
0020
0030
,  // measure 53
3002
0003
1000
0100
0010
0001
0100
0000
,  // measure 54
0110
0000
0001
0010
0100
1000
0010
0000
,  // measure 55
0110
0000
0010
1000
0010
0001
1000
0100
,  // measure 56
0010
0020
0130
0002
1003
0200
0310
0002
,  // measure 57
1003
0000
2001
3000
0001
0020
0031
0002
,  // measure 58
0000
2003
0000
0010
0010
0000
0001
3000
,  // measure 59
1000
0100
0020
0000
0031
0200
0300
2000
,  // measure 60
3000
0002
0000
0100
0100
0000
1003
0000
,  // measure 61
0000
0110
1001
0110
,  // measure 62
1001
0000
1001
0001
1000
0100
0010
0002
,  // measure 63
0003
0001
0010
1000
0010
0002
0003
1000
,  // measure 64
0010
0100
0001
0010
1200
0300
1000
0100
,  // measure 65
0021
0031
1000
0001
1000
0200
0300
0001
,  // measure 66
1000
0010
0001
1000
0100
0001
0020
0030
,  // measure 67
2100
0000
3000
0000
0010
0000
1000
0000
0100
0000
0001
0000
0100
0000
1000
0100
,  // measure 68
0010
0000
0001
0010
0100
0000
0010
0000
0100
0000
1000
0000
0001
0000
0100
0001
,  // measure 69
1000
0100
1000
0010
0100
0001
0100
0001
,  // measure 70
1001
0100
1010
0010
,  // measure 71
0101
0000
0100
0010
1000
1001
0000
0001
,  // measure 72
0100
0110
0000
0010
0110
0000
1000
0001
,  // measure 73
0101
0000
0100
0001
1000
0001
0100
0220
,  // measure 74
0330
0220
0330
0000
1001
0000
0001
0000
,  // measure 75
0110
0000
1000
0010
0100
0110
0000
0010
,  // measure 76
1000
1100
0000
0100
1100
0000
0001
1000
,  // measure 77
1001
0000
1000
0010
1010
1000
0001
0010
,  // measure 78
0011
0000
1000
0000
0101
0100
0010
0100
,  // measure 79
0101
0001
0100
0001
1001
0000
1000
0100
,  // measure 80
1100
1000
0001
0000
1010
0010
1000
0010
,  // measure 81
0110
0100
0001
0100
0101
0001
1000
0000
,  // measure 82
1010
0000
0001
0000
0101
0100
0010
1000
,  // measure 83
1001
0001
0100
0010
1010
1000
0001
0010
,  // measure 84
0011
0000
1000
0000
0110
0100
0010
1000
,  // measure 85
1010
0010
1000
0001
0101
0100
0020
0000
,  // measure 86
0030
0000
0000
0000
;

//---------------dance-single - ----------------
#NOTES:
     dance-single:
     :
     Medium:
     9:
     0.414000,0.486626,0.143765,0.764225,0.000000,383.000000,364.000000,19.000000,101.000000,0.000000,0.000000,0.414000,0.486626,0.143765,0.764225,0.000000,383.000000,364.000000,19.000000,101.000000,0.000000,0.000000:
// measure 0
0000
0000
0000
0000
,  // measure 1
0000
0000
0000
0000
,  // measure 2
0000
0000
0000
0000
,  // measure 3
0000
0000
0000
0000
,  // measure 4
0000
0000
0000
0000
,  // measure 5
0000
0000
0000
0000
0002
0003
0200
0300
,  // measure 6
0002
0003
0200
0300
0002
0003
0020
0130
,  // measure 7
0000
0200
0300
0000
2000
3000
0002
0003
,  // measure 8
2000
3000
0020
0030
2000
3000
0100
0010
,  // measure 9
0001
0020
0030
0000
2000
3000
0020
0030
,  // measure 10
2000
3000
0200
0300
2000
3000
0010
0000
,  // measure 11
0010
0200
0300
0000
1000
0000
0010
0000
,  // measure 12
0100
0000
0002
0003
0020
0030
0200
0300
,  // measure 13
1200
0300
1000
0000
0002
0003
2000
3000
,  // measure 14
0020
0030
2000
3000
0002
0003
1000
0100
,  // measure 15
0000
0200
0300
0000
0020
0030
2000
3000
,  // measure 16
0002
0003
0020
0030
0010
0001
0000
1000
,  // measure 17
0000
0002
0000
0000
0023
0000
0130
0000
,  // measure 18
1000
0000
0010
0000
1000
0001
1000
0000
,  // measure 19
0100
2000
3010
0002
,  // measure 20
0013
0200
0310
0002
,  // measure 21
1003
0020
0130
1000
,  // measure 22
1000
0001
2000
0000
3001
0000
0001
0000
,  // measure 23
0100
0010
0200
0000
0310
0000
0002
0000
,  // measure 24
1003
0200
0310
1000
,  // measure 25
1100
0002
0013
0001
,  // measure 26
0001
1000
0020
0000
1030
0000
1000
0000
,  // measure 27
0010
1000
0002
0000
0010
0000
1000
0000
,  // measure 28
0013
0000
2000
3000
0200
0300
0020
0030
,  // measure 29
1002
0003
1000
0000
0002
0000
2003
0000
,  // measure 30
3200
0000
1300
0010
1000
0100
0000
0100
,  // measure 31
0010
0001
0000
0001
0020
0000
0230
0000
,  // measure 32
2300
0000
3010
1000
0001
1000
0000
1000
,  // measure 33
0000
0020
0030
0010
2000
3000
0200
0300
,  // measure 34
0020
0030
0001
0010
0100
1000
0000
1000
,  // measure 35
0010
1000
0000
0001
0020
0030
0200
0300
,  // measure 36
1000
0001
2000
0000
0001
0000
3010
0000
,  // measure 37
0110
0001
0001
0001
,  // measure 38
0001
0000
0001
0000
0001
0000
0001
0010
,  // measure 39
0100
1000
0010
0000
0010
0000
0010
0000
,  // measure 40
0010
0010
0010
0200
,  // measure 41
0302
1003
1000
1000
,  // measure 42
1000
0000
1000
0000
1000
0000
1000
0100
,  // measure 43
0020
0000
0031
0000
0001
0000
0001
0010
,  // measure 44
0100
0000
0010
1000
0001
1000
0010
0000
,  // measure 45
0000
0100
0010
0200
,  // measure 46
0300
0001
0000
0002
0000
0000
0003
0000
,  // measure 47
0100
1000
0100
2000
,  // measure 48
3000
0010
0000
0010
0000
1000
0002
0000
,  // measure 49
0023
0230
1300
0002
,  // measure 50
0003
1000
0000
2000
0000
3010
1000
0000
,  // measure 51
0001
0010
0100
0200
,  // measure 52
0300
1000
0000
2000
0000
3001
1000
0000
,  // measure 53
0010
0000
1000
0100
0010
0001
0010
0000
,  // measure 54
0011
0000
0001
0010
0100
1000
0010
0000
,  // measure 55
1010
1000
1000
0100
,  // measure 56
1000
0200
0300
0200
0300
0020
0030
0002
,  // measure 57
0000
0003
1000
0000
0001
0000
1000
0000
,  // measure 58
0010
1000
0000
2000
0000
3000
0010
0000
,  // measure 59
0100
1000
0010
0000
1000
0000
0001
0000
,  // measure 60
1000
0001
0000
0002
0000
0000
0000
0000
,  // measure 61
0000
0000
0000
0000
,  // measure 62
1003
0000
0001
1000
0100
0010
0100
0000
,  // measure 63
1000
0000
1000
0001
1000
0000
0001
0000
,  // measure 64
0100
0000
0010
0000
0020
0030
1000
0000
,  // measure 65
2000
3000
1010
0000
1000
0001
0000
1000
,  // measure 66
0100
0000
0010
0001
0010
0100
1000
0000
,  // measure 67
0010
0000
1000
0010
1000
0100
1000
0000
,  // measure 68
0001
0000
0010
0100
1000
0000
0010
0100
,  // measure 69
0001
0000
0001
0010
0100
0000
1000
0000
,  // measure 70
2100
0000
3010
0000
2000
3000
0002
0003
,  // measure 71
2000
3000
0010
1000
0100
1000
0000
1000
,  // measure 72
0001
0010
0000
0010
0002
0003
0020
0030
,  // measure 73
0200
0300
1000
0010
1000
0100
0000
1000
,  // measure 74
0000
1000
0000
0001
0020
0030
0200
0300
,  // measure 75
0020
0030
0001
0010
0100
1000
0000
1000
,  // measure 76
0010
1000
0000
0001
2000
0000
3020
0000
,  // measure 77
1030
2000
0010
3100
,  // measure 78
1001
0001
0011
0001
,  // measure 79
1001
0000
0001
0000
0011
0000
0001
0010
,  // measure 80
0100
1000
0010
0000
0110
0000
0010
0000
,  // measure 81
1010
0010
0110
2000
,  // measure 82
3200
1300
1001
1000
,  // measure 83
1100
0000
1000
0000
1010
0000
1000
0010
,  // measure 84
0200
0000
0301
0010
0100
0000
1000
0010
,  // measure 85
1000
0001
1000
1010
;

//---------------dance-single - ----------------
#NOTES:
     dance-single:
     :
     Easy:
     4:
     0.216188,0.259534,0.007567,0.105932,0.000000,200.000000,199.000000,1.000000,14.000000,0.000000,0.000000,0.216188,0.259534,0.007567,0.105932,0.000000,200.000000,199.000000,1.000000,14.000000,0.000000,0.000000:
// measure 0
0000
0000
0000
0000
,  // measure 1
0000
0000
0000
0000
,  // measure 2
0000
0000
0000
0000
,  // measure 3
0000
0000
0000
0000
,  // measure 4
0000
0000
0000
0000
,  // measure 5
0000
1000
0001
1000
,  // measure 6
0000
0010
0000
0010
,  // measure 7
0000
1000
0001
0010
,  // measure 8
0000
0100
0000
1000
,  // measure 9
0000
0010
1000
0001
,  // measure 10
0000
0010
0000
0100
,  // measure 11
0000
1000
0000
0010
,  // measure 12
0000
1000
0000
0001
,  // measure 13
0000
1000
0001
1000
,  // measure 14
0000
0001
0000
0001
,  // measure 15
0000
0010
0100
1000
,  // measure 16
0000
0010
0000
0010
,  // measure 17
0000
1000
0000
0001
,  // measure 18
0000
1000
0000
0001
,  // measure 19
0000
0001
0010
0200
,  // measure 20
0000
1300
0010
2000
,  // measure 21
0000
3010
0000
0010
,  // measure 22
0000
0010
0000
0010
,  // measure 23
0001
1000
0000
1000
,  // measure 24
0000
1000
0000
1000
,  // measure 25
0001
0010
0000
0100
,  // measure 26
0000
0010
0000
0100
,  // measure 27
1000
0010
0000
1000
,  // measure 28
0000
0001
0000
1001
,  // measure 29
0000
1000
0100
1000
,  // measure 30
0000
0010
1000
0001
,  // measure 31
0000
0001
0010
0100
,  // measure 32
1000
0010
0000
0010
,  // measure 33
0000
1000
0001
1000
,  // measure 34
0000
0001
0010
0100
,  // measure 35
0000
1000
0010
1000
,  // measure 36
0000
0002
0000
1003
,  // measure 37
0000
1000
0000
0001
,  // measure 38
0000
1000
0001
1000
,  // measure 39
0000
0001
0000
0010
,  // measure 40
0000
0001
0010
0001
,  // measure 41
0000
1000
0000
0100
,  // measure 42
0000
1000
0100
1000
,  // measure 43
0000
0010
0000
0010
,  // measure 44
0000
1000
0010
1000
,  // measure 45
0000
0002
0000
1000
,  // measure 46
0000
1003
0000
0000
,  // measure 47
0000
2000
0000
0100
,  // measure 48
0000
3100
0000
0000
,  // measure 49
0000
0020
0000
1000
,  // measure 50
0000
1030
0000
0000
,  // measure 51
0000
0002
0000
1000
,  // measure 52
0000
1003
0000
0000
,  // measure 53
0000
1000
0100
2000
,  // measure 54
0000
3010
1000
0020
,  // measure 55
0000
1030
0001
2000
,  // measure 56
0000
3001
0010
0002
,  // measure 57
0000
0013
0000
0100
,  // measure 58
0000
1000
0000
0010
,  // measure 59
0000
1000
0001
1000
,  // measure 60
0000
0002
0000
0000
,  // measure 61
0000
0000
0000
0000
,  // measure 62
0000
1003
0001
1000
,  // measure 63
0000
0100
1000
0010
,  // measure 64
0000
1000
0010
1000
,  // measure 65
0000
0001
0010
0100
,  // measure 66
0000
1000
0001
1000
,  // measure 67
0010
1000
0100
1000
,  // measure 68
0000
0001
0000
0010
,  // measure 69
0000
0100
1000
0010
,  // measure 70
0000
1000
0000
0001
,  // measure 71
0000
1000
0100
1000
,  // measure 72
0000
0010
0000
0010
,  // measure 73
0000
0001
0010
0100
,  // measure 74
0000
1000
0000
0010
,  // measure 75
0000
1000
0001
1000
,  // measure 76
0000
0001
0000
0010
,  // measure 77
0000
0200
0000
0310
,  // measure 78
0000
0001
0000
0001
,  // measure 79
0000
0001
0010
0100
,  // measure 80
1000
0010
0000
0010
,  // measure 81
0000
0010
1000
0100
,  // measure 82
1000
0010
0000
0010
,  // measure 83
0000
0010
1000
0100
,  // measure 84
0010
0002
0000
0013
,  // measure 85
0000
0001
0010
0001
;

//---------------dance-single - ----------------
#NOTES:
     dance-single:
     :
     Beginner:
     1:
     0.147008,0.194650,0.000000,0.052966,0.000000,136.000000,136.000000,0.000000,7.000000,0.000000,0.000000,0.147008,0.194650,0.000000,0.052966,0.000000,136.000000,136.000000,0.000000,7.000000,0.000000,0.000000:
// measure 0
0000
0000
0000
0000
,  // measure 1
0000
0000
0000
0000
,  // measure 2
0000
0000
0000
0000
,  // measure 3
0000
0000
0000
0000
,  // measure 4
0000
0000
0000
0000
,  // measure 5
0000
1000
0000
0000
,  // measure 6
0000
1000
0000
0000
,  // measure 7
0000
0001
0000
0000
,  // measure 8
0000
0001
0000
0000
,  // measure 9
0000
0010
0000
0000
,  // measure 10
0000
0010
0000
0000
,  // measure 11
0000
0100
0000
0000
,  // measure 12
0000
0100
0000
0000
,  // measure 13
0000
0001
0000
0000
,  // measure 14
0000
1000
0000
0000
,  // measure 15
0000
0001
0000
0000
,  // measure 16
0000
0010
0000
0000
,  // measure 17
0000
0100
0000
0000
,  // measure 18
0000
0001
0000
0000
,  // measure 19
0000
0001
0000
0000
,  // measure 20
0000
1000
0000
0000
,  // measure 21
0000
0001
0000
0001
,  // measure 22
0000
0001
0000
0000
,  // measure 23
0000
1000
0000
1000
,  // measure 24
0000
1000
0000
0000
,  // measure 25
0000
0100
0000
1000
,  // measure 26
0000
0100
0000
0000
,  // measure 27
0000
0010
0000
1000
,  // measure 28
0000
0010
0000
1000
,  // measure 29
0000
0001
0000
0001
,  // measure 30
0000
1000
0000
0000
,  // measure 31
0000
1000
0000
0100
,  // measure 32
0000
1000
0000
0000
,  // measure 33
0000
0010
0000
1000
,  // measure 34
0000
0001
0000
0000
,  // measure 35
0000
0100
0000
1000
,  // measure 36
0000
0010
0000
0010
,  // measure 37
0000
0001
0000
0001
,  // measure 38
0000
1000
0000
0000
,  // measure 39
0000
1000
0000
1000
,  // measure 40
0000
0001
0000
0000
,  // measure 41
0000
0001
0000
0100
,  // measure 42
0000
0001
0000
0000
,  // measure 43
0000
0010
0000
0010
,  // measure 44
0000
1000
0000
0000
,  // measure 45
0000
0001
0000
1000
,  // measure 46
0000
0002
0000
0000
,  // measure 47
0003
1000
0000
0001
,  // measure 48
0000
2000
0000
0000
,  // measure 49
3000
0010
0000
1000
,  // measure 50
0000
0020
0000
0000
,  // measure 51
0030
1000
0000
0001
,  // measure 52
0000
2000
0000
0000
,  // measure 53
3000
0100
0000
0100
,  // measure 54
0000
0010
0000
0010
,  // measure 55
0000
1000
0000
0001
,  // measure 56
0000
1000
0000
1000
,  // measure 57
0000
0001
0000
1000
,  // measure 58
0000
0100
0000
0100
,  // measure 59
0000
0010
0000
1000
,  // measure 60
0000
0002
0000
0000
,  // measure 61
0000
0000
0000
0000
,  // measure 62
0003
1000
0001
1000
,  // measure 63
0000
0010
0000
0010
,  // measure 64
0000
1000
0001
1000
,  // measure 65
0000
0100
0000
0100
,  // measure 66
0000
1000
0000
0010
,  // measure 67
0000
1000
0000
0001
,  // measure 68
0000
0100
1000
0100
,  // measure 69
0000
0010
0000
0010
,  // measure 70
0000
1000
0000
1000
,  // measure 71
0000
0001
0000
0001
,  // measure 72
0000
0100
0000
0010
,  // measure 73
0000
0100
0000
0010
,  // measure 74
0000
1000
0000
0001
,  // measure 75
0000
1000
0000
0100
,  // measure 76
0000
1000
0001
1000
,  // measure 77
0000
0020
0000
1030
,  // measure 78
0000
1000
0000
1000
,  // measure 79
0000
1000
0000
1000
,  // measure 80
0001
1000
0000
1000
,  // measure 81
0000
1000
0000
1000
,  // measure 82
0010
0100
0000
0100
,  // measure 83
0000
0100
0000
0100
,  // measure 84
0000
0001
1000
0002
,  // measure 85
0000
1000
0000
1003
;
