#TITLE:Hug U;
#SUBTITLE:;
#ARTIST:DIA;
#TITLETRANSLIT:;
#SUBTITLETRANSLIT:;
#ARTISTTRANSLIT:;
#GENRE:;
#CREDIT:;
#BANNER:AV.avi;
#BACKGROUND:bg.png;
#LYRICSPATH:;
#CDTITLE:;
#MUSIC:audio.ogg;
#OFFSET:0.159000;
#SAMPLESTART:56.659031;
#SAMPLELENGTH:14.999995;
#SELECTABLE:YES;
#BPMS:0.000000=101.029999
,145.000000=50.514999
,153.000000=101.029999
;
#STOPS:
;
#BGCHANGES:0.000=MV.avi=1.000=1=0=1===CrossFade==,
99999=-nosongbg-=1.000=0=0=0 // don't automatically add -songbackground-
;
#KEYSOUNDS:;
#ATTACKS:;

//---------------dance-single - ----------------
#NOTES:
     dance-single:
     :
     Hard:
     8:
     0.347106,0.335919,0.234192,0.329333,0.000000,332.000000,300.000000,32.000000,45.000000,0.000000,0.000000,0.347106,0.335919,0.234192,0.329333,0.000000,332.000000,300.000000,32.000000,45.000000,0.000000,0.000000:
// measure 0
0000
0000
0000
0000
,  // measure 1
0000
0000
0000
0000
,  // measure 2
0000
0000
0000
0000
,  // measure 3
0000
0000
0000
0000
,  // measure 4
0000
0002
0010
1003
,  // measure 5
0000
0200
1000
0310
,  // measure 6
0000
0020
1000
0031
,  // measure 7
0000
0200
1000
0310
,  // measure 8
0001
0000
0011
0000
0001
0010
0100
0000
,  // measure 9
1000
0000
0010
0100
0001
1000
0001
0000
,  // measure 10
0011
0000
0100
0010
0002
0000
1003
0010
,  // measure 11
0200
0000
0301
1000
0100
0010
0001
1000
,  // measure 12
1001
0000
0010
0100
0002
0000
0013
0100
,  // measure 13
2000
0000
3010
0100
0001
1000
0001
0010
,  // measure 14
0200
0000
1300
0001
0200
0000
0310
1000
,  // measure 15
0002
0003
1001
0000
1001
0000
0100
0010
,  // measure 16
0001
0000
0010
0000
0100
0000
0100
0000
1000
0000
0010
0000
0200
0000
0000
0300
,  // measure 17
0110
0000
0001
0010
0001
0001
2000
0000
,  // measure 18
3001
0000
0010
0100
0010
0010
2000
0000
,  // measure 19
3001
0000
0100
0010
0001
1000
0020
0000
,  // measure 20
0130
0000
0001
0001
2000
0000
3001
1000
,  // measure 21
0002
0000
0013
0001
0020
0000
0031
1000
,  // measure 22
0020
0030
0110
0000
0110
0000
0110
0000
,  // measure 23
0110
0000
0001
1000
0100
0010
0001
1000
,  // measure 24
0010
0100
0001
1000
0100
0010
0001
1000
,  // measure 25
0010
1000
0001
0010
0100
1000
0002
0000
,  // measure 26
0103
0000
0010
1000
0001
0010
0001
1000
,  // measure 27
0020
0130
0110
0000
0110
0000
0210
0000
,  // measure 28
0310
1000
0002
0000
0013
0100
2000
0000
,  // measure 29
3010
0100
0010
1000
0001
0010
0100
1000
,  // measure 30
0002
0000
1003
0010
1000
0001
0010
0100
,  // measure 31
1000
0002
0100
0000
0103
0010
1000
0001
,  // measure 32
0010
0010
0002
0000
0013
0100
2000
0000
,  // measure 33
3001
0001
0020
0000
0130
1000
0002
0000
,  // measure 34
0013
0010
0002
0000
1003
0010
0200
0000
,  // measure 35
0301
0001
1001
0000
1001
0000
0001
0010
,  // measure 36
0100
1000
0002
0103
0001
0000
0020
1030
,  // measure 37
0010
0000
0200
1300
0010
0000
0002
1003
,  // measure 38
0100
0000
1001
0001
0010
0001
2000
0000
,  // measure 39
3010
0000
0001
0010
0100
1000
0002
0000
,  // measure 40
0103
0000
0010
1000
0001
0010
0100
1000
,  // measure 41
0010
1000
0011
0000
0011
0000
1100
0000
,  // measure 42
0001
1000
0010
0001
0010
0100
0001
1000
,  // measure 43
0100
0010
0001
0010
0001
1000
0100
0000
,  // measure 44
0010
1000
0001
0010
0100
1000
0010
0100
,  // measure 45
0001
0010
0011
0000
1100
0000
1001
0000
,  // measure 46
0010
1000
0020
0030
0001
0010
0002
0003
,  // measure 47
0010
0100
1000
0001
0100
0010
2000
0000
,  // measure 48
3010
0000
1000
0010
0001
0010
1000
0010
,  // measure 49
0001
0010
0020
0000
0130
0001
1000
0100
,  // measure 50
0010
0001
0011
0000
0011
0100
0020
0000
,  // measure 51
0130
0000
1100
0000
1100
0010
0200
0000
,  // measure 52
0301
0000
1001
0000
1001
0001
0020
0000
,  // measure 53
0130
0110
0110
1001
,  // measure 54
1001
0000
0000
0000
;

//---------------dance-single - ----------------
#NOTES:
     dance-single:
     :
     Medium:
     5:
     0.211191,0.256879,0.109778,0.182963,0.000000,202.000000,187.000000,15.000000,25.000000,0.000000,0.000000,0.211191,0.256879,0.109778,0.182963,0.000000,202.000000,187.000000,15.000000,25.000000,0.000000,0.000000:
// measure 0
0000
0000
0000
0000
,  // measure 1
0000
0000
0000
0000
,  // measure 2
0000
0000
0000
0000
,  // measure 3
0000
0000
0000
0000
,  // measure 4
0000
0001
0000
1001
,  // measure 5
0000
1000
0000
1001
,  // measure 6
0000
0001
0000
1001
,  // measure 7
0000
1000
0000
0011
,  // measure 8
0000
0100
0000
1000
,  // measure 9
0000
0001
1000
0001
,  // measure 10
0000
0100
0010
0001
,  // measure 11
1000
0010
0000
1000
,  // measure 12
0001
1000
1000
0010
,  // measure 13
0100
0001
0010
0100
,  // measure 14
0000
1000
0001
1000
,  // measure 15
0010
0200
0010
0301
,  // measure 16
0010
1000
1000
0100
,  // measure 17
0010
0001
0010
0200
,  // measure 18
1300
0010
0100
0001
,  // measure 19
1000
0002
0010
1003
,  // measure 20
0010
0200
0001
0010
,  // measure 21
0001
0302
0010
1000
,  // measure 22
0103
0010
1000
0010
,  // measure 23
0000
0001
0001
1001
,  // measure 24
0001
0010
0100
1000
,  // measure 25
0001
0000
1000
0001
0100
0000
0020
0000
,  // measure 26
1030
0001
0010
0100
,  // measure 27
1000
0000
0001
1000
0002
0000
0013
0000
,  // measure 28
0100
0010
0100
0000
0010
0100
0010
0000
,  // measure 29
1000
0001
0010
0200
,  // measure 30
1300
0000
0001
0100
0001
0000
1000
0001
,  // measure 31
1000
0001
0001
0010
,  // measure 32
0010
0200
1000
0310
,  // measure 33
0001
2000
0010
3001
,  // measure 34
0100
0020
0001
0130
,  // measure 35
0001
1001
1001
0010
,  // measure 36
0100
0002
0000
2003
,  // measure 37
0000
3020
0000
0230
,  // measure 38
0000
0301
1000
0001
,  // measure 39
0010
0100
1000
0001
,  // measure 40
0100
0010
1000
0001
,  // measure 41
0010
0001
0001
0001
,  // measure 42
0001
0010
0002
1000
,  // measure 43
0103
0010
1000
0001
,  // measure 44
0010
0100
1000
0010
,  // measure 45
0100
1010
1010
0001
,  // measure 46
0010
0200
0310
0002
,  // measure 47
1003
0010
0100
0002
,  // measure 48
1003
0200
0310
0002
,  // measure 49
0013
1100
1100
0110
,  // measure 50
0110
0002
0010
1003
,  // measure 51
0100
0020
1000
0130
,  // measure 52
0001
0020
0100
0031
,  // measure 53
0010
1001
1001
0020
,  // measure 54
0030
0000
0000
0000
;

//---------------dance-single - ----------------
#NOTES:
     dance-single:
     :
     Easy:
     2:
     0.097232,0.138320,0.000000,0.270785,0.000000,93.000000,93.000000,0.000000,37.000000,0.000000,0.000000,0.097232,0.138320,0.000000,0.270785,0.000000,93.000000,93.000000,0.000000,37.000000,0.000000,0.000000:
// measure 0
0000
0000
0000
0000
,  // measure 1
0000
0000
0000
0000
,  // measure 2
0000
0000
0000
0000
,  // measure 3
0000
0000
0000
0000
,  // measure 4
0000
0002
0000
0000
,  // measure 5
0000
0023
0000
0000
,  // measure 6
0000
0032
0000
0000
,  // measure 7
0000
0203
0000
0300
,  // measure 8
0000
0001
0000
1000
,  // measure 9
0000
0020
0000
0000
,  // measure 10
0030
0001
0000
1000
,  // measure 11
0000
0200
0000
0300
,  // measure 12
0000
0001
0000
1000
,  // measure 13
0000
0020
0000
0000
,  // measure 14
0030
0001
0000
1000
,  // measure 15
0000
0200
0000
0300
,  // measure 16
0000
0002
0000
0023
,  // measure 17
0030
0100
0100
0100
,  // measure 18
0000
0002
0000
2003
,  // measure 19
0000
3010
0000
0010
,  // measure 20
0000
0100
0001
0100
,  // measure 21
0000
0001
0010
0001
,  // measure 22
0000
0100
0000
0100
,  // measure 23
0000
0200
0000
0300
,  // measure 24
0000
0010
1000
0002
,  // measure 25
0000
0023
0000
0032
,  // measure 26
0000
1003
0001
1000
,  // measure 27
0000
0020
0000
0000
,  // measure 28
0030
0002
0003
0002
,  // measure 29
0003
1000
0001
2000
,  // measure 30
0000
3020
0030
0200
,  // measure 31
0300
0002
0000
0000
,  // measure 32
0000
1003
0000
0100
,  // measure 33
0000
0010
0000
0001
,  // measure 34
0000
0010
0000
0001
,  // measure 35
0000
0100
0000
0100
,  // measure 36
0000
0010
0000
1000
,  // measure 37
0000
0100
0000
0010
,  // measure 38
0000
2000
0000
3001
,  // measure 39
0000
0020
0000
0130
,  // measure 40
0000
0002
0000
0013
,  // measure 41
0000
2000
0000
0000
,  // measure 42
3000
0010
0000
0100
,  // measure 43
0000
0001
0000
0100
,  // measure 44
0000
0010
0000
1000
,  // measure 45
0000
0002
0000
0000
,  // measure 46
0003
2000
3000
0002
,  // measure 47
0003
1000
0010
0200
,  // measure 48
0000
0302
0000
0023
,  // measure 49
0000
0130
0000
0100
,  // measure 50
0000
0002
0000
0013
,  // measure 51
0000
2000
0000
3010
,  // measure 52
0000
0002
0000
0013
,  // measure 53
0000
2000
0000
0000
,  // measure 54
3000
0000
0000
0000
;

//---------------dance-single - ----------------
#NOTES:
     dance-single:
     :
     Beginner:
     1:
     0.052275,0.079040,0.007319,0.043911,0.000000,50.000000,49.000000,1.000000,6.000000,0.000000,0.000000,0.052275,0.079040,0.007319,0.043911,0.000000,50.000000,49.000000,1.000000,6.000000,0.000000,0.000000:
// measure 0
0000
0000
0000
0000
,  // measure 1
0000
0000
0000
0000
,  // measure 2
0000
0000
0000
0000
,  // measure 3
0000
0000
0000
0000
,  // measure 4
0000
1000
0000
0000
,  // measure 5
0000
0001
0000
0000
,  // measure 6
0000
1000
0000
0000
,  // measure 7
0000
0001
0000
0000
,  // measure 8
0000
0010
0000
0000
,  // measure 9
0000
0001
0000
0000
,  // measure 10
0000
0100
0000
0000
,  // measure 11
0000
0100
0000
0000
,  // measure 12
0000
0010
0000
0000
,  // measure 13
0000
1000
0000
0000
,  // measure 14
0000
0001
0000
0000
,  // measure 15
0000
0010
0000
0000
,  // measure 16
0000
0110
0000
0000
,  // measure 17
0000
0001
0000
0000
,  // measure 18
0000
1000
0000
0000
,  // measure 19
0000
0010
0000
0000
,  // measure 20
0000
0100
0000
0000
,  // measure 21
0000
0001
0000
0000
,  // measure 22
0000
1000
0000
0000
,  // measure 23
0000
1000
0000
0000
,  // measure 24
0000
0100
0000
0000
,  // measure 25
0000
0010
0000
0000
,  // measure 26
0000
0100
0000
0000
,  // measure 27
0000
0100
0000
0000
,  // measure 28
0000
0010
0000
0000
,  // measure 29
0000
0001
0000
0000
,  // measure 30
0000
0100
0000
0000
,  // measure 31
0000
0010
0000
0000
,  // measure 32
0000
2000
0000
0000
,  // measure 33
0000
3001
0000
0000
,  // measure 34
0000
0002
0000
0000
,  // measure 35
0000
0103
0000
0000
,  // measure 36
0000
1000
0000
0000
,  // measure 37
0000
0001
0000
0000
,  // measure 38
0000
1000
0000
0000
,  // measure 39
0000
0100
0000
0000
,  // measure 40
0000
0010
0000
0000
,  // measure 41
0000
0001
0000
0000
,  // measure 42
0000
0000
0000
0000
,  // measure 43
0000
1000
0000
0000
,  // measure 44
0000
0010
0000
0000
,  // measure 45
0000
0100
0000
0000
,  // measure 46
0000
0001
0000
0000
,  // measure 47
0000
0001
0000
0000
,  // measure 48
0000
0100
0000
0000
,  // measure 49
0000
0010
0000
0000
,  // measure 50
0000
0002
0000
0000
,  // measure 51
0000
2003
0000
0000
,  // measure 52
0000
3020
0000
0000
,  // measure 53
0000
0230
0000
0000
,  // measure 54
0300
0000
0000
0000
;
