#TITLE:+Hero;
#SUBTITLE:;
#ARTIST:Dan Thiessen;
#TITLETRANSLIT:;
#SUBTITLETRANSLIT:;
#ARTISTTRANSLIT:;
#GENRE:;
#CREDIT:;
#BANNER:bn.png;
#BACKGROUND:BG.png;
#LYRICSPATH:;
#CDTITLE:;
#MUSIC:Hero.ogg;
#OFFSET:-0.009000;
#SAMPLESTART:44.988995;
#SAMPLELENGTH:15.000016;
#SELECTABLE:YES;
#BPMS:0.000000=120.000000
;
#STOPS:
;
#BGCHANGES:;
#KEYSOUNDS:;
#ATTACKS:;

//---------------dance-single - ----------------
#NOTES:
     dance-single:
     :
     Hard:
     13:
     0.575661,0.620309,0.340741,0.540741,1.122222,544.000000,498.000000,46.000000,73.000000,0.000000,0.000000,0.575661,0.620309,0.340741,0.540741,1.122222,544.000000,498.000000,46.000000,73.000000,0.000000,0.000000:
// measure 0
0000
0000
0000
0000
,  // measure 1
0000
0000
0000
0000
,  // measure 2
0000
0000
0000
0000
,  // measure 3
0000
0000
0000
0000
,  // measure 4
0000
0000
0000
0000
,  // measure 5
0000
0000
0000
0000
0000
0000
2000
3000
2000
3000
2000
3000
,  // measure 6
1000
0001
0100
0010
0000
0000
0002
0003
0002
0003
0002
0003
,  // measure 7
0001
0010
0100
1000
0000
0000
0020
0030
0020
0030
0020
0030
,  // measure 8
0010
0100
0001
0100
0000
0000
2000
3000
2000
3000
2000
3000
,  // measure 9
1000
0100
0010
0001
0010
0100
2000
3000
2000
3000
2000
3010
,  // measure 10
1000
0010
0100
0001
0000
0001
0200
0300
0200
0300
0200
0310
,  // measure 11
0100
0001
1000
0100
0000
0100
2000
3000
2000
3000
2000
3100
,  // measure 12
1000
0100
0010
0001
0000
0001
0020
0030
0020
0030
0020
0031
,  // measure 13
0010
0001
0010
0100
1000
0001
0000
0000
0000
0000
0000
0000
,  // measure 14
0000
0000
0000
0000
0000
0000
1000
0001
0100
0010
1000
0001
,  // measure 15
1000
0001
0100
0010
1000
0001
0100
0010
0100
0001
1000
0001
,  // measure 16
0100
0010
0100
0001
1000
0001
0010
0100
1000
0100
0010
0001
,  // measure 17
0010
0100
1000
0100
0010
0001
1000
0100
1000
0001
0010
0001
,  // measure 18
1000
0100
1000
0010
0100
0001
1000
0010
1000
0001
0100
0001
,  // measure 19
1000
0010
1000
0001
0100
0001
1000
0010
0100
0001
0100
0010
,  // measure 20
1000
0010
0100
0001
0100
0010
1000
0001
0100
0001
1000
0010
,  // measure 21
1000
0001
0100
0001
1000
0010
0100
0001
0100
0010
1000
0010
,  // measure 22
0100
0001
0100
0010
1000
0010
0100
0000
0000
1001
0000
0000
,  // measure 23
0010
0100
0001
1000
0000
1000
0010
0000
0000
1001
0000
0000
,  // measure 24
1000
0100
0010
0001
0000
0001
0100
0000
0000
1010
0000
0000
,  // measure 25
1000
0001
0100
0010
0000
0010
1000
0000
0000
0011
0000
0000
,  // measure 26
1000
0100
0010
0001
0010
0100
1000
0000
0000
0110
0000
0000
,  // measure 27
1000
0010
0100
0001
0000
0001
0100
0000
0000
1010
0000
0000
,  // measure 28
1000
0100
0010
0001
0000
0001
0100
0000
0000
1010
0000
0000
,  // measure 29
0010
1000
0001
0100
0000
0100
0010
0000
0010
1000
0010
0100
,  // measure 30
0001
0000
0001
0010
0001
1000
0010
1000
0010
0100
0001
0100
,  // measure 31
0001
1000
0001
1000
0001
1000
0000
0000
0000
0000
0000
0000
,  // measure 32
0000
0000
0000
0000
0000
0000
1001
0000
0001
0100
0000
0100
,  // measure 33
0010
1000
0001
0010
0100
0010
0001
0000
0001
1000
0000
1000
,  // measure 34
0010
0100
0001
0100
0010
0100
0010
0000
0010
1000
0000
1000
,  // measure 35
0100
0010
0001
0010
0100
0010
0001
0000
0001
1000
0000
1000
,  // measure 36
0001
0010
0100
1000
0000
0000
1001
0000
0001
0100
0000
0100
,  // measure 37
0010
1000
0001
0010
0100
0010
0001
0000
0001
1000
0000
1000
,  // measure 38
0001
0010
0100
1000
0000
1000
0001
0000
0001
0100
0010
0100
,  // measure 39
0010
1000
0001
0010
0000
0010
0001
1000
0001
0100
0010
0100
,  // measure 40
0001
1000
0010
1000
0010
0100
0000
0000
0000
0020
0000
0030
,  // measure 41
0200
0000
0300
0002
0000
0003
2001
3000
2001
3000
2001
3000
,  // measure 42
1000
0100
0010
0001
0010
0100
2100
3000
2100
3000
2100
3000
,  // measure 43
1000
0001
0010
0100
1000
0001
0201
0300
0201
0300
0201
0300
,  // measure 44
0100
0010
0100
0001
1000
0001
0021
0030
0021
0030
0021
0030
,  // measure 45
0010
0001
1000
0100
0010
0001
2001
3000
2001
3000
2001
3000
,  // measure 46
1000
0001
0100
0001
0100
0010
0210
0300
0210
0300
0210
0300
,  // measure 47
0100
0001
1000
0010
1000
0001
0021
0030
0021
0030
0021
0030
,  // measure 48
0010
0001
1000
0100
0010
0001
2001
3000
2001
3000
2001
3000
,  // measure 49
0001
1000
0001
0100
0010
1000
1002
0000
0000
1003
0000
0010
,  // measure 50
0100
0000
0110
0000
0110
0000
2001
0000
0000
3001
0000
0100
,  // measure 51
0010
0100
0010
1000
0001
1000
2001
0000
3001
0200
0000
0310
,  // measure 52
0100
0000
0101
0000
0101
0000
2001
0000
0000
3020
0000
0000
,  // measure 53
0130
0010
0100
0010
1000
0001
2001
0000
0000
3001
0000
0100
,  // measure 54
0010
0000
1010
0000
1010
0000
0102
0000
0000
0103
0000
1000
,  // measure 55
0001
1000
0001
0100
0010
0100
0120
0000
0000
0130
0000
0010
,  // measure 56
2000
0000
0001
0000
3001
0000
0001
1000
0001
0100
0010
0100
,  // measure 57
0010
1000
0010
0100
0001
0100
0001
1000
0010
1000
0001
0100
,  // measure 58
0010
1000
0010
0100
0001
0100
0000
0000
0000
0000
0000
0000
,  // measure 59
0000
0000
0000
0000
,  // measure 60
0000
0000
0000
0000
0000
0010
2000
3000
2000
3000
2000
3000
,  // measure 61
1000
0001
0100
0010
0000
0010
0200
0300
0200
0300
0200
0300
,  // measure 62
0100
0010
1000
0001
0000
0001
0020
0030
0020
0030
0020
0030
,  // measure 63
0010
0001
1000
0100
0000
0100
2000
3000
2000
3000
2000
3000
,  // measure 64
1000
0100
0010
0001
0010
0100
0000
0000
0000
0000
0000
0000
;

//---------------dance-single - ----------------
#NOTES:
     dance-single:
     :
     Medium:
     8:
     0.413757,0.501667,0.318519,0.096296,0.622222,391.000000,348.000000,43.000000,13.000000,0.000000,0.000000,0.413757,0.501667,0.318519,0.096296,0.622222,391.000000,348.000000,43.000000,13.000000,0.000000,0.000000:
// measure 0
0000
0000
0000
0000
,  // measure 1
0000
0000
0000
0000
,  // measure 2
0000
0000
0000
0000
,  // measure 3
0000
0000
0000
0000
,  // measure 4
0000
0000
0000
0000
,  // measure 5
0000
0000
0000
0000
0000
0000
1000
0000
1000
0000
1000
0000
,  // measure 6
0010
0000
0010
0100
0000
0000
0001
0000
0001
0000
0001
0000
,  // measure 7
0100
0000
0100
0001
0000
0000
1000
0000
1000
0000
1000
0000
,  // measure 8
0001
0000
0001
0100
0000
0000
0010
0000
0010
0000
0010
0000
,  // measure 9
0100
0000
0100
0001
0000
0000
1000
0000
1000
0000
1000
0010
,  // measure 10
0100
0000
0100
0010
0000
0000
0100
0000
0100
0000
0100
0001
,  // measure 11
1000
0000
1000
0010
0000
0000
0001
0000
0001
0000
0001
1000
,  // measure 12
0010
0000
0010
1000
0000
0000
0100
0000
0100
0000
0100
0001
,  // measure 13
1000
0001
1000
0010
0100
0010
0000
0000
0000
0000
0000
0000
,  // measure 14
0000
0000
0000
0000
0000
0000
1000
0000
1000
0000
1000
0000
,  // measure 15
0010
0100
0000
0100
0000
0100
0001
0000
0001
0000
0001
0000
,  // measure 16
1000
0010
0000
0010
0000
0010
0100
0000
0100
0000
0100
0000
,  // measure 17
0001
1000
0000
1000
0000
1000
0001
0000
0001
0000
0001
0000
,  // measure 18
0100
0010
0000
0010
0000
0010
1000
0000
1000
0000
1000
0000
,  // measure 19
0001
0100
0000
0100
0000
0100
0010
0000
0010
0000
0010
0000
,  // measure 20
0100
0001
0000
0001
0000
0001
1000
0000
1000
0000
1000
0000
,  // measure 21
0010
0100
0000
0100
0000
0100
0010
0000
0010
0000
0010
0000
,  // measure 22
0100
0001
0000
0001
0000
0001
1000
0000
0000
0101
0000
0100
,  // measure 23
0001
0000
0001
1000
0000
0000
0010
0000
0000
1001
0000
0001
,  // measure 24
0100
0000
0100
0010
0000
0000
0001
0000
0000
0110
0000
0010
,  // measure 25
1000
0000
1000
0001
0000
0000
0100
0000
0000
1010
0000
0010
,  // measure 26
0100
0000
0100
0001
0000
0000
1000
0000
0000
0011
0000
0001
,  // measure 27
1000
0000
1000
0010
0000
0000
0100
0000
0000
1001
0000
0001
,  // measure 28
0010
0000
0010
0001
0000
0000
1000
0000
0000
0110
0000
0010
,  // measure 29
1000
0000
1000
0001
0000
0001
0100
0000
0100
0010
0000
0010
,  // measure 30
1000
0000
1000
0001
0000
0001
1000
0000
1000
0010
0000
0010
,  // measure 31
0100
0001
0100
0010
1000
0010
0000
0000
0000
0000
0000
0000
,  // measure 32
0000
0000
1000
0001
,  // measure 33
1000
0010
0000
1010
0000
0000
0100
0000
0000
0001
0000
0000
,  // measure 34
0001
1000
0000
1001
0000
0000
0100
0000
0000
0010
0000
0000
,  // measure 35
0001
0100
0000
0101
0000
0000
1000
0000
0000
0010
0000
0000
,  // measure 36
1000
0010
0000
1010
0000
0000
0100
0000
0000
0001
0000
0000
,  // measure 37
1000
0001
0000
1001
0000
0000
0100
0000
0000
0010
0000
0000
,  // measure 38
0100
0010
0000
0110
0000
0000
1000
0000
0000
0001
0000
0000
,  // measure 39
1000
0100
0000
1100
0000
0000
0001
0000
0000
0010
0000
0000
,  // measure 40
0001
0100
0000
0101
0000
0001
0000
0000
0000
0000
0000
0000
,  // measure 41
0000
0000
0000
0000
0000
0000
1010
0000
1010
0000
1010
0000
,  // measure 42
0000
0000
0000
0000
0000
0000
0101
0000
0101
0000
0101
0000
,  // measure 43
0000
0000
0000
0000
0000
0000
1001
0000
1001
0000
1001
0000
,  // measure 44
0000
0000
0000
0000
0000
0000
1001
0000
1001
0000
1001
0000
,  // measure 45
0001
0100
0000
0100
0001
1000
0001
0000
0101
0000
0101
0000
,  // measure 46
0100
0010
0000
0010
0000
0010
1000
0000
1001
0000
1001
0000
,  // measure 47
0010
0100
0000
0100
0000
0100
0001
0000
1001
0000
1001
0000
,  // measure 48
1000
0010
0000
0010
0000
0010
0100
0000
0101
0000
0101
0000
,  // measure 49
1000
0010
0000
0010
1000
0010
2000
0000
0000
3001
0000
0001
,  // measure 50
0100
0000
0110
0000
0110
0000
0002
0000
0000
1003
0000
1000
,  // measure 51
0010
0000
0010
1000
0001
1000
0002
0000
0000
0103
0000
0100
,  // measure 52
0010
0000
0110
0000
0110
0000
2000
0000
0000
3002
0000
0000
,  // measure 53
1003
0000
0000
0110
0000
0100
0020
0000
0000
1030
0000
1000
,  // measure 54
0001
0000
0101
0000
0101
0000
0200
0000
0000
0310
0000
0010
,  // measure 55
1000
0000
1000
0001
0100
0001
0200
0000
0000
0310
0000
0000
,  // measure 56
2000
0000
0000
3001
0000
0001
0200
0000
0301
0100
0001
1000
,  // measure 57
0020
0000
0130
0010
0100
0010
2000
0000
3001
1000
0001
0100
,  // measure 58
0020
0000
1030
0010
1000
0010
0000
0000
0000
0000
0000
0000
,  // measure 59
0000
0000
0000
0000
,  // measure 60
0000
0000
0000
0000
0000
0000
1000
0000
1000
0000
1000
0000
,  // measure 61
0010
0000
0010
0100
0000
0000
0001
0000
0001
0000
0001
0000
,  // measure 62
0100
0000
0100
0001
0000
0000
1000
0000
1000
0000
1000
0000
,  // measure 63
0001
0000
0001
0100
0000
0000
0010
0000
0010
0000
0010
0000
,  // measure 64
0100
0000
0100
0001
0000
0000
1001
0000
0000
0000
0000
0000
;

//---------------dance-single - ----------------
#NOTES:
     dance-single:
     :
     Easy:
     3:
     0.242328,0.310556,0.140741,0.170370,0.000000,229.000000,210.000000,19.000000,23.000000,0.000000,0.000000,0.242328,0.310556,0.140741,0.170370,0.000000,229.000000,210.000000,19.000000,23.000000,0.000000,0.000000:
// measure 0
0000
0000
0000
0000
,  // measure 1
0000
0000
0000
0000
,  // measure 2
0000
0000
0000
0000
,  // measure 3
0000
0000
0000
0000
,  // measure 4
0000
0000
0000
0000
,  // measure 5
0000
0000
1000
1000
,  // measure 6
1000
0000
0010
0010
,  // measure 7
0010
0000
0100
0100
,  // measure 8
0100
0000
0010
0010
,  // measure 9
0010
0000
1000
1000
,  // measure 10
1000
0000
0001
0001
,  // measure 11
0001
0000
0100
0100
,  // measure 12
0100
0000
0010
0010
,  // measure 13
0010
0000
0000
0000
,  // measure 14
0000
0000
1000
0001
,  // measure 15
1000
0001
0100
0010
,  // measure 16
0100
0010
1000
0010
,  // measure 17
1000
0010
0100
0001
,  // measure 18
0100
0001
0010
0001
,  // measure 19
0010
0001
1000
0100
,  // measure 20
1000
0100
1000
0010
,  // measure 21
1000
0010
0100
0001
,  // measure 22
0100
0001
1000
1010
,  // measure 23
0010
0100
0001
1001
,  // measure 24
1000
0100
0010
0011
,  // measure 25
1000
0001
0100
0101
,  // measure 26
0001
1000
0010
0110
,  // measure 27
0100
0001
1000
1001
,  // measure 28
0010
0100
0001
1001
,  // measure 29
1000
0010
0100
0101
,  // measure 30
0001
1001
1000
1010
,  // measure 31
0010
0110
0000
0000
,  // measure 32
0000
0000
0200
0310
,  // measure 33
0100
0010
2000
3001
,  // measure 34
0001
1000
0020
1030
,  // measure 35
0001
0100
0020
1030
,  // measure 36
0010
0100
0002
1003
,  // measure 37
0010
0100
0002
0103
,  // measure 38
0001
1000
0020
0130
,  // measure 39
0100
0010
2000
3001
,  // measure 40
0001
1000
0000
0100
,  // measure 41
0010
0100
0010
0010
,  // measure 42
1001
0100
1000
1000
,  // measure 43
1100
0001
0010
0010
,  // measure 44
0011
0001
0100
0100
,  // measure 45
0110
1000
0001
0001
,  // measure 46
0101
0010
1000
1000
,  // measure 47
1010
0010
0100
0001
,  // measure 48
0101
0100
0010
1000
,  // measure 49
1001
0010
0020
1000
,  // measure 50
1030
0100
0002
1000
,  // measure 51
0103
0100
0020
2030
,  // measure 52
3001
0100
0200
0302
,  // measure 53
0023
0001
0032
1000
,  // measure 54
1003
0100
0020
1000
,  // measure 55
0130
0001
2000
0100
,  // measure 56
3200
0010
0320
0001
,  // measure 57
0032
1000
0203
0010
,  // measure 58
0302
1000
0003
0000
,  // measure 59
0000
0000
0000
0000
,  // measure 60
0000
0000
1000
1000
,  // measure 61
1000
0000
0010
0010
,  // measure 62
0010
0000
0001
0001
,  // measure 63
0001
0100
0100
0100
,  // measure 64
0010
0010
0010
0000
;
