#TITLE:Heavenly;
#SUBTITLE:;
#ARTIST:Makou;
#TITLETRANSLIT:;
#SUBTITLETRANSLIT:;
#ARTISTTRANSLIT:;
#GENRE:;
#CREDIT:;
#BANNER:AV.avi;
#BACKGROUND:bg.png;
#LYRICSPATH:;
#CDTITLE:;
#MUSIC:Heavenly.ogg;
#OFFSET:-0.162000;
#SAMPLESTART:47.959999;
#SAMPLELENGTH:15.000000;
#SELECTABLE:YES;
#DISPLAYBPM:125.000000;
#BPMS:0.000000=124.999992
,170.000000=62.499996
,171.000000=124.999992
;
#STOPS:
;
#BGCHANGES:0.000=Heavenly.avi=1.400=1=1=1=StretchRewind==CrossFade==,
2.000=Heavenly.avi=1.000=0=0=1=====,
99999=-nosongbg-=1.000=0=0=0 // don't automatically add -songbackground-
;
#KEYSOUNDS:;
#ATTACKS:;

//---------------dance-single - ----------------
#NOTES:
     dance-single:
     :
     Beginner:
     2:
     0.205998,0.253206,0.000000,0.017166,0.000000,168.000000,168.000000,0.000000,2.000000,0.000000,0.000000,0.205998,0.253206,0.000000,0.017166,0.000000,168.000000,168.000000,0.000000,2.000000,0.000000,0.000000:
// measure 0
0000
0000
0000
0000
,  // measure 1
0000
0000
0000
0000
,  // measure 2
0000
0000
0000
0000
,  // measure 3
0000
0000
0000
0000
,  // measure 4
0000
0000
0000
0000
,  // measure 5
0000
1000
0000
1000
,  // measure 6
0000
0001
0000
0001
,  // measure 7
0000
0100
0000
0100
,  // measure 8
0000
0010
0000
0010
,  // measure 9
1000
1000
0001
0001
,  // measure 10
0100
0010
0000
0000
,  // measure 11
0001
0010
0100
1000
,  // measure 12
1000
0100
0010
0001
,  // measure 13
1000
1000
0001
0001
,  // measure 14
0100
0010
0000
0000
,  // measure 15
1000
0100
0010
0001
,  // measure 16
0001
0010
0100
1000
,  // measure 17
0001
0000
0100
1000
,  // measure 18
0000
1000
0010
0000
,  // measure 19
0010
0001
0100
0000
,  // measure 20
0010
1000
0100
0000
,  // measure 21
0001
0001
1000
1000
,  // measure 22
0010
0010
0000
0000
,  // measure 23
0010
0000
0001
0000
,  // measure 24
1000
0100
0010
0001
,  // measure 25
0100
0100
0100
0000
,  // measure 26
0010
0010
0010
0000
,  // measure 27
1000
0100
0001
0000
,  // measure 28
0001
0100
1000
0000
,  // measure 29
0010
0010
0010
0000
,  // measure 30
0100
0100
0100
0000
,  // measure 31
1000
0010
0001
0000
,  // measure 32
0001
0010
1000
0000
,  // measure 33
0010
0001
0000
0000
,  // measure 34
0010
0001
0000
0000
,  // measure 35
0001
0010
0000
0000
,  // measure 36
0001
0010
0000
0000
,  // measure 37
0001
0100
0000
0000
,  // measure 38
0001
0001
0000
0000
,  // measure 39
0001
0100
0001
0001
,  // measure 40
0001
0010
0001
0010
,  // measure 41
0010
0010
0010
0010
,  // measure 42
0010
0010
0010
0010
0000
0000
0000
0000
,  // measure 43
0100
1000
0010
0001
,  // measure 44
0100
0200
0000
0300
,  // measure 45
0010
1000
0100
0000
,  // measure 46
0010
0001
0100
0000
,  // measure 47
0010
1000
0100
0001
,  // measure 48
0010
0002
0000
0003
,  // measure 49
0100
1000
0010
0000
,  // measure 50
0100
0001
0010
0000
,  // measure 51
0100
0100
0100
0001
,  // measure 52
0010
0010
0010
1000
,  // measure 53
0100
0001
0010
1000
,  // measure 54
0100
1000
0010
0001
,  // measure 55
0010
0010
0010
1000
,  // measure 56
0010
0010
0010
0001
,  // measure 57
0010
1000
0100
0001
,  // measure 58
0010
0001
0100
1000
,  // measure 59
0001
0000
0000
0000
;

//---------------dance-single - ----------------
#NOTES:
     dance-single:
     :
     Easy:
     4:
     0.226843,0.252133,0.008583,0.068666,0.000000,185.000000,184.000000,1.000000,8.000000,0.000000,0.000000,0.226843,0.252133,0.008583,0.068666,0.000000,185.000000,184.000000,1.000000,8.000000,0.000000,0.000000:
// measure 0
0000
0000
0000
0000
,  // measure 1
0000
0000
0000
0000
,  // measure 2
0000
0000
0000
0000
,  // measure 3
0000
0000
0000
0000
,  // measure 4
0000
0000
0000
0000
,  // measure 5
1000
0100
1000
0010
,  // measure 6
0100
0100
0010
1000
,  // measure 7
0001
0001
1000
1000
,  // measure 8
0010
0010
1000
1000
,  // measure 9
0010
0010
0100
0100
,  // measure 10
0100
0200
0000
0000
,  // measure 11
1300
0000
1000
0010
,  // measure 12
0100
0001
1000
0010
,  // measure 13
0001
0001
0001
1000
,  // measure 14
1000
2000
0000
0000
,  // measure 15
3100
0000
1000
0010
,  // measure 16
0100
0010
1000
0001
,  // measure 17
0020
0000
0000
0130
,  // measure 18
0000
0001
1000
0001
,  // measure 19
1000
0010
0001
0100
,  // measure 20
0001
0100
0010
1000
,  // measure 21
0001
0001
0001
0100
,  // measure 22
0100
0020
0000
0000
,  // measure 23
0130
0000
0001
1000
,  // measure 24
0010
0010
0010
0100
,  // measure 25
0100
0100
0010
0010
,  // measure 26
0001
0001
1000
0000
,  // measure 27
0010
1000
0010
1000
,  // measure 28
0100
0100
0010
0000
,  // measure 29
1000
0001
1000
0001
,  // measure 30
0010
0010
0010
0000
,  // measure 31
1000
0010
1000
0010
,  // measure 32
0100
0100
0010
0000
,  // measure 33
0001
0001
1000
0000
,  // measure 34
0100
0100
0001
0000
,  // measure 35
0010
0010
1000
0000
,  // measure 36
0001
0001
1000
0000
,  // measure 37
0010
0010
0100
0000
,  // measure 38
0010
0010
1000
0000
,  // measure 39
0010
0010
1000
1000
,  // measure 40
0010
0010
1000
1000
,  // measure 41
0001
0001
0001
0001
,  // measure 42
0001
0001
0000
0010
,  // measure 43
0010
0010
1000
1000
,  // measure 44
2000
0000
0000
3010
,  // measure 45
0010
0100
0010
1000
,  // measure 46
0001
1000
0010
0100
,  // measure 47
0100
0100
1000
1000
,  // measure 48
2000
0000
0000
3010
,  // measure 49
0001
1000
0001
1000
,  // measure 50
0010
0100
0010
2000
,  // measure 51
0000
0000
3010
0000
,  // measure 52
0010
0010
0100
0100
,  // measure 53
0010
1000
0001
1000
,  // measure 54
0010
1000
0001
0100
,  // measure 55
0100
0001
0001
0100
,  // measure 56
0200
0000
0000
0310
,  // measure 57
0010
1000
0001
0010
,  // measure 58
0010
0100
0100
0110
;

//---------------dance-single - ----------------
#NOTES:
     dance-single:
     :
     Medium:
     8:
     0.331068,0.378199,0.077249,0.180248,0.000000,270.000000,261.000000,9.000000,21.000000,0.000000,0.000000,0.331068,0.378199,0.077249,0.180248,0.000000,270.000000,261.000000,9.000000,21.000000,0.000000,0.000000:
// measure 0
0000
0000
0000
0000
,  // measure 1
0000
0000
0000
0000
,  // measure 2
0000
0000
0000
0000
,  // measure 3
0000
0000
0000
0000
,  // measure 4
0000
0000
0000
0000
,  // measure 5
0010
1000
0010
0100
0010
0000
1000
0000
,  // measure 6
0001
0010
0002
0000
1003
0000
0010
0000
,  // measure 7
1000
0100
1000
0000
0010
1000
0010
0000
,  // measure 8
0002
1003
2000
3001
,  // measure 9
1001
0110
1001
0100
,  // measure 10
0100
0200
0010
0301
,  // measure 11
0002
1003
0010
0100
,  // measure 12
0001
1000
0100
0010
,  // measure 13
0001
0010
0001
0010
0001
0000
1000
0000
,  // measure 14
1000
2000
0001
3010
,  // measure 15
0002
1003
0100
1000
,  // measure 16
0010
1000
0001
0000
0010
0100
0010
0000
,  // measure 17
2000
0001
0010
3001
,  // measure 18
0010
1000
0001
0000
0100
0010
1000
0000
,  // measure 19
0100
0010
0001
0100
,  // measure 20
0001
1000
0001
0000
2000
0000
3001
0000
,  // measure 21
0010
0100
0010
0100
0010
0000
0010
0000
,  // measure 22
0010
0020
0100
0130
,  // measure 23
2000
0000
3001
0000
0010
0100
0010
0000
,  // measure 24
1000
0001
1000
0000
0010
0000
0100
0000
,  // measure 25
0001
1000
0001
0000
1000
0010
1000
0000
,  // measure 26
0002
1000
1003
0010
,  // measure 27
1000
0100
0010
0001
,  // measure 28
0001
1000
0001
0000
2000
0000
3001
0000
,  // measure 29
0010
0100
0010
0000
1000
0001
1000
0000
,  // measure 30
0020
1000
1030
0001
,  // measure 31
0001
0100
0010
1000
,  // measure 32
0001
1000
0010
0000
0100
0001
1000
0000
,  // measure 33
0100
0110
0010
0010
,  // measure 34
0001
1001
1000
1000
,  // measure 35
0010
1010
1000
1000
,  // measure 36
0001
0000
0011
0000
0010
0000
0010
0001
,  // measure 37
1000
1001
0001
0001
,  // measure 38
1000
1001
0001
0001
,  // measure 39
0100
0010
0100
0000
0001
1000
0001
0000
,  // measure 40
0100
0010
0100
0000
0001
1000
0010
0000
,  // measure 41
0010
0100
0010
0100
0010
0100
0010
0100
,  // measure 42
0010
0100
0010
0100
0000
0000
0010
1000
,  // measure 43
0010
1000
0010
0000
0010
0000
0010
0000
,  // measure 44
0020
0100
0130
2000
,  // measure 45
3001
0010
0001
0100
,  // measure 46
0010
0000
0100
0000
0010
0000
0001
1000
,  // measure 47
0001
1000
0001
0000
0001
0000
0001
0000
,  // measure 48
0002
1000
0013
2000
,  // measure 49
3010
0100
0001
1000
,  // measure 50
0010
0100
0001
0010
,  // measure 51
0001
1000
0010
0100
,  // measure 52
0010
0000
0010
1000
0010
1000
0020
0000
,  // measure 53
1030
1000
0100
1000
,  // measure 54
0001
0000
0010
0000
0100
0000
0001
1000
,  // measure 55
0001
1000
0001
0000
0001
0000
0001
0000
,  // measure 56
0002
1000
0103
2000
,  // measure 57
3010
0000
0001
0000
1000
0000
0010
0100
,  // measure 58
0010
0100
0010
0100
0010
0100
0010
0000
;

//---------------dance-single - ----------------
#NOTES:
     dance-single:
     :
     Hard:
     13:
     0.549328,0.655546,0.386246,0.137332,0.330455,448.000000,403.000000,45.000000,16.000000,0.000000,0.000000,0.549328,0.655546,0.386246,0.137332,0.330455,448.000000,403.000000,45.000000,16.000000,0.000000,0.000000:
// measure 0
0000
0000
0000
0000
,  // measure 1
0000
0000
0000
0000
,  // measure 2
0000
0000
0000
0000
,  // measure 3
0000
0000
0000
0000
,  // measure 4
0000
0000
0000
0000
,  // measure 5
0100
0000
1000
0000
0100
0000
1000
0000
0001
1000
0000
0010
0000
0000
0100
0000
,  // measure 6
0010
0100
0010
0000
0100
0001
0000
0000
1000
0000
0000
0000
0100
0000
1000
0000
,  // measure 7
0001
0000
1000
0000
0100
0000
1000
0000
0001
1000
0000
0010
0000
0000
0000
0000
,  // measure 8
0010
0100
0010
0000
0100
0010
0100
0000
0010
0100
0010
0000
0110
0000
0000
0000
,  // measure 9
1000
0001
1000
0001
1000
0000
1100
0000
,  // measure 10
1001
0102
0100
1003
,  // measure 11
2001
0000
3010
0000
1000
0100
1000
0010
,  // measure 12
1000
0000
1000
0000
0100
0001
1000
0100
,  // measure 13
0010
0100
0010
0100
0010
0000
1100
0000
,  // measure 14
1001
0102
0100
1003
,  // measure 15
1020
0000
1030
0000
1000
0100
0010
0001
,  // measure 16
1000
0100
1000
0000
0001
0010
0001
0000
1000
0100
1000
0000
0001
0000
1000
0000
,  // measure 17
2001
0100
3001
0102
,  // measure 18
0013
0000
1100
0000
1001
0000
0001
0100
,  // measure 19
0110
0000
0002
0000
1003
0100
0010
0100
,  // measure 20
1000
0000
0001
0000
0100
0000
0010
1000
0001
0000
0010
0000
0100
0000
0000
0000
,  // measure 21
1000
0100
1000
0100
1000
0000
0011
0000
,  // measure 22
1100
0201
0010
0301
,  // measure 23
1200
0000
0000
0000
1300
0000
0000
0000
1000
0100
0010
0000
0001
0000
0010
0000
,  // measure 24
0100
1000
0100
0000
1000
0001
1000
0000
0010
0100
0010
0000
0110
0000
0100
0000
,  // measure 25
0010
0000
0010
0000
0100
0000
0100
0000
0010
0100
0000
0020
0000
0000
1030
0000
,  // measure 26
0001
1000
0001
0000
1000
0200
0000
0000
1300
0000
0000
0000
0010
0000
0010
0000
,  // measure 27
1000
0000
1000
0000
0010
0000
0010
0000
0100
0010
0000
0200
0000
0000
0300
0000
,  // measure 28
0010
2000
0000
0000
3001
0000
1000
0000
0001
1000
0000
0002
0000
0000
0003
0000
,  // measure 29
1000
0000
0100
0000
0010
0000
0100
0000
1000
0100
0000
0010
0000
0000
0100
0000
,  // measure 30
1000
0001
1000
0000
0001
2000
0000
0000
3001
0000
0000
0000
0010
0000
0100
0000
,  // measure 31
0010
0000
0010
0000
1000
0000
1000
0000
0001
1000
0000
0200
0000
0000
0300
0000
,  // measure 32
0001
1000
0010
1000
0001
1000
0100
0010
0001
1000
0100
0010
0001
0010
0001
0000
,  // measure 33
1001
0000
0110
0010
1000
0100
0010
0001
,  // measure 34
0011
0000
1001
1000
0010
0100
1000
0100
,  // measure 35
0110
0000
1001
0001
0100
0001
1000
0100
,  // measure 36
1100
0000
1001
1000
0010
0100
0010
1000
,  // measure 37
1001
0000
1001
0001
0100
0001
1000
0100
,  // measure 38
0110
0000
1001
1000
0001
0100
0010
0100
,  // measure 39
0110
1010
1001
0110
,  // measure 40
0011
1001
0110
1001
,  // measure 41
1010
1000
0010
0100
1001
0001
1000
0010
,  // measure 42
1010
0000
1000
0000
0001
0000
1000
0000
0000
0000
0000
0000
1000
0000
0000
0100
,  // measure 43
1000
0000
0100
0000
1000
0000
0000
0010
0100
0000
0010
0000
0100
0000
0000
0010
,  // measure 44
0100
0000
0010
0000
1000
0000
0000
0001
1000
0000
0001
0000
1000
0000
0000
0001
,  // measure 45
0100
0000
0001
0000
0100
0000
0000
0100
1000
0000
0100
0000
1000
0000
0001
0000
,  // measure 46
1000
0000
0001
0100
0000
0100
0010
0000
1000
0000
0010
0000
1010
0000
0000
1000
,  // measure 47
0001
0000
1000
0000
0001
0000
0000
0100
0010
0000
0100
0000
0010
0000
0000
0010
,  // measure 48
0100
0000
0010
0000
1000
0000
0000
0010
0100
0000
0010
0000
1000
0000
0000
0001
,  // measure 49
1000
0000
0001
0000
1000
0000
0000
0010
0100
0000
0010
0000
0100
0000
0001
0000
,  // measure 50
1000
0000
0001
0100
0000
0100
0001
0000
1000
0000
0001
0000
1001
0000
0000
0100
,  // measure 51
1000
0000
0001
0000
1000
0000
0000
0010
0100
0000
0001
0000
1000
0000
0000
0010
,  // measure 52
0100
0000
0001
0000
0100
0000
0000
0001
1000
0000
0100
0000
1000
0000
0000
0001
,  // measure 53
0100
0000
0001
0000
0100
0000
0000
0010
1000
0000
0010
0000
1000
0000
0010
0000
,  // measure 54
1000
0000
0001
0100
0000
0100
0001
0000
1000
0000
0001
0000
1001
0000
0000
1000
,  // measure 55
0100
0000
1000
0000
0100
0000
0000
1000
0001
0000
1000
0000
0001
0000
0000
0100
,  // measure 56
0010
0000
0100
0000
0010
0000
0000
0100
0001
0000
0100
0000
0001
0000
0000
1000
,  // measure 57
0010
0000
1000
0000
0010
0000
0000
0100
0010
0000
1000
0000
0001
0010
0100
1000
,  // measure 58
0001
0010
0100
1000
0001
0010
0100
1000
0001
0100
0010
1000
0001
0000
0000
0000
;
