#TITLE:Guerrilla;
#SUBTITLE:;
#ARTIST:ATEEZ;
#TITLETRANSLIT:;
#SUBTITLETRANSLIT:;
#ARTISTTRANSLIT:;
#GENRE:;
#CREDIT:;
#BANNER:AV.avi;
#BACKGROUND:bg.png;
#LYRICSPATH:;
#CDTITLE:;
#MUSIC:audio.ogg;
#OFFSET:-0.228000;
#SAMPLESTART:48.235069;
#SAMPLELENGTH:15.000026;
#SELECTABLE:YES;
#BPMS:0.000000=182.000000
;
#STOPS:
;
#BGCHANGES:0.000=MV.avi=1.200=0=0=1=====,
2.000=MV.avi=1.000=0=0=1=====,
99999=-nosongbg-=1.000=0=0=0 // don't automatically add -songbackground-
;
#KEYSOUNDS:;
#ATTACKS:;

//---------------dance-single - ----------------
#NOTES:
     dance-single:
     :
     Challenge:
     14:
     0.658563,0.698290,0.456430,0.426001,0.030429,606.000000,546.000000,60.000000,56.000000,11.000000,0.000000,0.658563,0.698290,0.456430,0.426001,0.030429,606.000000,546.000000,60.000000,56.000000,11.000000,0.000000:
// measure 0
0000
0000
0000
0000
,  // measure 1
0000
0000
0000
0000
,  // measure 2
0000
0000
0000
0000
,  // measure 3
0000
0000
0000
0000
,  // measure 4
1001
0000
0010
0000
1000
0100
1000
0001
,  // measure 5
0010
0100
1000
0000
1001
0000
0001
0000
,  // measure 6
1000
0000
0001
0100
0001
1000
0100
0000
,  // measure 7
1010
0000
0001
0000
1000
0010
0100
0000
,  // measure 8
2010
0000
3001
0000
0001
0100
0010
1000
,  // measure 9
0010
0100
0001
0000
0101
0000
1000
0000
,  // measure 10
0010
0000
0100
0010
0100
0010
1000
0000
,  // measure 11
1001
0000
0020
0130
0002
1003
0020
0130
,  // measure 12
0010
0000
1000
0010
0001
0010
1000
0000
,  // measure 13
0001
0100
0001
1000
0100
0000
0100
1000
,  // measure 14
0010
0100
0010
1000
0001
0000
0100
0000
,  // measure 15
0101
0000
1000
0000
0001
0100
0010
0010
,  // measure 16
1000
0001
1000
0001
1100
0000
0010
0100
,  // measure 17
0001
1000
0001
1000
0011
0000
1000
0100
,  // measure 18
0020
0000
0031
2000
0001
3000
0010
0000
,  // measure 19
1010
1010
0101
0101
,  // measure 20
1002
0000
0010
0000
0100
0000
1003
0010
,  // measure 21
1000
0001
0010
0100
0010
0001
1000
0000
,  // measure 22
1002
0000
0100
0000
0010
0000
0013
0100
,  // measure 23
1000
0001
1000
0010
0001
0010
1000
0000
,  // measure 24
2100
0001
0010
3001
,  // measure 25
1000
0001
0100
1000
0100
0010
1000
0000
,  // measure 26
0001
1000
0001
0000
1000
0000
0100
0000
0010
0001
1000
0000
0010
0000
1000
0000
,  // measure 27
0001
0000
1001
0000
1000
0100
0010
0100
,  // measure 28
1000
0000
0001
1000
0001
0000
0100
0001
,  // measure 29
0100
0001
1000
0000
0001
0010
0001
1000
,  // measure 30
0100
0000
1000
0001
1000
0000
0010
1000
,  // measure 31
0001
0100
0001
0000
1000
0100
0010
0001
,  // measure 32
2000
0000
3100
0010
0200
0000
0310
0001
,  // measure 33
1000
0010
1000
0000
0001
0100
0001
1000
,  // measure 34
0100
1100
0001
0011
,  // measure 35
0000
0000
0000
0000
,  // measure 36
0000
0000
0000
0000
1000
0001
1000
0000
,  // measure 37
0200
0000
0320
0000
0032
0000
1003
0100
,  // measure 38
0010
0001
1000
0000
1000
0010
0100
0001
,  // measure 39
0020
0000
0032
0000
2003
0000
3001
0010
,  // measure 40
0100
0010
0001
0000
1000
0100
0001
0100
,  // measure 41
1000
0000
0110
0000
0001
0010
1000
0010
,  // measure 42
0001
0110
1000
0002
,  // measure 43
2003
0000
3200
0000
0320
0000
0130
1000
,  // measure 44
0001
0100
0010
0000
1000
0001
1000
0000
,  // measure 45
0001
0000
0110
0000
0101
0000
1000
0010
,  // measure 46
0100
0001
0010
0000
1000
0001
1000
0001
,  // measure 47
0100
0000
1001
0000
0110
0000
0001
1000
,  // measure 48
0100
1000
0010
0000
1000
0100
1000
0001
,  // measure 49
0010
0000
0012
0000
1003
0100
0010
0100
,  // measure 50
1000
0000
2001
0000
3010
0000
0100
0001
,  // measure 51
1000
0001
1000
0000
0100
0000
0010
0000
0001
1000
0001
0000
0100
0000
0001
0000
,  // measure 52
1000
0100
1000
0000
0001
0000
0000
0000
1001
0000
0000
0000
1000
0000
0000
0000
,  // measure 53
0001
0010
1000
0010
0001
0100
1000
0100
,  // measure 54
0001
0010
1000
0010
0001
1000
0001
0000
,  // measure 55
1000
0100
0001
0100
1000
0010
0001
0010
,  // measure 56
1000
0100
0001
0100
1000
0001
1000
0000
,  // measure 57
1002
0103
2010
3001
,  // measure 58
0120
0000
1030
0000
0001
1000
0001
0100
,  // measure 59
0010
0100
0010
0000
1000
0000
0001
0000
0100
0010
0100
0000
0001
0000
0010
0000
,  // measure 60
0001
1000
0010
0100
0001
0001
1000
1000
,  // measure 61
0010
0100
0010
0000
1001
0000
0001
0010
,  // measure 62
2000
0000
3002
0000
0203
0000
1300
0010
,  // measure 63
0100
0001
0100
0000
0101
0000
0001
1000
,  // measure 64
0200
0000
2300
0000
3002
0000
0103
0020
,  // measure 65
1000
0030
1000
0000
1001
0000
0100
0010
,  // measure 66
2000
3200
0320
0032
,  // measure 67
2003
0010
3010
0000
1001
0000
0001
0010
,  // measure 68
0002
0000
2003
0000
3010
0010
1000
1000
,  // measure 69
0001
0100
0010
0000
1100
0000
0001
0100
,  // measure 70
0010
0001
1000
0000
0110
0000
0001
0010
,  // measure 71
0100
1000
0100
0000
1001
0000
0100
0010
,  // measure 72
1000
0001
0010
0000
0011
0000
1000
0001
,  // measure 73
0100
0001
1000
0000
0011
0000
0001
1000
,  // measure 74
0010
0000
1000
0000
0001
0000
0000
0000
1100
0000
0000
0000
0001
1000
0001
0000
,  // measure 75
0100
0010
1000
0100
1000
0001
0010
0001
,  // measure 76
1000
0010
0100
0010
1000
0001
0100
0000
,  // measure 77
0002
0000
0023
0000
0230
0000
1300
0001
,  // measure 78
0100
0002
0000
0003
M000
00M0
0M00
00M0
,  // measure 79
M000
0000
000M
0000
0M00
0000
00M0
M000
,  // measure 80
000M
0M00
0010
1000
0001
0020
0000
0030
,  // measure 81
2001
0000
0000
0000
0000
0000
0000
0000
0000
0000
0000
0000
0000
0000
0000
0000
0000
0000
0000
0000
0000
0000
0000
0000
0000
0000
0000
0000
0000
0000
0000
0000
0000
0000
0000
0000
0000
0000
0000
0000
0000
0000
0000
0000
0000
0000
0000
0000
0010
0000
0000
0000
0000
0000
0000
0000
0000
0000
0000
0000
0000
0000
0000
0000
0000
0000
0000
0000
0000
0000
0000
0000
0000
0000
0000
0000
0000
0000
0000
0000
0000
0000
0000
0000
0000
0000
0000
0000
0000
0000
0000
0000
0000
0000
0000
3000
1001
0000
0000
0000
0000
0000
0000
0000
0000
0000
0000
0000
0000
0000
0000
0000
0000
0000
0000
0000
0000
0000
0000
0000
0000
0000
0000
0000
0000
0000
0000
0000
0000
0000
0000
0000
0000
0000
0000
0000
0000
0000
0000
0000
0000
0000
0000
0000
0110
0000
0000
0000
0000
0000
0000
0000
0000
0000
0000
0000
0000
0000
0000
0000
0000
0000
0000
0000
0000
0000
0000
0000
0000
0000
0000
0000
0000
0000
0000
0000
0000
0000
0000
0000
0000
0000
0000
0000
0000
0000
0000
0000
0000
0000
0000
0000
,  // measure 82
1002
0000
1003
0100
0010
0100
1000
0010
,  // measure 83
0200
0000
0000
0000
0000
0000
0000
0000
0000
0000
0000
0000
0000
0000
0000
0000
0000
0000
0000
0000
0000
0000
0000
0000
0000
0000
0000
0000
0000
0000
0000
0000
0000
0000
0000
0000
0000
0000
0000
0000
0000
0000
0000
0000
0000
0000
0000
0000
0001
0000
0000
0000
0000
0000
0000
0000
0000
0000
0000
0000
0000
0000
0000
0000
0000
0000
0000
0000
0000
0000
0000
0000
0000
0000
0000
0000
0000
0000
0000
0000
0000
0000
0000
0000
0000
0000
0000
0000
0000
0000
0000
0000
0000
0000
0000
0300
0110
0000
0000
0000
0000
0000
0000
0000
0000
0000
0000
0000
0000
0000
0000
0000
0000
0000
0000
0000
0000
0000
0000
0000
0000
0000
0000
0000
0000
0000
0000
0000
0000
0000
0000
0000
0000
0000
0000
0000
0000
0000
0000
0000
0000
0000
0000
0000
1010
0000
0000
0000
0000
0000
0000
0000
0000
0000
0000
0000
0000
0000
0000
0000
0000
0000
0000
0000
0000
0000
0000
0000
0000
0000
0000
0000
0000
0000
0000
0000
0000
0000
0000
0000
0000
0000
0000
0000
0000
0000
0000
0000
0000
0000
0000
0000
,  // measure 84
0201
0000
0310
1000
0001
0100
0001
1000
,  // measure 85
0200
0000
0000
0000
0000
0000
0000
0000
0000
0000
0000
0000
0000
0000
0000
0000
0000
0000
0000
0000
0000
0000
0000
0000
0000
0000
0000
0000
0000
0000
0000
0000
0000
0000
0000
0000
0000
0000
0000
0000
0000
0000
0000
0000
0000
0000
0000
0000
0001
0000
0000
0000
0000
0000
0000
0000
0000
0000
0000
0000
0000
0000
0000
0000
0000
0000
0000
0000
0000
0000
0000
0000
0000
0000
0000
0000
0000
0000
0000
0000
0000
0000
0000
0000
0000
0000
0000
0000
0000
0000
0000
0000
0000
0000
0000
0300
1100
0000
0000
0000
0000
0000
0000
0000
0000
0000
0000
0000
0000
0000
0000
0000
0000
0000
0000
0000
0000
0000
0000
0000
0000
0000
0000
0000
0000
0000
0000
0000
0000
0000
0000
0000
0000
0000
0000
0000
0000
0000
0000
0000
0000
0000
0000
0000
0110
0000
0000
0000
0000
0000
0000
0000
0000
0000
0000
0000
0000
0000
0000
0000
0000
0000
0000
0000
0000
0000
0000
0000
0000
0000
0000
0000
0000
0000
0000
0000
0000
0000
0000
0000
0000
0000
0000
0000
0000
0000
0000
0000
0000
0000
0000
0000
,  // measure 86
2001
0000
3001
0010
0100
0001
1000
0001
,  // measure 87
0200
0000
1300
0020
0100
0030
1001
0000
,  // measure 88
0102
0000
1003
0200
1000
0300
0101
0000
,  // measure 89
1000
0100
0001
1000
0010
0001
1000
0100
,  // measure 90
0001
1000
0010
0001
0100
0010
1000
1000
,  // measure 91
0001
0010
1000
0001
0100
1000
0001
0010
,  // measure 92
1000
0001
0100
1000
0010
0100
0010
0000
,  // measure 93
1001
0100
0010
0000
1001
0010
0100
0000
,  // measure 94
0011
0100
1000
0000
1100
0010
0001
1000
,  // measure 95
0010
0110
0100
0000
0001
0000
1000
1001
,  // measure 96
0001
0200
0000
0000
0000
0300
0000
0000
;

//---------------dance-single - ----------------
#NOTES:
     dance-single:
     :
     Hard:
     12:
     0.523808,0.588034,0.289072,0.403180,0.000000,482.000000,444.000000,38.000000,53.000000,0.000000,0.000000,0.523808,0.588034,0.289072,0.403180,0.000000,482.000000,444.000000,38.000000,53.000000,0.000000,0.000000:
// measure 0
0000
0000
0000
0000
,  // measure 1
0000
0000
0000
0000
,  // measure 2
0000
0000
0000
0000
,  // measure 3
0000
0000
0000
0000
,  // measure 4
1000
0000
1000
0000
0010
0000
1000
0001
,  // measure 5
0100
0001
0100
0010
,  // measure 6
0010
0000
1000
0000
0001
0100
0001
0100
,  // measure 7
0010
1000
0001
0100
,  // measure 8
0101
0020
1030
1000
,  // measure 9
0001
1000
0001
0000
0100
0000
0010
0000
,  // measure 10
1000
0000
1000
0000
0001
0100
0001
0000
,  // measure 11
1000
0000
0010
1000
0010
1000
0001
0100
,  // measure 12
0001
0000
1000
0010
1000
0000
0020
0000
,  // measure 13
1030
0001
0100
0000
0020
0000
1030
0001
,  // measure 14
0010
0002
2003
3002
,  // measure 15
0103
1010
0101
0001
,  // measure 16
0100
0001
0100
0001
1000
0000
0010
0100
,  // measure 17
0001
0100
0001
0100
0010
0000
1000
0001
,  // measure 18
0020
0000
0031
1000
0001
0000
0010
0000
,  // measure 19
0100
0101
0010
1010
,  // measure 20
0200
0001
0001
0310
,  // measure 21
1000
0100
0010
0000
0001
0000
0100
0000
,  // measure 22
0002
0010
0100
1003
,  // measure 23
0010
0001
0100
0010
1000
0000
0010
0000
,  // measure 24
2000
0001
0100
3010
,  // measure 25
1000
0001
0010
0000
0100
0000
1000
0000
,  // measure 26
0010
0002
0000
0203
0000
0320
0000
2030
,  // measure 27
0000
3001
0000
0010
0100
0000
0001
1000
,  // measure 28
0001
0000
0100
0001
0100
0000
0010
0000
,  // measure 29
1000
0000
0001
0000
0100
0000
0010
1000
,  // measure 30
0020
0000
1000
0000
0130
0000
0100
0100
,  // measure 31
0001
0000
1000
0010
0000
0010
0000
0010
,  // measure 32
0100
0000
0100
0001
0100
0000
0100
0010
,  // measure 33
1000
0100
0010
0001
,  // measure 34
1000
1010
0001
0101
,  // measure 35
0000
0000
0000
0000
,  // measure 36
0000
0000
0000
0000
0100
0001
0100
0000
,  // measure 37
0010
0000
1000
0000
0100
0000
0010
0001
,  // measure 38
2000
0000
0010
0000
3001
0100
0001
0000
,  // measure 39
0100
0000
0010
0000
1000
0000
0010
0100
,  // measure 40
0002
0000
1000
0000
0013
0100
1000
0000
,  // measure 41
0200
0000
0310
0000
1000
0001
0010
0000
,  // measure 42
0002
0013
0001
0100
,  // measure 43
0010
0000
1000
0000
0100
0000
1000
0001
,  // measure 44
1000
0001
0100
0000
0100
0010
1000
0000
,  // measure 45
0001
0000
0010
0000
0100
0000
1000
0001
,  // measure 46
0010
0200
0000
0000
1300
0001
0100
0010
,  // measure 47
2000
0000
3002
0000
0023
0000
0130
1000
,  // measure 48
0001
0200
0000
0000
0310
1000
0001
0010
,  // measure 49
0200
0000
1300
0000
0100
1000
0001
0100
,  // measure 50
0020
0000
1030
0000
0001
0000
1000
0100
,  // measure 51
0010
0000
0010
0000
0001
0000
0001
1000
,  // measure 52
0010
0100
1001
0000
,  // measure 53
0001
0000
0001
1000
0010
0000
0100
0001
,  // measure 54
1000
0001
1000
0000
0001
0010
0100
0010
,  // measure 55
0001
0000
1000
0001
0010
0000
1000
0100
,  // measure 56
0010
0100
1000
0000
0001
0010
0100
0000
,  // measure 57
0011
1000
0110
0001
,  // measure 58
1100
0000
0010
0000
0100
1000
0001
1000
,  // measure 59
0002
0000
0023
0000
0230
0000
1300
0100
,  // measure 60
0010
0001
1000
0000
0100
0000
0010
0000
,  // measure 61
1000
0001
0110
1000
,  // measure 62
0001
0000
0010
0000
1000
0000
0010
0001
,  // measure 63
1000
0001
0110
1000
,  // measure 64
0001
0000
0010
0000
1000
0000
0001
0100
,  // measure 65
0010
0001
1001
0010
,  // measure 66
0200
0302
0203
0320
,  // measure 67
2030
3002
2003
3020
,  // measure 68
0230
0302
0023
0230
,  // measure 69
1300
0001
1000
0000
0010
0000
1000
0001
,  // measure 70
1000
0001
0010
0000
0101
0000
0000
0000
,  // measure 71
1000
0001
1000
0000
0001
0000
1000
0001
,  // measure 72
0010
0001
0100
0000
1001
0000
0000
0000
,  // measure 73
0010
0000
0010
0000
0110
0000
1000
0001
,  // measure 74
1000
0010
0100
0000
1010
0000
0100
0000
,  // measure 75
0100
0001
0100
0010
1000
0010
1000
0001
,  // measure 76
0100
0010
1000
0100
0010
0001
1000
0000
,  // measure 77
2000
0000
3200
0000
0320
0000
0031
0010
,  // measure 78
0100
2000
0000
3000
0000
0000
0000
0000
,  // measure 79
0000
0000
0000
0000
,  // measure 80
0000
0000
0000
0000
,  // measure 81
1001
0010
0101
1001
,  // measure 82
0210
0001
0301
0010
,  // measure 83
1001
0001
1010
0101
,  // measure 84
0120
1000
1030
0001
,  // measure 85
1100
0001
1001
0110
,  // measure 86
1002
0100
0103
1000
,  // measure 87
1001
0100
1010
0110
,  // measure 88
2001
0010
3002
0003
,  // measure 89
1001
0000
0010
0100
0001
0000
0100
0010
,  // measure 90
1000
0010
1000
0000
0001
0010
0100
1000
,  // measure 91
0001
0000
0100
0010
1000
0000
0001
1000
,  // measure 92
0010
1000
0001
0000
0100
0010
0100
0000
,  // measure 93
1001
0010
1001
0100
,  // measure 94
1001
0001
0100
0000
0100
0001
1000
0100
,  // measure 95
1000
0010
0200
0000
0320
0000
1030
0100
,  // measure 96
1000
0002
0000
0000
0000
0003
0000
0000
;

//---------------dance-single - ----------------
#NOTES:
     dance-single:
     :
     Medium:
     9:
     0.390139,0.404273,0.273858,0.144536,0.000000,359.000000,323.000000,36.000000,19.000000,0.000000,0.000000,0.390139,0.404273,0.273858,0.144536,0.000000,359.000000,323.000000,36.000000,19.000000,0.000000,0.000000:
// measure 0
0000
0000
0000
0000
,  // measure 1
0000
0000
0000
0000
,  // measure 2
0000
0000
0000
0000
,  // measure 3
0000
0000
0000
0000
,  // measure 4
1001
0000
0010
0000
0100
0000
0001
1000
,  // measure 5
0001
0010
0100
1000
,  // measure 6
1000
0000
0100
0000
1000
0001
0010
0000
,  // measure 7
0001
1000
0001
0100
,  // measure 8
2002
0000
3003
0000
0100
0001
0100
0000
,  // measure 9
0001
0010
0100
1000
,  // measure 10
1000
0000
0001
0000
0010
0001
0100
0000
,  // measure 11
0100
0001
1000
0001
,  // measure 12
1000
0100
0010
2000
,  // measure 13
3001
0010
0200
1300
,  // measure 14
0001
0100
0020
2030
,  // measure 15
3002
0003
0000
0000
,  // measure 16
1000
0100
0020
0031
,  // measure 17
1000
0010
0200
1300
,  // measure 18
0001
0000
0100
0010
1000
0000
0000
0000
,  // measure 19
0001
0001
0010
0010
,  // measure 20
0002
1000
0010
0100
,  // measure 21
1003
0001
0010
0100
,  // measure 22
2000
0001
0010
0100
,  // measure 23
3001
0001
0010
0100
,  // measure 24
2000
0001
0100
0001
,  // measure 25
3010
0001
0100
1000
,  // measure 26
0100
0100
0010
0010
,  // measure 27
0001
0001
1000
0001
,  // measure 28
0100
0000
1000
0000
,  // measure 29
0011
0000
0100
0001
,  // measure 30
1010
0000
0001
0000
,  // measure 31
1010
0000
0100
0001
,  // measure 32
1010
0000
0101
0000
,  // measure 33
1010
0000
0100
0001
,  // measure 34
0100
0100
0010
1010
,  // measure 35
0000
0000
0000
0000
,  // measure 36
0000
0000
0000
0000
,  // measure 37
0001
0100
0010
1000
,  // measure 38
0100
0001
0101
0000
,  // measure 39
1000
0100
0010
0001
,  // measure 40
0100
0010
1000
0001
,  // measure 41
0002
0103
0010
1000
,  // measure 42
0200
0310
1001
0000
,  // measure 43
1000
0010
1000
0100
,  // measure 44
0010
0001
1000
0100
,  // measure 45
0010
0000
0001
0000
0100
0000
0100
0001
,  // measure 46
1000
0010
1001
0000
,  // measure 47
1000
0000
0100
0000
0010
0000
0001
1000
,  // measure 48
0100
0100
1001
0000
,  // measure 49
0100
0010
1000
0001
,  // measure 50
0010
0100
1001
0000
,  // measure 51
0100
0100
0010
0010
,  // measure 52
1000
0001
0101
0000
,  // measure 53
1000
0100
0010
0100
,  // measure 54
1000
0000
0001
0000
0010
0001
0100
0000
,  // measure 55
0100
0010
1000
0100
,  // measure 56
1000
0000
0001
0000
0100
0001
1000
0000
,  // measure 57
1001
0000
0110
0000
,  // measure 58
1001
0000
0100
0010
,  // measure 59
1000
0001
0010
0100
,  // measure 60
1000
0001
0100
0010
,  // measure 61
1000
1000
0101
0000
,  // measure 62
0010
0000
0101
0000
,  // measure 63
1000
1000
1001
0000
,  // measure 64
0100
0000
0110
0000
,  // measure 65
0001
0001
1001
0000
,  // measure 66
0100
0000
1001
0000
,  // measure 67
0100
0010
1001
0000
,  // measure 68
0010
0100
1000
0001
,  // measure 69
0010
0100
1001
0000
,  // measure 70
0100
0000
1001
0000
,  // measure 71
0010
0100
1001
0000
,  // measure 72
0010
0000
0101
0000
,  // measure 73
1000
1000
0101
0010
,  // measure 74
0100
1000
1001
0100
,  // measure 75
0010
0010
0100
0001
,  // measure 76
1000
0000
0100
0000
0010
0001
1000
0000
,  // measure 77
1000
0010
0100
0001
,  // measure 78
1000
0000
0000
0000
,  // measure 79
0000
0000
0000
0000
,  // measure 80
0000
0000
0000
0000
,  // measure 81
2001
0010
0100
3001
,  // measure 82
0001
0000
0010
1000
0001
0000
1000
0000
,  // measure 83
0002
0100
1003
0100
,  // measure 84
0010
0000
0001
1000
0100
0000
0100
0000
,  // measure 85
2000
0001
3100
0001
,  // measure 86
1000
0000
0010
0100
0001
0000
0001
0000
,  // measure 87
0100
0010
1000
0100
,  // measure 88
0010
0001
2000
3000
,  // measure 89
0001
0010
0100
1000
,  // measure 90
0100
0000
0010
0000
0001
1000
0100
0000
,  // measure 91
1000
0010
1000
0001
,  // measure 92
0010
0000
0100
0000
1000
0001
1000
0000
,  // measure 93
1001
0000
0110
0000
,  // measure 94
1001
0000
0101
0000
,  // measure 95
0010
0000
1000
0000
0100
0000
0010
0001
,  // measure 96
1000
0200
0000
0000
0000
0300
0000
0000
;

//---------------dance-single - ----------------
#NOTES:
     dance-single:
     :
     Easy:
     5:
     0.277118,0.364193,0.182572,0.114107,0.000000,255.000000,231.000000,24.000000,15.000000,0.000000,0.000000,0.277118,0.364193,0.182572,0.114107,0.000000,255.000000,231.000000,24.000000,15.000000,0.000000,0.000000:
// measure 0
0000
0000
0000
0000
,  // measure 1
0000
0000
0000
0000
,  // measure 2
0000
0000
0000
0000
,  // measure 3
0000
0000
0000
0000
,  // measure 4
1001
0000
0010
1000
,  // measure 5
0001
0000
0001
0000
,  // measure 6
0010
0000
1000
0000
,  // measure 7
0001
0010
0100
1000
,  // measure 8
0001
0000
1000
0000
,  // measure 9
0010
0100
0001
0000
,  // measure 10
1000
0000
0100
0000
,  // measure 11
0001
1000
0100
0010
,  // measure 12
0001
0000
1000
0000
,  // measure 13
0001
0100
0001
0000
,  // measure 14
1000
0000
0010
0100
,  // measure 15
0001
0000
1000
0000
,  // measure 16
0010
0100
0001
0000
,  // measure 17
1000
0100
0010
0000
,  // measure 18
0001
0000
1010
0000
,  // measure 19
0001
1000
0001
1000
,  // measure 20
0020
0000
0000
0000
,  // measure 21
1030
0010
0100
0001
,  // measure 22
2000
0000
0000
0000
,  // measure 23
3010
0100
0001
0010
,  // measure 24
0002
0000
0000
0000
,  // measure 25
0013
0100
1000
0100
,  // measure 26
0010
0001
1000
0100
,  // measure 27
0010
0001
1000
0001
,  // measure 28
0100
0000
0000
0000
,  // measure 29
1001
0000
0000
0000
,  // measure 30
1010
0000
0000
0000
,  // measure 31
0101
0000
0000
0000
,  // measure 32
1010
0000
1000
0000
,  // measure 33
0001
0000
1000
0001
,  // measure 34
0100
0010
0100
0010
,  // measure 35
0000
0000
0000
0000
,  // measure 36
0000
0000
0000
0000
,  // measure 37
1000
0000
0001
0000
,  // measure 38
1000
0100
0020
0000
,  // measure 39
0031
0000
1000
0000
,  // measure 40
0001
1000
0002
0000
,  // measure 41
0013
0000
2000
0000
,  // measure 42
3010
0000
1001
0000
,  // measure 43
0010
0000
1000
0000
,  // measure 44
0001
0010
0200
0000
,  // measure 45
1300
0001
0100
0010
,  // measure 46
1000
0001
2000
0000
,  // measure 47
3010
0100
0001
0010
,  // measure 48
0100
1000
0001
1000
,  // measure 49
0010
0000
0010
1000
,  // measure 50
0001
0000
1001
0000
,  // measure 51
2000
3000
0020
0030
,  // measure 52
0200
0300
0002
0003
,  // measure 53
1000
0001
1000
0001
,  // measure 54
0100
0010
0100
0010
,  // measure 55
1000
1000
0001
1000
,  // measure 56
0100
0010
0001
1000
,  // measure 57
1000
0000
0101
0000
,  // measure 58
0010
0000
1010
0000
,  // measure 59
0001
0000
1000
0000
,  // measure 60
0010
0100
0010
1000
,  // measure 61
0001
0000
1010
0000
,  // measure 62
0000
0000
1001
0000
,  // measure 63
0010
0000
1001
0000
,  // measure 64
0000
0000
1010
0000
,  // measure 65
0100
0000
1001
0000
,  // measure 66
0000
0000
1010
0000
,  // measure 67
0001
0000
0100
0000
,  // measure 68
0010
0000
1000
0000
,  // measure 69
0001
0000
0100
0000
,  // measure 70
0010
0000
1000
0000
,  // measure 71
0010
0000
0001
0000
,  // measure 72
1000
0000
0001
0000
,  // measure 73
0010
0000
1001
0000
,  // measure 74
0100
0000
1001
0000
,  // measure 75
0010
1000
0010
0100
,  // measure 76
0001
1000
0001
1000
,  // measure 77
0001
0010
0100
1000
,  // measure 78
0001
1000
0000
0000
,  // measure 79
0000
0000
0000
0000
,  // measure 80
0000
0000
0000
0000
,  // measure 81
0001
0100
0001
1000
,  // measure 82
0020
0000
0000
0030
,  // measure 83
1000
0100
0010
1000
,  // measure 84
0002
0000
0000
0003
,  // measure 85
0100
0001
1000
0010
,  // measure 86
0200
0000
0000
0300
,  // measure 87
0001
1000
0001
0010
,  // measure 88
0100
1000
0001
0000
,  // measure 89
0001
1000
0100
0010
,  // measure 90
0001
1000
0010
0100
,  // measure 91
0001
1000
0001
0010
,  // measure 92
0100
1000
0010
0000
,  // measure 93
1001
0000
0110
0000
,  // measure 94
1001
0000
0110
0000
,  // measure 95
1001
0000
0000
1001
;

//---------------dance-single - ----------------
#NOTES:
     dance-single:
     :
     Beginner:
     2:
     0.098893,0.219086,0.121715,0.038036,0.000000,91.000000,75.000000,16.000000,5.000000,0.000000,0.000000,0.098893,0.219086,0.121715,0.038036,0.000000,91.000000,75.000000,16.000000,5.000000,0.000000,0.000000:
// measure 0
0000
0000
0000
0000
,  // measure 1
0000
0000
0000
0000
,  // measure 2
0000
0000
0000
0000
,  // measure 3
0000
0000
0000
0000
,  // measure 4
1001
0000
0000
0000
,  // measure 5
0010
0000
0000
0000
,  // measure 6
0100
0000
0000
0000
,  // measure 7
0001
0000
0000
0000
,  // measure 8
1001
0000
0000
0000
,  // measure 9
0100
0000
0000
0000
,  // measure 10
0010
0000
0000
0000
,  // measure 11
1000
0000
0000
0000
,  // measure 12
0001
0000
0000
0000
,  // measure 13
0100
0000
0000
0000
,  // measure 14
0001
0000
0000
0000
,  // measure 15
1000
0000
0000
0000
,  // measure 16
0010
0000
0000
0000
,  // measure 17
0100
0000
0000
0000
,  // measure 18
0001
0000
0000
0000
,  // measure 19
1000
0000
0000
0000
,  // measure 20
0002
0000
0000
0000
,  // measure 21
0003
0000
0000
0000
,  // measure 22
0200
0000
0000
0000
,  // measure 23
0300
0000
0000
0000
,  // measure 24
0020
0000
0000
0000
,  // measure 25
0030
0000
0000
0000
,  // measure 26
1000
0000
0000
0000
,  // measure 27
0001
0000
0000
0000
,  // measure 28
0010
0000
0000
0000
,  // measure 29
0100
0000
0000
0000
,  // measure 30
0001
0000
0000
0000
,  // measure 31
1000
0000
0000
0000
,  // measure 32
0001
0000
0000
0000
,  // measure 33
1000
0000
0000
0000
,  // measure 34
0010
0000
0000
0000
,  // measure 35
0000
0000
0000
0000
,  // measure 36
0000
0000
0000
0000
,  // measure 37
1001
0000
0000
0000
,  // measure 38
0000
0000
0000
0000
,  // measure 39
0110
0000
0000
0000
,  // measure 40
0000
0000
0000
0000
,  // measure 41
0001
0000
0000
0000
,  // measure 42
1000
0000
0000
0000
,  // measure 43
0010
0000
0000
0000
,  // measure 44
1000
0000
0000
0000
,  // measure 45
1001
0000
0000
0000
,  // measure 46
0000
0000
0000
0000
,  // measure 47
1010
0000
0000
0000
,  // measure 48
0000
0000
0000
0000
,  // measure 49
0001
0000
0000
0000
,  // measure 50
1000
0000
0000
0000
,  // measure 51
0010
0000
0000
0000
,  // measure 52
1000
0000
0000
0000
,  // measure 53
0002
0000
0000
0000
,  // measure 54
0000
0000
0003
0000
,  // measure 55
2000
0000
0000
0000
,  // measure 56
0000
0000
3000
0000
,  // measure 57
1001
0000
0000
0000
,  // measure 58
0000
0000
0000
0000
,  // measure 59
0010
0000
0000
0000
,  // measure 60
1000
0000
0000
0000
,  // measure 61
0001
0000
0000
0000
,  // measure 62
1000
0000
0000
0000
,  // measure 63
0010
0000
0000
0000
,  // measure 64
0100
0000
0000
0000
,  // measure 65
0001
0000
0000
0000
,  // measure 66
1000
0000
0000
0000
,  // measure 67
0010
0000
0000
0000
,  // measure 68
1000
0000
0000
0000
,  // measure 69
0001
0000
0000
0000
,  // measure 70
0001
0000
0000
0000
,  // measure 71
1000
0000
0000
0000
,  // measure 72
1000
0000
0000
0000
,  // measure 73
0010
0000
0000
0000
,  // measure 74
0010
0000
0000
0000
,  // measure 75
0010
0000
0000
0000
,  // measure 76
1000
0000
0000
0000
,  // measure 77
1001
0000
0000
0000
,  // measure 78
0000
0000
0000
0000
,  // measure 79
0000
0000
0000
0000
,  // measure 80
0000
0000
0000
0000
,  // measure 81
1010
0000
0000
0000
,  // measure 82
0000
0000
0000
0000
,  // measure 83
1001
0000
0000
0000
,  // measure 84
0000
0000
0000
0000
,  // measure 85
0101
0000
0000
0000
,  // measure 86
0000
0000
0000
0000
,  // measure 87
1001
0000
0000
0000
,  // measure 88
1000
0000
0000
0000
,  // measure 89
0010
0000
0000
0000
,  // measure 90
1000
0000
0000
0000
,  // measure 91
0001
0000
0000
0000
,  // measure 92
0100
0000
0000
0000
,  // measure 93
1001
0000
0000
0000
,  // measure 94
1010
0000
0000
0000
,  // measure 95
1001
0000
0000
0000
,  // measure 96
0101
0000
0000
0000
;
