#VERSION:0.83;
#TITLE:+Greatest Day;
#SUBTITLE:;
#ARTIST:Dan Thiessen;
#TITLETRANSLIT:;
#SUBTITLETRANSLIT:;
#ARTISTTRANSLIT:;
#GENRE:;
#ORIGIN:;
#CREDIT:;
#BANNER:bn.png;
#BACKGROUND:bg.png;
#PREVIEWVID:;
#JACKET:jacket.png;
#CDIMAGE:;
#DISCIMAGE:;
#LYRICSPATH:;
#CDTITLE:;
#MUSIC:Greatest Day.ogg;
#OFFSET:-0.718000;
#SAMPLESTART:53.978027;
#SAMPLELENGTH:15.000009;
#SELECTABLE:YES;
#BPMS:0.000=80.000,
136.000=40.000,
144.000=80.000;
#STOPS:;
#DELAYS:;
#WARPS:;
#TIMESIGNATURES:0.000=4=4;
#TICKCOUNTS:0.000=4;
#COMBOS:0.000=1;
#SPEEDS:0.000=1.000=0.000=0;
#SCROLLS:0.000=1.000;
#FAKES:;
#LABELS:0.000=Song Start;
#BGCHANGES:;
#KEYSOUNDS:;
#ATTACKS:
;

//---------------dance-single - ----------------
#NOTEDATA:;
#CHARTNAME:;
#STEPSTYPE:dance-single;
#DESCRIPTION:;
#CHARTSTYLE:;
#DIFFICULTY:Hard;
#METER:9;
#RADARVALUES:0.457327,0.447725,0.547504,0.824477,0.173913,497.000000,412.000000,85.000000,128.000000,0.000000,0.000000,0.000000,0.000000,0.000000,0.457327,0.447725,0.547504,0.824477,0.173913,497.000000,412.000000,85.000000,128.000000,0.000000,0.000000,0.000000,0.000000,0.000000;
#CREDIT:Rajeious's Chart;
#NOTES:
// measure 0
0000
0000
0000
0000
,  // measure 1
0000
0000
0000
0000
,  // measure 2
1001
0001
1000
0001
0101
0100
0010
0100
,  // measure 3
0110
0010
1000
0010
1010
1000
0001
1000
,  // measure 4
1001
0001
0100
0001
1001
1000
0010
1000
,  // measure 5
1010
0010
0100
0010
0110
0100
0001
0100
,  // measure 6
0101
1000
0001
1000
0020
0130
0001
1000
,  // measure 7
0002
0000
0103
0000
0020
0000
1030
0000
2000
3000
0200
0300
0020
0030
0002
0003
,  // measure 8
2000
3000
0001
0000
0010
0000
0100
0000
0020
0000
0031
0000
1000
0000
0001
0000
,  // measure 9
0200
0000
0310
0000
2000
0000
3001
0000
0002
0003
0020
0030
0200
0300
2000
3000
,  // measure 10
1002
0000
1003
0000
0010
0000
2000
3000
0002
0003
1001
0000
1001
0000
2001
3000
,  // measure 11
0201
0000
0310
0000
2000
0000
3001
0000
0002
0003
0120
0030
0200
0300
2000
3000
,  // measure 12
0002
0003
1001
0000
1001
0000
2001
3000
0020
0030
0110
0000
0110
0000
0210
0300
,  // measure 13
0002
0003
1001
0000
1001
0000
1001
0000
0002
0003
0020
0030
0200
0300
2000
3000
,  // measure 14
0002
1000
0010
1000
0100
1000
0203
0010
,  // measure 15
0320
1000
0100
1000
2030
0001
0010
0001
,  // measure 16
3002
0010
1000
0100
1000
0010
0023
0100
,  // measure 17
0230
1000
0010
1000
0300
0000
1001
0001
,  // measure 18
1001
0000
2000
0000
3020
0000
1030
0001
1000
0000
0010
0000
0200
0000
0301
1000
,  // measure 19
0001
0000
0100
0010
0100
0000
0001
0000
0002
0003
0020
0030
0200
0300
2000
3000
,  // measure 20
1001
0000
0020
0000
0230
0000
0301
1000
0010
0000
1000
0000
0002
0000
1003
0010
,  // measure 21
1000
0000
0001
0100
0001
0000
1000
0000
0020
0000
1000
0000
0130
0000
1001
0000
,  // measure 22
1001
0000
1000
0001
0100
0000
0001
1000
0010
0000
0100
0001
1000
0000
0010
0000
,  // measure 23
0110
0000
1000
0001
1000
0000
0001
1000
0001
0000
1000
0100
1000
0000
0001
0000
,  // measure 24
1001
0000
1000
0010
0100
0000
0001
0100
0010
0000
1000
0010
0100
0000
0001
0000
,  // measure 25
0101
0000
1000
0001
1000
0000
1001
0000
0010
0000
1001
0000
1001
0000
1001
0000
,  // measure 26
0110
0000
0020
0030
0120
0030
0020
0030
1001
0000
2000
3000
2001
3000
2000
3000
,  // measure 27
1010
0000
0020
0030
1020
0030
0020
0030
0101
0000
0002
0003
0102
0003
0002
0003
,  // measure 28
1100
0000
0200
0300
1200
0300
0200
0300
0011
0000
0020
0030
0021
0030
0020
0030
,  // measure 29
1001
0000
0002
0003
1002
0003
0002
0003
1010
0000
2000
3000
2010
3000
2000
3000
,  // measure 30
0101
0100
0010
1000
1001
0001
0100
0010
,  // measure 31
1010
1000
0001
0100
0101
1001
1010
1001
,  // measure 32
0110
0010
0100
0010
1001
1000
0001
0100
,  // measure 33
0110
0010
1000
0001
1001
0010
0100
1000
,  // measure 34
0000
0002
2003
3002
0000
0000
0203
0320
0000
0000
0000
0000
2030
3200
0320
0032
,  // measure 35
0000
0000
2003
0000
3020
0000
0230
0000
0000
0000
0000
0000
0302
0000
2003
0000
0000
0000
0000
0000
0000
0000
0000
0000
3002
0000
0203
0000
0310
0100
0010
0100
,  // measure 36
0110
0000
2000
0000
3002
0000
0203
0000
0001
0000
0001
0000
0310
1000
0010
0000
,  // measure 37
0110
0000
1000
0000
0001
0000
1000
0010
0100
0001
1000
0000
1000
0001
1000
0001
,  // measure 38
1001
0000
0200
0000
0320
0000
2030
0000
0010
0000
0001
0000
3001
0100
0010
0000
,  // measure 39
1010
0000
0001
0000
1000
0000
0010
0100
0010
0100
0001
0000
0001
1000
0001
1000
,  // measure 40
1001
0000
0020
0000
2030
0000
3001
0100
0001
0000
0100
0000
0010
1000
0001
0000
,  // measure 41
0101
0000
1000
0000
0010
0100
0010
1000
0001
0000
1000
0100
0010
0001
0010
0001
,  // measure 42
0011
0000
2000
0000
3002
0000
0103
0010
0100
0000
0001
0000
0200
0000
0302
0000
,  // measure 43
1003
0100
1000
0100
0010
0100
0010
0001
1000
0001
1000
0100
1000
0100
0010
0001
,  // measure 44
1000
0000
0020
0030
1020
0030
0020
0030
1001
0000
2000
3000
2001
3000
2000
3000
,  // measure 45
1010
0000
0020
0030
1020
0030
0020
0030
0101
0000
0002
0003
0102
0003
0002
0003
,  // measure 46
1100
0000
0200
0300
1200
0300
0200
0300
0011
0000
0020
0030
0021
0030
0020
0030
,  // measure 47
1001
0000
0002
0003
1002
0003
0002
0003
1010
0000
2000
3000
2010
3000
2000
3000
;

//---------------dance-single - ----------------
#NOTEDATA:;
#CHARTNAME:;
#STEPSTYPE:dance-single;
#DESCRIPTION:;
#CHARTSTYLE:;
#DIFFICULTY:Medium;
#METER:5;
#RADARVALUES:0.247527,0.276812,0.070853,0.096618,0.000000,269.000000,258.000000,11.000000,15.000000,0.000000,0.000000,0.000000,0.000000,0.000000,0.247527,0.276812,0.070853,0.096618,0.000000,269.000000,258.000000,11.000000,15.000000,0.000000,0.000000,0.000000,0.000000,0.000000;
#CREDIT:Rajeious's Chart;
#NOTES:
// measure 0
0000
0000
0000
0000
,  // measure 1
0000
0000
0000
0000
,  // measure 2
0001
0001
0100
0100
,  // measure 3
0010
0010
1000
1000
,  // measure 4
0010
0100
0100
0001
,  // measure 5
0001
0100
0100
0010
,  // measure 6
0010
0000
1000
0001
1000
0000
1000
0010
,  // measure 7
0100
0000
0010
0000
1000
0001
1000
0100
,  // measure 8
1000
0000
0001
0100
0001
0000
0010
0000
,  // measure 9
0100
0000
0010
0000
1000
0000
0010
0001
,  // measure 10
1001
0000
1000
0001
0010
0100
0100
0001
,  // measure 11
1000
0000
0001
0000
0001
0010
0100
1000
,  // measure 12
0001
1000
1000
0001
0010
0100
0100
1000
,  // measure 13
0001
0000
0100
0000
0001
1000
0001
0010
,  // measure 14
0200
1000
0010
0320
,  // measure 15
0230
1000
2300
0001
,  // measure 16
3002
0100
1000
2003
,  // measure 17
3020
0100
0130
0000
,  // measure 18
1010
1000
0010
1000
0001
0000
0001
0100
,  // measure 19
0001
0000
1000
0000
0010
1000
0001
0100
,  // measure 20
0101
0001
1000
0010
1000
0000
0010
0100
,  // measure 21
0001
0000
1000
0000
0010
1000
0001
1000
,  // measure 22
1001
0001
0100
0010
0100
0000
0010
1000
,  // measure 23
0001
0000
0100
0000
0010
1000
0001
0100
,  // measure 24
0101
0001
1000
0010
1000
0000
0010
0100
,  // measure 25
0001
0000
1000
0000
0001
1000
0001
1000
,  // measure 26
1001
0001
0010
0010
,  // measure 27
0100
0100
1000
1000
,  // measure 28
0001
0001
1000
1000
,  // measure 29
0010
0000
0010
0000
0100
0000
0100
0001
,  // measure 30
1000
0000
1000
0010
0100
0000
0100
0001
,  // measure 31
0010
0000
0010
0000
0001
1000
0100
0010
,  // measure 32
0001
0000
0001
1000
0010
0000
0010
0100
,  // measure 33
0001
0000
1000
0000
1000
0100
0010
0001
,  // measure 34
2000
3002
2003
3020
,  // measure 35
0230
0000
0302
0000
2003
0000
3020
0130
,  // measure 36
0110
0010
1000
0001
1000
0000
0010
0100
,  // measure 37
0010
1000
0001
1000
0001
0010
0100
0010
,  // measure 38
1001
1000
0001
0100
0010
0000
1000
0001
,  // measure 39
1000
0001
0100
0010
0100
0010
1000
0001
,  // measure 40
1001
1000
0010
0100
0010
0000
1000
0001
,  // measure 41
0100
0001
0100
0010
1000
0010
1000
0001
,  // measure 42
1001
1000
0001
0100
0010
0000
0010
0100
,  // measure 43
0001
1000
0010
0100
0001
1000
0001
1000
,  // measure 44
1001
1000
0100
0100
,  // measure 45
0010
0010
0001
0001
,  // measure 46
1000
1000
0100
0100
,  // measure 47
0010
0010
0001
0001
;

//---------------dance-single - ----------------
#NOTEDATA:;
#CHARTNAME:;
#STEPSTYPE:dance-single;
#DESCRIPTION:;
#CHARTSTYLE:;
#DIFFICULTY:Easy;
#METER:2;
#RADARVALUES:0.142627,0.168277,0.032206,0.045089,0.000000,155.000000,150.000000,5.000000,7.000000,0.000000,0.000000,0.000000,0.000000,0.000000,0.142627,0.168277,0.032206,0.045089,0.000000,155.000000,150.000000,5.000000,7.000000,0.000000,0.000000,0.000000,0.000000,0.000000;
#CREDIT:Rajeious's Chart;
#NOTES:
// measure 0
0000
0000
0000
0000
,  // measure 1
0000
0000
0000
0000
,  // measure 2
1000
0000
1000
0000
,  // measure 3
0010
0000
0010
0000
,  // measure 4
0100
0000
0100
0000
,  // measure 5
0001
0000
0001
0000
,  // measure 6
1000
0010
0010
0100
,  // measure 7
0001
0001
1000
0010
,  // measure 8
0100
0001
1000
0001
,  // measure 9
0100
0010
1000
0010
,  // measure 10
0100
0000
0001
0000
,  // measure 11
1000
0010
0100
0001
,  // measure 12
0010
0000
0001
0000
,  // measure 13
1000
0000
0010
0100
,  // measure 14
0010
1000
0100
0010
,  // measure 15
0001
1000
0010
0100
,  // measure 16
0001
0010
0100
0010
,  // measure 17
0001
1000
0010
0000
,  // measure 18
1000
0001
1000
0010
,  // measure 19
0100
0001
1000
0100
,  // measure 20
0010
0001
0010
0100
,  // measure 21
1000
0001
0010
0001
,  // measure 22
1000
0100
1000
0100
,  // measure 23
0010
0001
1000
0001
,  // measure 24
0100
0010
1000
0001
,  // measure 25
1000
0100
1000
0001
,  // measure 26
0100
0000
0100
0000
,  // measure 27
1000
0000
1000
0000
,  // measure 28
0001
0000
0001
0000
,  // measure 29
1000
0000
1000
0000
,  // measure 30
0010
0000
0010
0000
,  // measure 31
1000
0001
1000
0100
,  // measure 32
0010
0000
1000
0000
,  // measure 33
0001
0000
1000
0001
,  // measure 34
0200
0320
2030
3002
,  // measure 35
0203
0000
0302
0000
2003
0000
3010
0010
,  // measure 36
1010
1000
0001
0100
,  // measure 37
0001
1000
1000
0001
,  // measure 38
1001
1000
0010
0100
,  // measure 39
0001
0010
0100
0010
,  // measure 40
0110
0100
1000
0001
,  // measure 41
1000
0010
0100
0001
,  // measure 42
0101
0100
0001
1000
,  // measure 43
0010
0100
0010
1000
,  // measure 44
1010
0000
0010
0000
,  // measure 45
1000
0000
1000
0000
,  // measure 46
0001
0000
0001
0000
,  // measure 47
0100
0000
0100
0000
;
