#VERSION:0.83;
#TITLE:Galileo;
#SUBTITLE:;
#ARTIST:Kep1er;
#TITLETRANSLIT:;
#SUBTITLETRANSLIT:;
#ARTISTTRANSLIT:;
#GENRE:;
#ORIGIN:;
#CREDIT:;
#BANNER:AV.avi;
#BACKGROUND:bg.png;
#PREVIEWVID:;
#JACKET:jacket.png;
#CDIMAGE:;
#DISCIMAGE:;
#LYRICSPATH:;
#CDTITLE:;
#MUSIC:audio.ogg;
#OFFSET:-0.144000;
#SAMPLESTART:39.736015;
#SAMPLELENGTH:15.000007;
#SELECTABLE:YES;
#BPMS:0.000=119.000;
#STOPS:;
#DELAYS:;
#WARPS:;
#TIMESIGNATURES:0.000=4=4;
#TICKCOUNTS:0.000=4;
#COMBOS:0.000=1;
#SPEEDS:0.000=1.000=0.000=0;
#SCROLLS:0.000=1.000,
173.000=0.500,
175.750=0.800,
176.000=0.900,
176.500=1.000;
#FAKES:;
#LABELS:0.000=Song Start;
#BGCHANGES:0.000=MV.avi=1.200=1=0=1===CrossFade==,
4.000=MV.avi=1.000=0=0=1=====,
99999=-nosongbg-=1.000=0=0=0 // don't automatically add -songbackground-
;
#KEYSOUNDS:;
#ATTACKS:
;

//---------------dance-single - ----------------
#NOTEDATA:;
#CHARTNAME:;
#STEPSTYPE:dance-single;
#DESCRIPTION:;
#CHARTSTYLE:;
#DIFFICULTY:Hard;
#METER:11;
#RADARVALUES:0.491676,0.508988,0.032317,0.226217,0.230257,426.000000,422.000000,4.000000,28.000000,0.000000,0.000000,0.000000,0.000000,0.000000,0.491676,0.508988,0.032317,0.226217,0.230257,426.000000,422.000000,4.000000,28.000000,0.000000,0.000000,0.000000,0.000000,0.000000;
#CREDIT:Musey's Chart;
#NOTES:
0000
0000
0000
0000
,
0000
0000
0000
0000
,
0000
0000
0000
0000
,
0000
0000
0000
0000
,
2000
0000
3010
0000
1000
0010
1000
0100
,
0010
0100
1000
0010
0100
1000
0100
0010
,
2000
0000
3001
0000
0001
0100
0001
0010
,
0100
0010
0001
0100
0010
0001
0010
0100
,
0002
0000
1003
0000
0100
1000
0100
0010
,
0001
0010
1000
0010
0001
0100
0010
1000
,
0010
1000
0001
0100
0002
0000
0013
0100
,
0020
0000
0130
1000
0001
0100
0002
0000
,
0103
0000
0001
0100
1000
0100
0001
0010
,
1000
0010
0001
0100
0001
2000
3010
0000
,
0100
0000
1000
0000
0001
0000
0000
1000
0000
0000
0002
0000
0103
0000
0000
0000
,
0100
0000
0010
0000
0100
0000
0000
0010
0000
0000
0200
0000
0301
0000
0010
0000
,
0200
0000
0310
1000
0010
0100
1000
0001
,
0010
0001
0100
0010
0001
0020
0031
0000
,
0001
0000
0010
0000
1000
0000
0000
0001
0000
0000
0200
0000
0301
0000
0000
0000
,
0100
0000
0001
0000
2000
0000
0000
0000
0000
0000
0000
0000
3001
0000
0100
0001
,
0100
0000
0001
0000
2000
0000
0000
0000
3001
0000
1000
0100
0010
0100
1000
0000
,
0010
0000
1000
0100
0010
0100
1000
0000
0010
0000
1000
0000
0010
0000
0200
0000
,
0001
0000
0000
0000
0310
0000
0001
0000
0010
0000
0100
0000
1000
0000
0100
0010
,
0100
0000
0010
0000
0001
0000
0010
0000
1000
0000
0010
0000
0001
0000
1000
0100
,
1000
0000
0001
0000
2000
0000
0000
0000
3001
0000
1000
0010
0001
0010
1000
0000
,
0010
0000
0010
1000
0010
0001
0010
0000
1000
0000
0010
0000
1000
0000
0200
0000
,
1000
0000
0000
0000
1300
0000
0001
0000
0010
0000
0100
0000
1000
0000
0100
0010
,
0100
1000
0001
0100
0010
0100
0001
1000
,
1000
1000
0001
0000
0100
0000
0001
0000
,
0100
0000
0001
0000
0100
0000
0000
0001
0000
0000
0010
0000
0100
0000
0000
0010
,
0000
0001
2000
0000
0010
0000
0100
0000
,
3001
0000
0000
0000
0100
0000
0000
0001
0000
0000
0100
0000
0010
0000
0000
1000
,
0000
0100
0020
0000
0001
0000
0100
0000
,
0031
0000
0100
0000
0001
0000
0000
1000
0000
0000
0100
0000
0010
0000
0000
0100
,
0000
1000
0002
0000
1000
0000
0010
0000
,
0103
0010
1000
0000
0010
0000
0100
0010
,
0110
0000
0001
1000
0001
0000
0000
0100
0000
0000
0001
0000
0010
0000
0020
0000
,
0030
0000
0001
1000
0100
0000
0100
0000
1000
0000
1000
0010
0100
0000
0001
0000
,
0010
0000
0010
0000
0001
0000
0000
0001
0000
0000
0100
0000
0001
0000
1000
0000
,
0100
0000
1000
0001
1000
0000
0001
1000
0000
0000
0001
1000
0001
1000
0001
0010
,
0100
0000
0010
0100
0010
0000
0000
0010
0000
0000
0100
0000
1000
0000
2000
0000
,
3000
0000
0100
1000
0001
0000
1000
0000
1001
0000
0001
0010
0001
0000
0010
0000
,
0011
0000
0001
0000
0100
0000
0000
0100
0000
0000
0010
0000
0200
0000
0300
0000
,
0001
0010
0100
0010
0001
0000
1000
0000
0002
0000
0000
0003
1000
0000
0001
1000
,
0100
0000
0010
0000
0200
0000
0000
0000
0310
0000
0100
1000
0100
0001
0100
0000
,
0010
0000
0100
1000
0100
0001
0100
0000
0010
0000
0100
0000
0010
0000
0002
0000
,
1000
0000
1003
0010
0100
0001
0010
0100
,
0010
0001
1000
0100
1000
0001
0010
1000
,
0010
0000
0001
0000
0200
0000
0000
0000
0310
0000
0001
0010
0001
1000
0001
0000
,
0100
0000
0001
1000
0001
0010
0001
0000
0100
0000
0001
0000
0100
0000
0002
0000
,
1000
0000
1003
0100
0010
0100
1000
0001
,
0100
0001
0010
0001
1000
0100
1000
0010
,
0010
0000
0010
0000
0001
0000
0000
0100
0000
0000
0001
0000
0100
0000
0000
0001
,
0000
0000
0010
0000
0100
0000
1000
0100
1000
0000
0001
0100
0001
0000
0010
0000
,
0100
0000
0010
0000
0001
0000
0000
0001
0000
0000
1000
0000
0010
0000
0000
0010
,
0000
1000
0001
1000
0010
0100
0001
0010
,
1000
0000
0010
0000
0001
0000
0000
0001
0000
0000
0100
0000
0010
0000
0000
0010
,
0000
1000
0100
0010
0001
0010
0100
0010
,
0100
0000
0010
0000
0001
0000
1000
0000
0100
0000
1000
0100
1000
0000
0001
0000
,
0010
0000
0100
1000
0100
0000
0010
0000
0001
0000
0010
0000
0001
0000
1000
0000
,
1001
0000
0000
0000
;

//---------------dance-single - ----------------
#NOTEDATA:;
#CHARTNAME:;
#STEPSTYPE:dance-single;
#DESCRIPTION:;
#CHARTSTYLE:;
#DIFFICULTY:Beginner;
#METER:2;
#RADARVALUES:0.159275,0.168956,0.000000,0.169663,0.000000,138.000000,138.000000,0.000000,21.000000,0.000000,0.000000,0.000000,0.000000,0.000000,0.159275,0.168956,0.000000,0.169663,0.000000,138.000000,138.000000,0.000000,21.000000,0.000000,0.000000,0.000000,0.000000,0.000000;
#CREDIT:;
#NOTES:
0000
0000
0000
0000
,
0000
0000
0000
0000
,
0000
0000
0000
0000
,
0000
0000
0000
0000
,
0000
1000
0000
1000
,
0000
0001
0100
0002
,
0000
0103
0000
0100
,
0000
0010
0100
0020
,
0000
1030
0000
1000
,
0000
0001
1000
0002
,
0000
0103
0000
0100
,
0000
0010
0100
0020
,
0000
1030
0000
1000
,
0000
0001
0100
0001
,
0000
0020
0000
0031
,
0000
0002
0000
0103
,
0000
0010
1000
0010
,
0000
0100
0001
0100
,
0000
0002
0000
1003
,
0000
2000
0000
3001
,
0000
0100
0000
0100
,
0010
0100
0100
0010
,
0000
2000
0000
3001
,
0000
0020
0000
0031
,
0000
0200
0000
0301
,
0000
0001
1000
0001
,
0000
0200
0000
0301
,
0000
1000
0100
1000
,
0000
0010
0000
0010
,
0000
1000
0000
1000
,
0000
0001
0000
0001
,
0000
0100
0000
0100
,
0000
0001
0000
0001
,
0000
1000
0000
1000
,
0000
0020
0000
0130
,
0000
1000
0001
1000
,
0000
0100
0100
0001
,
0000
1000
0001
1000
,
0000
0100
0100
1000
,
0000
0001
0010
0001
,
0000
1000
0010
1000
,
0000
0001
0100
0001
,
0000
1000
1000
0010
,
0000
2000
0000
0000
,
0000
3001
0000
0100
,
0001
0100
0100
0001
,
0000
1000
0000
1000
,
0000
0010
0100
0020
,
0000
1030
0000
0001
,
0000
1000
0001
1000
,
0000
0200
0000
0301
,
0000
0010
0001
1000
,
0000
0200
0000
1300
,
0000
1000
0001
1000
,
0000
0020
0000
1030
,
0000
0100
1000
0100
,
0000
0020
0000
0031
,
0000
0100
0001
0100
,
0000
0002
0000
1003
,
0000
2000
0000
3001
;

//---------------dance-single - ----------------
#NOTEDATA:;
#CHARTNAME:;
#STEPSTYPE:dance-single;
#DESCRIPTION:;
#CHARTSTYLE:;
#DIFFICULTY:Challenge;
#METER:14;
#RADARVALUES:0.642872,0.775601,0.218138,0.315088,0.581701,557.000000,530.000000,27.000000,39.000000,0.000000,0.000000,0.000000,0.000000,0.000000,0.642872,0.775601,0.218138,0.315088,0.581701,557.000000,530.000000,27.000000,39.000000,0.000000,0.000000,0.000000,0.000000,0.000000;
#CREDIT:Rajeious's Chart;
#NOTES:
0000
0000
0000
0000
,
0000
0000
0000
0000
,
0000
0000
0000
0000
,
0000
0000
0000
0000
0000
0000
0000
1000
,
1000
0000
0001
0010
0001
0000
1000
0000
0100
0000
1000
0100
1000
0001
0010
0000
,
0001
0000
1000
0000
0001
0100
0001
0100
0010
0000
0010
0000
0100
0000
0010
0000
,
2000
0000
0000
0000
3001
0000
0100
0000
0001
0000
1000
0000
0001
0010
0100
0000
,
1000
0000
0100
1000
0001
0100
0001
0000
1000
0000
0010
0000
0100
0001
1000
0000
,
0200
0000
0310
0001
1000
0001
1001
0100
,
0010
0100
0101
0001
0100
0001
1001
0100
,
1001
0000
0010
0000
1001
0000
0100
0000
0001
0000
1000
0100
0010
0000
0002
0000
,
1003
0000
0100
0000
1000
0010
1000
0100
0010
0000
0001
0000
0010
0000
0001
1000
,
0001
1000
0010
0000
0100
0000
0100
0001
1000
0000
0010
0000
1000
0000
0000
1000
,
0000
0000
1000
0000
0001
0000
0001
0100
0001
0000
1000
0000
0010
0000
0000
0010
,
0000
0000
0010
0000
1000
0000
0001
0100
0001
0000
1000
0000
0010
0000
0000
0010
,
0000
0000
0010
0000
1000
0000
1000
0001
1000
0000
0010
0000
0100
0000
0001
0010
,
0001
1000
0001
0000
0100
0000
0010
1000
0010
0000
0100
0000
0001
0010
0100
0010
,
0001
1000
0100
0000
1000
0000
0001
1000
0001
0000
0100
0000
0001
0010
0001
1000
,
0001
0100
0010
0000
1000
0000
1000
0000
0001
0000
0001
0000
0100
0000
0100
0000
,
0001
0010
0100
1000
0001
0000
0100
0000
0002
0000
0000
0000
0003
0000
1000
0100
,
0010
0100
0010
0000
0001
0000
0100
0000
0001
0000
0010
1000
0010
0001
2000
0000
,
3100
0000
0010
1000
0010
0001
2000
0000
3100
0000
2000
0000
3100
0000
1000
0001
,
1000
0000
0010
0000
0100
0000
0001
0100
1000
0100
0001
0000
1000
0000
0010
0100
,
0010
0000
1000
0100
0010
0001
0000
0010
0000
0001
0010
0000
0001
0100
0001
1000
,
0100
0010
0001
0100
0002
0000
1003
0000
1001
0000
1000
0010
1000
0100
0020
0000
,
0031
0000
1000
0010
1000
0100
0020
0000
0031
0000
0020
0000
0031
0000
1000
0001
,
1000
0000
0010
0000
0100
0000
0001
1000
0001
0100
0010
0000
1000
0000
0001
0010
,
0100
0000
1000
0000
0001
0010
0001
0000
0100
0001
1000
0010
0100
0000
0001
0000
,
0010
0001
1000
0000
0200
0000
0000
0000
0000
0000
0000
0000
0000
0000
0000
0000
,
0000
2300
0000
0000
,
0000
3020
0000
0000
,
0000
2030
0000
3002
,
0000
2003
3010
0002
,
0013
2000
3100
0002
,
0103
2000
3010
0002
,
1003
0200
0000
0300
,
0010
1000
0010
1000
0001
0010
0100
0001
0100
1000
0001
0000
1001
0000
0020
0000
,
0130
0000
0001
0010
0001
1000
0100
0000
1000
0000
0100
0010
0001
1000
0100
0000
,
1000
0010
0100
0001
0010
0001
1000
0001
0010
0100
1000
0000
1100
0000
0001
0000
,
0001
1000
0010
0100
0001
1000
0100
0010
0001
1000
0010
0100
0001
0010
0001
1000
,
0001
0010
0100
0010
0001
1000
0100
1000
0001
0100
0010
0000
0110
0000
2000
0000
,
3001
0000
1000
0100
0001
0100
1000
0000
0010
0000
1000
0100
0001
0100
1000
0000
,
1000
0010
0100
0001
1000
0001
0010
0100
1000
0001
0100
0000
0101
0000
0001
0000
,
1000
0010
1000
0001
0100
0000
0001
0000
0020
0000
0000
0000
0030
0000
0001
1000
,
0001
1000
0010
0000
1000
0000
0010
0000
0100
0000
0001
1000
0001
0100
0020
0000
,
0130
0000
0000
0000
0000
0000
0000
0000
0000
0000
0000
0000
0000
0000
0000
0000
0000
0000
0000
0000
0000
0000
0000
0000
0001
0000
0000
0000
0000
0000
0000
0000
0000
0000
0000
0000
1000
0000
0000
0000
0000
0000
0000
0000
0000
0000
0000
0000
0001
0000
0000
0000
0000
0000
0000
0000
0000
0000
0000
0000
0100
0000
0000
0000
0000
0000
0000
0000
0000
0000
0000
0000
0020
0000
0000
0000
0000
0000
0000
0000
0000
0000
0000
0000
0000
0000
0000
0000
0000
0000
0000
0000
0000
0000
0000
0030
0110
0000
0000
0000
0000
0000
0000
0000
0000
0000
0000
0000
0000
0000
0000
0000
0000
0000
0000
0000
0000
0000
0000
0000
0020
0000
0000
0000
0000
0000
0000
0000
0000
0000
0000
0000
0000
0000
0000
0000
0000
0000
0000
0000
0000
0000
0000
0030
0110
0000
0000
0000
0000
0000
0000
0000
0000
0000
0000
0000
0000
0000
0000
0000
0000
0000
0000
0000
0000
0000
0000
0000
1000
0000
0000
0000
0000
0000
0000
0000
0000
0000
0000
0000
0001
0000
0000
0000
0000
0000
0000
0000
0000
0000
0000
0000
,
1000
0000
0010
0000
0100
0000
0001
0100
1000
0100
0001
0000
1000
0000
0010
0100
,
0010
0000
1000
0100
0010
0001
0000
0010
0000
0001
0010
0000
0001
0100
0001
1000
,
0100
0010
0001
0100
0002
0000
1003
0000
1001
0000
1000
0010
1000
0100
0020
0000
,
0031
0000
0000
0000
0000
0000
0000
0000
0000
0000
0000
0000
0000
0000
0000
0000
0000
0000
0000
0000
0000
0000
0000
0000
1000
0000
0000
0000
0000
0000
0000
0000
0000
0000
0000
0000
0010
0000
0000
0000
0000
0000
0000
0000
0000
0000
0000
0000
1000
0000
0000
0000
0000
0000
0000
0000
0000
0000
0000
0000
0100
0000
0000
0000
0000
0000
0000
0000
0000
0000
0000
0000
0020
0000
0000
0000
0000
0000
0000
0000
0000
0000
0000
0000
0000
0000
0000
0000
0000
0000
0000
0000
0000
0000
0000
0030
0011
0000
0000
0000
0000
0000
0000
0000
0000
0000
0000
0000
0000
0000
0000
0000
0000
0000
0000
0000
0000
0000
0000
0000
0020
0000
0000
0000
0000
0000
0000
0000
0000
0000
0000
0000
0000
0000
0000
0000
0000
0000
0000
0000
0000
0000
0000
0030
0011
0000
0000
0000
0000
0000
0000
0000
0000
0000
0000
0000
0000
0000
0000
0000
0000
0000
0000
0000
0000
0000
0000
0000
1000
0000
0000
0000
0000
0000
0000
0000
0000
0000
0000
0000
0001
0000
0000
0000
0000
0000
0000
0000
0000
0000
0000
0000
,
1000
0000
0010
0000
0100
0000
0001
1000
0001
0100
0010
0000
1000
0000
0001
0010
,
0100
0000
1000
0000
0001
0010
0001
0000
0100
0010
1000
0010
0100
0000
0001
1000
,
0100
0000
1000
0000
1010
0000
0000
0010
1000
0000
0100
0000
1100
0000
0000
1000
,
0001
0000
0010
0000
0011
0000
0001
1000
0100
0000
0010
0000
0002
0000
1003
0000
,
0002
0000
1003
0000
0101
0000
0000
0100
0001
0000
0010
0000
0011
0000
0000
1000
,
0001
0000
1000
0000
1100
0000
0100
0010
0001
0000
1000
0000
0020
0000
0130
0000
,
0020
0000
0130
0000
0101
0000
0001
1000
0010
0000
1000
0000
1100
0000
0100
0010
,
0001
0000
1000
0000
1001
0000
0010
0100
0001
0000
1000
0000
0200
0000
1300
0000
,
0200
0000
1300
0000
0001
0000
0100
0000
0110
0000
0001
1000
0001
0000
0100
0000
,
0110
0000
0001
0010
0001
0000
0100
0010
0100
0000
0010
1000
0010
0000
0100
0000
,
0101
0000
0000
0000
;

//---------------dance-single - ----------------
#NOTEDATA:;
#CHARTNAME:;
#STEPSTYPE:dance-single;
#DESCRIPTION:;
#CHARTSTYLE:;
#DIFFICULTY:Medium;
#METER:8;
#RADARVALUES:0.331246,0.339325,0.072713,0.113108,0.000000,287.000000,278.000000,9.000000,14.000000,0.000000,0.000000,0.000000,0.000000,0.000000,0.331246,0.339325,0.072713,0.113108,0.000000,287.000000,278.000000,9.000000,14.000000,0.000000,0.000000,0.000000,0.000000,0.000000;
#CREDIT:;
#NOTES:
0000
0000
0000
0000
,
0000
0000
0000
0000
,
0000
0000
0000
0000
,
0000
0000
0000
0000
,
0000
0000
0001
0000
1000
0000
0010
1000
,
0001
0000
0010
0000
0100
0000
1000
0001
,
1000
0000
0100
0000
1000
0000
0001
0010
,
0001
0000
1000
0000
0100
0000
0010
0001
,
1000
1000
1100
0001
,
0010
0000
0100
0000
1000
0000
0010
0100
,
0010
0100
0001
0000
1000
0000
0001
0010
,
0001
0000
1000
0000
0010
0100
0001
0000
,
1000
0100
0100
1000
,
0010
0000
0100
0001
0010
0001
1000
0000
,
0010
1000
0100
0010
,
0001
1000
0010
1000
,
0001
0100
1000
0100
,
0001
0010
0001
0000
1000
0000
0010
0000
,
0100
0001
1000
0000
1000
0000
0010
0000
,
0100
0001
1000
0100
0010
0000
0000
0000
,
0000
0000
0010
0000
1001
0000
0100
0010
,
0100
0000
0010
0100
0010
0000
1000
0000
,
0001
0100
0010
0000
0100
0000
0001
0000
,
1000
0100
0010
0000
0001
0000
1000
0010
,
0100
0001
0020
0000
0130
0000
1000
0001
,
0100
0000
0010
1000
0001
0000
0100
0000
,
0001
1000
0100
0000
0010
0000
0001
1000
,
0100
0000
0010
0000
0001
1000
0020
0000
,
0130
0010
1100
0010
,
0001
0100
1001
0100
,
0010
1000
0101
0010
,
1000
0100
1001
0010
,
0100
1000
1001
0010
,
0001
1000
0101
0010
,
0001
1000
1010
0100
,
0001
2000
0000
3000
,
0000
0001
1000
0001
,
1000
0000
0010
0100
0002
0000
1003
0100
,
0010
0001
1000
0000
0010
0000
1000
0000
,
0002
0000
1003
0010
0100
0000
0001
1000
,
0100
0010
0001
0000
1000
0000
0001
0000
,
0100
0000
0001
1000
0002
0000
0103
0010
,
1000
0001
0010
0000
0100
0000
1000
0000
,
0001
1000
0100
0000
0020
0000
0030
0000
,
0000
0000
0001
0000
1000
0000
0010
0100
,
0001
0000
1000
0100
0010
0000
0010
0000
,
1000
0001
1000
0000
0001
0000
0001
1000
,
0100
0000
0010
0000
0001
1000
0010
0100
,
0001
0010
0200
0000
1300
0000
0001
0100
,
0001
0000
1000
0100
0010
0000
0010
0000
,
0001
0100
0001
0000
0010
0000
0100
1000
,
0001
0000
0100
0000
0010
0100
0010
0000
,
0010
0000
0200
0000
0301
1000
0020
0000
,
1030
0100
0010
0000
0010
0000
0100
1000
,
0100
1000
0002
0000
0103
0010
2000
0000
,
3001
0010
0100
0000
1000
0000
0001
0100
,
0001
0100
0020
0000
1030
0100
0020
0000
,
0031
1000
0100
0000
0100
0000
1000
0001
,
1000
0001
0010
0000
0100
0000
1000
0010
,
1000
0000
0100
0000
0001
0000
0010
1000
,
0100
0000
0000
0000
;

//---------------dance-single - ----------------
#NOTEDATA:;
#CHARTNAME:;
#STEPSTYPE:dance-single;
#DESCRIPTION:;
#CHARTSTYLE:;
#DIFFICULTY:Easy;
#METER:4;
#RADARVALUES:0.228525,0.242375,0.032317,0.258534,0.000000,198.000000,194.000000,4.000000,32.000000,0.000000,0.000000,0.000000,0.000000,0.000000,0.228525,0.242375,0.032317,0.258534,0.000000,198.000000,194.000000,4.000000,32.000000,0.000000,0.000000,0.000000,0.000000,0.000000;
#CREDIT:;
#NOTES:
// measure 0
0000
0000
0000
0000
,  // measure 1
0000
0000
0000
0000
,  // measure 2
0000
0000
0000
0000
,  // measure 3
0000
0000
0000
0000
,  // measure 4
0000
1000
0001
1000
,  // measure 5
0001
0100
0010
0200
,  // measure 6
0000
0310
0100
0001
,  // measure 7
0010
0100
0010
0002
,  // measure 8
0000
1003
0001
2000
,  // measure 9
0000
3010
0100
0010
,  // measure 10
0010
0100
0010
2000
,  // measure 11
0000
3100
1000
0200
,  // measure 12
0000
0310
0010
0001
,  // measure 13
0001
0100
0100
0001
,  // measure 14
0100
0001
0001
0010
,  // measure 15
0010
0001
0001
1000
,  // measure 16
1000
0100
1000
0100
,  // measure 17
0010
0001
0010
0100
,  // measure 18
0010
0001
1000
0010
,  // measure 19
1000
0020
0000
0100
,  // measure 20
0130
0010
1000
0001
,  // measure 21
1001
1000
0001
1000
,  // measure 22
0001
0010
0100
0010
,  // measure 23
0010
0100
1000
0001
,  // measure 24
1000
0010
1000
0010
,  // measure 25
1010
0010
0100
0100
,  // measure 26
0010
1000
0100
1000
,  // measure 27
1000
0001
0100
0001
,  // measure 28
0010
0002
0000
0103
,  // measure 29
0000
2000
0000
3010
,  // measure 30
0000
0200
0000
0310
,  // measure 31
0000
0002
0000
0103
,  // measure 32
0000
1000
1000
0002
,  // measure 33
0000
0103
0100
0020
,  // measure 34
0000
2030
0000
3002
,  // measure 35
0000
0203
0000
0301
,  // measure 36
0000
1000
1000
0001
,  // measure 37
1000
0002
0000
0103
,  // measure 38
0000
0010
0100
0010
,  // measure 39
0010
2000
0000
3001
,  // measure 40
0000
0100
0001
0100
,  // measure 41
0100
0002
0000
0013
,  // measure 42
0000
0100
0001
0100
,  // measure 43
0000
2002
0000
3003
,  // measure 44
0000
0002
0103
0001
,  // measure 45
0010
0001
0001
0200
,  // measure 46
0301
1000
1000
0010
,  // measure 47
0010
1000
0100
0010
,  // measure 48
0001
0200
0301
0010
,  // measure 49
0001
0100
0100
0001
,  // measure 50
1000
0020
1030
2000
,  // measure 51
3010
1000
0100
0010
,  // measure 52
0010
0001
0001
0100
,  // measure 53
0100
0001
0100
0002
,  // measure 54
0013
0100
0100
0010
,  // measure 55
0010
0100
1000
0002
,  // measure 56
1003
2000
3001
0020
,  // measure 57
0130
0100
0010
2000
,  // measure 58
3010
0002
0013
0200
,  // measure 59
0301
1000
1000
1000
,  // measure 60
1001
0000
0000
0000
;
