#VERSION:0.83;
#TITLE:Dream of Memories;
#SUBTITLE:;
#ARTIST:Abel & Inu;
#TITLETRANSLIT:;
#SUBTITLETRANSLIT:;
#ARTISTTRANSLIT:;
#GENRE:;
#ORIGIN:;
#CREDIT:;
#BANNER:AV.avi;
#BACKGROUND:bg.png;
#PREVIEWVID:;
#JACKET:jacket.png;
#CDIMAGE:;
#DISCIMAGE:;
#LYRICSPATH:;
#CDTITLE:;
#MUSIC:audio.ogg;
#OFFSET:-0.395000;
#SAMPLESTART:55.222000;
#SAMPLELENGTH:15.000000;
#SELECTABLE:YES;
#BPMS:0.000=151.990;
#STOPS:;
#DELAYS:;
#WARPS:;
#TIMESIGNATURES:0.000=4=4;
#TICKCOUNTS:0.000=4;
#COMBOS:0.000=1;
#SPEEDS:0.000=1.000=0.000=0;
#SCROLLS:0.000=1.000;
#FAKES:;
#LABELS:0.000=Song Start;
#BGCHANGES:0.000=MV.avi=1.400=1=0=0=StretchNoLoop==CrossFade==,
4.000=MV.avi=1.000=0=0=1=====,
99999=-nosongbg-=1.000=0=0=0 // don't automatically add -songbackground-
;
#KEYSOUNDS:;
#ATTACKS:
;

//---------------dance-single - ----------------
#NOTEDATA:;
#CHARTNAME:;
#STEPSTYPE:dance-single;
#DESCRIPTION:;
#CHARTSTYLE:;
#DIFFICULTY:Hard;
#METER:15;
#RADARVALUES:0.595715,0.723299,0.095082,0.441450,1.178332,614.000000,600.000000,14.000000,65.000000,0.000000,0.000000,0.000000,0.000000,0.000000,0.595715,0.723299,0.095082,0.441450,1.178332,614.000000,600.000000,14.000000,65.000000,0.000000,0.000000,0.000000,0.000000,0.000000;
#CREDIT:Musey's Chart;
#NOTES:
// measure 0
0000
0000
0000
0000
,  // measure 1
0000
0000
0000
1000
0000
0000
0100
0000
0100
1000
0000
0100
,  // measure 2
0000
1000
0000
0010
0000
0000
0100
0000
0100
0010
0000
1000
,  // measure 3
0000
0000
0001
0010
0000
0000
0100
0000
0010
0100
0000
0010
,  // measure 4
0000
0100
0000
1000
0000
0000
1000
0000
0001
0100
0000
0001
,  // measure 5
0000
0100
0000
0010
0000
0000
0100
0000
0100
0010
0000
0100
,  // measure 6
0000
0010
0000
1000
0000
0000
1000
0000
1000
0001
0000
1000
,  // measure 7
0000
0001
0000
0001
0000
0000
0010
0000
0000
0010
0000
0100
,  // measure 8
0000
1000
0000
0001
0000
0100
1000
0001
1000
0001
0000
0001
,  // measure 9
0100
0001
0100
0010
0000
0000
0100
0000
0100
0010
0000
1000
,  // measure 10
0000
0001
0000
0010
0000
0000
0100
0000
0010
0001
0000
0010
,  // measure 11
0000
0000
0001
0010
0000
0000
0100
0000
1000
0010
0000
1000
,  // measure 12
0000
0100
0000
0010
0000
0000
1000
0000
0001
0010
0000
0100
,  // measure 13
0000
0000
0100
0010
0000
0000
0100
0000
0010
1000
0000
0001
,  // measure 14
0000
0010
0000
0001
0000
0000
0100
0000
0100
1000
0000
0000
,  // measure 15
0000
0001
1000
0001
0000
0000
0100
0000
0100
0010
0000
1000
,  // measure 16
0000
0010
0000
1000
0000
0000
0000
0000
0000
0001
0000
0001
,  // measure 17
0010
0000
0000
0000
0100
0000
0000
0000
1000
0000
0000
0000
0010
0000
0000
0000
0000
0000
0000
0000
1000
0000
0010
0000
1000
0000
0000
0010
0000
0000
0000
0000
0000
0000
0000
0000
0001
0000
0000
0000
0000
0000
0000
0000
1000
0000
0001
0000
,  // measure 18
1000
0000
0000
0001
0000
0000
0000
0000
0000
0000
0000
0000
0100
0000
0000
0000
0000
0000
0000
0000
0000
0000
0000
0000
1000
0000
0000
0000
0100
0000
0000
0000
0010
0000
0000
0000
0001
0000
0000
0000
0000
0000
0000
0000
0010
0000
0000
0000
,  // measure 19
0000
0000
0000
0000
0000
0000
0000
0000
0001
0000
0000
0000
0010
0000
0000
0000
0000
0000
0000
0000
0001
0000
1000
0000
0001
0000
0000
1000
0000
0000
0000
0000
0000
0000
0000
0000
0010
0000
0000
0000
0000
0000
0000
0000
1000
0000
0000
0000
,  // measure 20
0000
0000
0100
0001
0000
0000
0100
0010
0100
0001
0000
0010
,  // measure 21
0000
0000
0000
0000
0100
0000
0000
0000
0000
0000
0000
0000
0010
0000
0000
0000
0000
0000
0000
0000
0100
0000
0010
0000
0100
0000
0000
0010
0000
0000
0000
0000
0000
0000
0000
0000
0001
0000
0000
0000
0000
0000
0000
0000
0010
0000
0000
0000
,  // measure 22
0000
0000
0001
1000
0000
0000
0010
0100
0010
0100
0000
0000
,  // measure 23
0000
1000
0000
1000
0000
0000
0001
0100
0010
0100
0000
0001
,  // measure 24
0000
0100
0010
1000
0000
0000
0000
0010
0100
0001
0000
0010
,  // measure 25
1000
0000
0000
0000
0010
0000
0000
0000
1000
0000
0000
0000
0100
0000
0000
0000
0000
0000
0000
0000
1000
0000
0010
0000
1000
0000
0000
0010
0000
0000
0000
0000
0000
0000
0000
0000
1000
0000
0000
0000
0000
0000
0000
0000
0001
0000
0010
0000
,  // measure 26
0001
0000
0000
0010
0000
0000
0000
0000
0000
0000
0000
0000
1000
0000
0000
0000
0000
0000
0000
0000
0000
0000
0000
0000
1000
0000
0000
0000
0100
0000
0000
0000
0010
0000
0000
0000
0001
0000
0000
0000
0000
0000
0000
0000
0010
0000
0000
0000
,  // measure 27
0000
0000
0000
0000
0000
0000
0000
0000
0001
0000
0000
0000
0010
0000
0000
0000
0000
0000
0000
0000
0100
0000
1000
0000
0100
0000
0000
1000
0000
0000
0000
0000
0000
0000
0000
0000
0010
0000
0000
0000
0000
0000
0000
0000
0100
0000
0000
0000
,  // measure 28
0000
0000
0100
1000
0000
0000
0000
0000
0000
0010
0000
0010
,  // measure 29
0000
0000
0000
0000
0100
0000
0000
0000
0000
0000
0000
0000
0001
0000
0000
0000
0000
0000
0000
0000
0100
0000
0001
0000
0100
0000
0000
0001
0000
0000
0000
0000
0000
0000
0000
0000
0010
0000
0000
0000
0000
0000
0000
0000
1000
0000
0000
0000
,  // measure 30
0000
0000
1000
0010
0000
1000
0000
0010
0000
0010
0000
0001
,  // measure 31
0100
0000
0000
0000
0001
0000
0000
0000
0010
0000
0000
0000
0100
0000
0000
0000
0000
0000
0000
0000
0100
0000
1000
0000
0100
0000
0000
1000
0000
0000
0000
0000
0000
0000
0000
0000
0010
0000
0000
0000
0000
0000
0000
0000
1000
0000
0010
0000
,  // measure 32
1000
0000
0000
0010
0000
0000
0000
0000
0000
0000
0000
0000
0001
0000
0000
0000
0000
0000
0000
0000
0100
0000
0001
0000
0100
0000
0000
0001
0000
0000
0000
0000
0000
0000
0000
0000
1000
0000
0000
0000
0000
0000
0000
0000
0000
0000
0000
0000
,  // measure 33
0000
0000
0000
0100
0000
0010
1000
0001
0010
0200
0000
0000
,  // measure 34
0000
0300
0000
1001
0000
0010
0100
0010
0100
1010
0000
0200
,  // measure 35
0000
2300
0000
3020
0000
2030
0000
3002
0000
0003
0000
0002
,  // measure 36
0000
0023
0000
0230
0000
2300
0000
3020
0000
0030
0000
0020
,  // measure 37
0000
2030
0000
3002
0000
0023
0000
0230
0000
0300
0000
0200
,  // measure 38
0000
0320
0000
0032
0000
2003
0000
3020
0000
2030
0000
3002
,  // measure 39
0000
0023
0000
0230
0000
0320
0000
0032
0000
0003
0000
0200
,  // measure 40
0000
2300
0000
3020
0000
2030
0000
3002
0000
0003
0000
0002
,  // measure 41
0000
2003
0000
3200
0000
0320
0000
0032
0000
1003
0000
0001
,  // measure 42
0010
0100
1000
0010
0000
1000
0010
0100
0001
0010
0000
0000
,  // measure 43
0100
0000
0100
0010
0000
0100
0000
1000
0000
0010
0000
0000
,  // measure 44
1000
0000
1000
0010
0000
0010
0000
0000
1000
0001
0000
0000
,  // measure 45
1000
0000
1000
0100
0000
0010
0000
0001
0000
0010
0000
0100
,  // measure 46
1000
0000
1000
0100
0000
1000
0000
0000
1000
0010
0000
0000
,  // measure 47
1000
0000
1000
0010
0000
1000
0000
0010
0000
0100
0000
0000
,  // measure 48
0001
0000
0001
1000
0000
0000
0000
0001
1000
0001
0000
0000
,  // measure 49
0100
0000
0100
0010
0000
0100
0000
0010
0000
1000
0000
0000
,  // measure 50
0010
0000
0000
0000
0000
0000
0010
0000
0000
0000
0010
0000
0100
0000
0001
0000
0010
0000
0100
0000
0000
0000
1000
0010
,  // measure 51
1000
0000
0000
0010
0000
0000
0000
0000
0000
0000
0000
0000
0001
0000
0000
0000
0000
0000
0000
0000
0100
0000
0001
0000
0100
0000
0000
0001
0000
0000
0000
0000
0000
0000
0000
0000
2000
0000
0000
0000
0000
0000
0000
0000
0000
0000
0000
0000
,  // measure 52
3001
0000
0100
0000
0001
0000
0010
0000
0000
0000
0200
0000
0000
0000
0000
0000
1300
0000
0010
0000
0000
0000
1000
0010
,  // measure 53
1000
0000
0000
0010
0000
0000
0000
0000
0000
0000
0000
0000
0001
0000
0000
0000
0000
0000
0000
0000
0020
0000
0000
0000
0000
0000
0000
0000
0000
0000
0000
0000
0130
0000
0000
0000
2000
0000
0000
0000
0000
0000
0000
0000
0000
0000
0000
0000
,  // measure 54
0000
0000
0000
0000
0000
0000
3010
0000
0000
0000
0002
0000
0000
0000
0003
0000
0001
0000
1000
0000
0000
0000
0001
1000
,  // measure 55
0001
0000
0000
1000
0000
0000
0000
0000
0001
0000
0000
0000
1000
0000
0000
0000
0000
0000
0000
0000
0020
0000
0000
0000
0000
0000
0000
0000
0030
0000
0000
0000
0010
0000
0000
0000
0200
0000
0000
0000
0000
0000
0000
0000
0300
0000
0000
0000
,  // measure 56
1000
0100
1000
0200
0000
0000
0000
1300
0000
2000
0000
0000
,  // measure 57
3001
0100
0001
0100
0000
0001
0000
1000
0001
2000
0000
0000
,  // measure 58
3000
0000
0001
0000
0010
0000
0001
0010
0001
0000
0010
0000
0100
0000
1000
0000
0010
0000
0100
0000
0000
0000
0001
0100
,  // measure 59
0001
0000
0000
0100
0000
0000
0000
0000
0000
0000
0000
0000
1000
0000
0000
0000
0000
0000
0000
0000
0001
0000
1000
0000
0001
0000
0000
1000
0000
0000
0000
0000
0000
0000
0000
0000
0020
0000
0000
0000
0000
0000
0000
0000
0000
0000
0000
0000
,  // measure 60
1030
0000
0100
0000
0010
0000
0001
0000
0000
0000
0020
0000
0000
0000
0030
0000
0001
0000
0010
0000
0000
0000
0010
0100
,  // measure 61
0010
0000
0000
0100
0000
0000
0000
0000
0000
0000
0000
0000
0002
0000
0000
0000
0000
0000
0000
0000
2003
0000
0000
0000
0000
0000
0000
0000
3000
0000
0000
0000
0001
0000
0000
0000
0200
0000
0000
0000
0000
0000
0000
0000
0000
0000
0000
0000
,  // measure 62
0000
0000
0000
0000
0000
0000
0310
0000
0000
0000
0020
0000
0000
0000
0000
0000
1030
0000
0010
0000
0000
0000
1000
0001
,  // measure 63
1000
0000
0000
0001
0000
0000
0000
0000
1000
0000
0000
0000
0010
0000
0000
0000
0000
0000
0000
0000
0020
0000
0000
0000
0000
0000
0000
0000
0030
0000
0000
0000
0100
0000
0000
0000
0010
0000
0000
0000
0000
0000
0000
0000
0100
0000
0000
0000
,  // measure 64
0000
0000
0110
0000
0000
0000
1010
0000
0000
0000
0001
0000
0010
0000
0100
0000
1000
0000
0001
0000
0000
0000
0100
0001
,  // measure 65
0100
0000
0000
0001
0000
0000
0000
0000
0000
0000
0000
0000
0010
0000
0000
0000
0000
0000
0000
0000
1000
0000
0010
0000
1000
0000
0000
0010
0000
0000
0000
0000
0000
0000
0000
0000
0001
0000
0000
0000
0000
0000
0000
0000
1000
0000
0001
0000
,  // measure 66
1000
0000
0000
0001
0000
0000
0000
0000
0000
0000
0000
0000
0100
0000
0000
0000
0000
0000
0000
0000
1000
0000
0000
0000
0100
0000
0000
0000
0010
0000
0000
0000
0001
0000
0000
0000
1000
0000
0000
0000
0000
0000
0000
0000
1000
0000
0000
0000
,  // measure 67
0000
1000
0000
1000
0000
1000
0000
1000
0000
1010
0000
1010
,  // measure 68
0000
0000
1010
0000
0000
0000
1001
0000
0000
0000
1001
0000
0000
0000
1001
0000
0000
0000
0101
0000
0000
0000
0001
0100
,  // measure 69
0001
0000
0000
0100
0000
0000
0000
0000
0000
0000
0000
0000
0010
0000
0000
0000
0000
0000
0000
0000
1000
0000
0010
0000
1000
0000
0000
0010
0000
0000
0000
0000
0000
0000
0000
0000
0200
0000
0000
0000
0000
0000
0000
0000
0000
0000
0000
0000
,  // measure 70
1300
0000
0100
0000
0010
0000
0001
0000
0000
0000
0020
0000
0000
0000
0030
0000
0000
0000
0100
0000
0000
0000
1000
0010
,  // measure 71
1000
0000
0000
0010
0000
0000
0000
0000
0000
0000
0000
0000
0001
0000
0000
0000
0000
0000
0000
0000
1000
0000
0001
0000
1000
0000
0000
0001
0000
0000
0000
0000
0000
0000
0000
0000
0200
0000
0000
0000
0000
0000
0000
0000
0000
0000
0000
0000
,  // measure 72
1300
0100
0010
0001
0000
0020
0000
0030
0000
0001
0000
0001
,  // measure 73
1000
0000
1000
0001
0000
1000
0000
0000
0000
1000
0000
0010
,  // measure 74
1000
0000
1000
0010
0000
1000
0000
0010
0000
1000
0000
0001
,  // measure 75
1000
0000
1000
0001
0000
0001
0000
1000
0000
0001
0010
0100
,  // measure 76
1000
0000
0001
0000
1000
0000
0010
0000
1000
0000
0001
0000
0010
0000
0100
0000
1000
0000
0001
0000
0000
0000
1000
0001
,  // measure 77
1000
0000
0000
0001
0000
0000
0000
0000
0000
0000
0000
0000
0010
0000
0000
0000
0000
0000
0000
0000
0001
0000
0010
0000
0001
0000
0000
0010
0000
0000
0000
0000
0000
0000
0000
0000
0200
0000
0000
0000
0000
0000
0000
0000
0000
0000
0000
0000
,  // measure 78
1300
0000
0001
0000
0010
0000
0001
0000
0000
0000
2000
0000
0000
0000
3000
0000
0000
0000
0001
0000
0000
0000
1000
0001
,  // measure 79
1000
0000
0000
0001
0000
0000
0000
0000
0000
0000
0000
0000
0001
0000
0000
0000
0000
0000
0000
0000
1000
0000
0001
0000
1000
0000
0000
0001
0000
0000
0000
0000
0000
0000
0000
0000
0001
0000
0000
0000
0010
0000
0000
0000
0001
0000
0000
0000
,  // measure 80
1000
0100
1000
0001
0010
0100
1000
0010
0000
0101
0000
0100
,  // measure 81
0010
0000
0010
0100
0000
0010
0000
0010
0000
1000
0000
1000
,  // measure 82
0010
0000
0010
1000
0000
1000
0000
1000
0000
0001
0000
0001
,  // measure 83
0010
0000
0010
0100
0000
0100
0000
0100
0000
0120
0000
0030
,  // measure 84
1002
0000
0003
0010
0000
0100
0000
0010
0000
0200
0000
0000
,  // measure 85
0000
0000
0000
0302
,  // measure 86
0000
0000
0000
0000
,  // measure 87
0000
0000
0000
2003
,  // measure 88
0000
0000
0000
3000
;

//---------------dance-single - ----------------
#NOTEDATA:;
#CHARTNAME:;
#STEPSTYPE:dance-single;
#DESCRIPTION:;
#CHARTSTYLE:;
#DIFFICULTY:Medium;
#METER:10;
#RADARVALUES:0.441450,0.542474,0.013583,0.550115,0.838755,455.000000,453.000000,2.000000,81.000000,0.000000,0.000000,0.000000,0.000000,0.000000,0.441450,0.542474,0.013583,0.550115,0.838755,455.000000,453.000000,2.000000,81.000000,0.000000,0.000000,0.000000,0.000000,0.000000;
#CREDIT:Musey's Chart;
#NOTES:
// measure 0
0000
0000
0000
0000
,  // measure 1
0000
0000
0000
0001
0000
0000
1000
0000
1000
0001
0000
1000
,  // measure 2
0000
0000
0000
0010
0000
0000
1000
0000
1000
0010
0000
0100
,  // measure 3
0000
0000
0000
0001
0000
0000
1000
0000
1000
0100
0000
1000
,  // measure 4
0000
0000
0000
0100
0000
0000
0100
0000
0100
1000
0000
0001
,  // measure 5
0000
0000
0000
0010
0000
0000
0010
0000
0010
0001
0000
1000
,  // measure 6
0000
0000
0000
0001
0000
0000
1000
0000
1000
0010
0000
0100
,  // measure 7
0000
0000
0000
0001
0000
0000
1000
0000
0100
1000
0000
0001
,  // measure 8
0000
2000
0000
3002
,  // measure 9
0000
0000
0000
0013
0000
0000
0001
0000
0010
0100
0000
0010
,  // measure 10
0000
0001
0000
0000
0000
0000
0010
0000
1000
0010
0000
1000
,  // measure 11
0000
0010
0000
0000
0000
0000
0100
0000
1000
0100
0000
1000
,  // measure 12
0000
0001
0000
0000
0000
0000
1000
0000
1000
0001
0000
0010
,  // measure 13
0000
0100
0000
0010
0000
0000
0001
0000
0001
0010
0000
0100
,  // measure 14
0000
1000
0000
0000
0000
0000
0010
0000
1000
0010
0000
1000
,  // measure 15
0000
0001
0000
1000
0000
0000
0100
0000
0100
1000
0000
0001
,  // measure 16
0000
0010
0000
0001
0000
0000
0000
0000
0000
1000
0000
0100
,  // measure 17
0000
1000
0000
0010
0000
0010
1000
0010
0000
1000
0000
0001
,  // measure 18
1000
0001
0000
0200
0000
0000
0000
0301
0000
1000
0000
0010
,  // measure 19
0000
0001
0000
0010
0000
0100
0010
0100
0000
0010
0000
0001
,  // measure 20
0000
0001
0000
2000
0000
0000
0000
0000
0000
3010
0000
1000
,  // measure 21
0000
0001
0000
1000
0000
0010
0100
0010
0000
1000
0000
0100
,  // measure 22
0000
0100
0000
2000
0000
0000
0000
3001
0000
0020
0000
0000
,  // measure 23
0000
0130
0000
2000
0000
0000
0000
3010
0000
2000
0000
0000
,  // measure 24
0000
3001
0000
0020
0000
0000
0000
0130
0000
2000
0000
0000
,  // measure 25
0000
0000
0000
3001
0000
0010
0100
0010
0000
0100
0000
1000
,  // measure 26
0001
1000
0000
0020
0000
0000
0000
1030
0000
0001
0000
0020
,  // measure 27
0000
0000
0000
0130
0000
1000
0001
1000
0000
0010
0000
1000
,  // measure 28
0000
0001
0000
2000
0000
0000
0000
0000
0000
3001
0000
0010
,  // measure 29
0000
0100
0000
1000
0000
0001
1000
0001
0000
1000
0000
0010
,  // measure 30
0000
1000
0000
0200
0000
0000
0000
0310
0000
0002
0000
0000
,  // measure 31
0000
0103
0000
0020
0000
0000
0000
1030
0000
0002
0000
0000
,  // measure 32
0000
0013
0000
0200
0000
0000
0000
1300
0000
0002
0000
0000
,  // measure 33
0000
2003
0000
3020
,  // measure 34
0000
0000
0000
1030
0000
0000
0000
0000
0000
0000
0000
2000
,  // measure 35
0000
3200
0000
0320
0000
0032
0000
0023
0000
0030
0000
0002
,  // measure 36
0000
0023
0000
0230
0000
2300
0000
3020
0000
0030
0000
2000
,  // measure 37
0000
3020
0000
2030
0000
3002
0000
2003
0000
3000
0000
0200
,  // measure 38
0000
2300
0000
3002
0000
2003
0000
3020
0000
0030
0000
2000
,  // measure 39
0000
3200
0000
0320
0000
0032
0000
0023
0000
0030
0000
0002
,  // measure 40
0000
0023
0000
0230
0000
2300
0000
3020
0000
0030
0000
2000
,  // measure 41
0000
3200
0000
2300
0000
3002
0000
2003
0000
3020
0000
0000
,  // measure 42
0000
2030
0000
3001
,  // measure 43
1000
0000
1000
0001
0000
1000
0000
0010
0000
0000
0000
0000
,  // measure 44
0010
0000
0010
0100
0000
0010
0000
0000
0000
0000
0000
0000
,  // measure 45
0001
0000
0001
0010
0000
0100
0000
1000
0000
0000
0000
0000
,  // measure 46
0001
0000
0001
1000
0000
0010
0000
0000
0000
0000
0000
0000
,  // measure 47
1000
0000
1000
0100
0000
0010
0000
0001
0000
0000
0000
0000
,  // measure 48
0001
0000
0001
0010
0000
0100
0000
0000
0000
0000
0000
0000
,  // measure 49
0010
0000
0010
1000
0000
0001
0000
1000
0000
0000
0000
0000
,  // measure 50
0000
0000
0000
1000
0000
0100
0000
0010
0000
0001
0000
0001
,  // measure 51
1000
0001
0000
0100
0000
0100
0010
0100
0000
0002
0000
0000
,  // measure 52
0000
1003
0000
0010
0000
2000
0000
0000
0000
3001
0000
1000
,  // measure 53
0100
1000
0000
0001
0000
0020
0000
0000
0000
0230
0000
0000
,  // measure 54
0000
0000
0000
1300
0000
0001
0000
1000
0000
0100
0000
1000
,  // measure 55
0100
1000
0000
0010
0000
1000
0000
0001
0000
0020
0000
0000
,  // measure 56
0000
0031
0010
0002
0000
0000
0000
1003
0000
2000
0000
0000
,  // measure 57
0000
3010
0000
1000
0000
0001
0000
1000
0000
0200
0000
0000
,  // measure 58
0000
0000
0000
0310
0000
0001
0000
0010
0000
0001
0000
0001
,  // measure 59
0010
0001
0000
0010
0000
0100
0010
0100
0000
2000
0000
0000
,  // measure 60
0000
3010
0000
1000
0000
0001
0000
0010
0000
0100
0000
0010
,  // measure 61
0100
0010
0000
0001
0000
1000
0000
0010
0000
2000
0000
0000
,  // measure 62
0000
0000
3000
0001
0000
0001
0000
0010
0000
0100
0000
1000
,  // measure 63
0001
1000
0000
0010
0000
1000
0000
0100
0000
0010
0000
0001
,  // measure 64
0000
1001
0000
1001
0000
1000
0000
0100
0000
1000
0000
0100
,  // measure 65
1000
0100
0000
0010
0000
0001
0010
0001
0000
1000
0000
0010
,  // measure 66
1000
0010
0000
1000
0000
0001
0000
0010
0000
0100
0000
0100
,  // measure 67
0000
0100
0000
0100
0000
0100
0000
0100
0000
1000
0000
1000
,  // measure 68
0000
1000
0000
0010
0000
1000
0000
0010
0000
1000
0000
1000
,  // measure 69
0001
1000
0000
0001
0000
1000
0001
1000
0000
0002
0000
0010
,  // measure 70
0000
1000
0000
0023
0000
0000
0000
0000
0000
0031
0000
0001
,  // measure 71
1000
0001
0000
1000
0000
0100
1000
0100
0000
0020
0000
0001
,  // measure 72
0000
0100
0000
0032
0000
0000
0000
0000
0000
1003
0000
0010
,  // measure 73
1000
0000
1000
0010
0000
1000
0000
0001
0000
1000
0000
0001
,  // measure 74
1000
0000
1000
0001
0000
1000
0000
0001
0000
0010
0000
0001
,  // measure 75
0010
0000
0010
0001
0000
0010
0000
0001
0000
0020
0000
0001
,  // measure 76
0000
0100
0000
0032
0000
0010
0000
0100
0000
1003
0000
0100
,  // measure 77
1000
0100
0000
1000
0000
0100
1000
0100
0000
2000
0000
0010
,  // measure 78
0000
0100
0000
3002
0000
0010
0000
1000
0000
0013
0000
0001
,  // measure 79
0010
0001
0000
0010
0000
0100
1000
0100
0000
2000
0000
0010
,  // measure 80
0000
0100
0000
3020
0000
0100
0000
0001
0000
0130
0000
0001
,  // measure 81
1000
0000
1000
0001
0000
1000
0000
0001
0000
0010
0000
0001
,  // measure 82
0010
0000
0010
0001
0000
0010
0000
0001
0000
1000
0000
0001
,  // measure 83
1000
0000
1000
0010
0000
1000
0000
0100
0000
1000
0000
0001
,  // measure 84
0000
0000
0000
1000
0000
0010
0000
1000
0000
0002
0000
0000
,  // measure 85
0000
0000
0000
2003
,  // measure 86
0000
0000
0000
0000
,  // measure 87
0000
0000
0000
3200
,  // measure 88
0000
0000
0000
0300
;

//---------------dance-single - ----------------
#NOTEDATA:;
#CHARTNAME:;
#STEPSTYPE:dance-single;
#DESCRIPTION:;
#CHARTSTYLE:;
#DIFFICULTY:Easy;
#METER:5;
#RADARVALUES:0.258079,0.300526,0.006792,0.434659,0.292036,266.000000,265.000000,1.000000,64.000000,0.000000,0.000000,0.000000,0.000000,0.000000,0.258079,0.300526,0.006792,0.434659,0.292036,266.000000,265.000000,1.000000,64.000000,0.000000,0.000000,0.000000,0.000000,0.000000;
#CREDIT:Musey's Chart;
#NOTES:
// measure 0
0000
0000
0000
0000
,  // measure 1
0000
0000
0000
0001
0000
0000
0000
1000
0000
0010
0000
1000
,  // measure 2
0000
0000
0000
0001
0000
0000
0000
1000
0000
0100
0000
1000
,  // measure 3
0000
0000
0000
0010
0000
0000
0000
1000
0000
0001
0000
0010
,  // measure 4
0000
0000
0000
0001
0000
0000
0000
0010
0000
0001
0000
0010
,  // measure 5
0000
0000
0000
0001
0000
0000
0000
1000
0000
0100
0000
1000
,  // measure 6
0000
0000
0000
0010
0000
0000
0000
1000
0000
0001
0000
1000
,  // measure 7
0000
0000
0000
0001
0000
0000
0000
0010
0000
0100
0000
0010
,  // measure 8
0000
0002
0000
2003
,  // measure 9
0000
0000
3000
0001
0000
0000
1000
0000
0000
0010
0000
1000
,  // measure 10
0000
0000
0000
0001
0000
0000
0010
0000
0000
0001
0000
0010
,  // measure 11
0000
0000
0000
0100
0000
0000
1000
0000
0000
0010
0000
1000
,  // measure 12
0000
0000
0000
0001
0000
0000
1000
0000
0000
0010
0000
1000
,  // measure 13
0000
0000
0000
0001
0000
0000
0010
0000
0000
0100
0000
0010
,  // measure 14
0000
0000
0000
0001
0000
0000
0010
0000
0000
0100
0000
1000
,  // measure 15
0000
0000
0000
0010
0000
0000
1000
0000
0000
0001
0000
1000
,  // measure 16
0000
0000
0000
0100
0000
0000
0000
0000
0000
0001
0000
1000
,  // measure 17
0000
0010
0000
1000
0000
0000
0000
0001
0000
1000
0000
0000
,  // measure 18
0000
0100
0000
0020
0000
0000
0000
0000
0000
0031
0000
0000
,  // measure 19
0000
0000
0000
0001
0000
0000
0000
0001
0000
1000
0000
0000
,  // measure 20
0000
1000
0000
0020
0000
0000
0000
0000
0000
1030
0000
0000
,  // measure 21
0000
0000
0000
0001
0000
1000
0000
0001
0000
0020
0000
0000
,  // measure 22
0000
0130
0000
2000
0000
0000
0000
0000
0000
3002
0000
0000
,  // measure 23
0000
2003
0000
3020
,  // measure 24
0000
0000
0000
2030
0000
0000
0000
0000
0000
3100
0000
1000
,  // measure 25
0000
0100
0000
1000
0000
0000
0000
1000
0000
0001
0000
0000
,  // measure 26
0000
0001
0000
2000
0000
0000
0000
0000
0000
3010
0000
0000
,  // measure 27
0000
0000
0000
0001
0000
0000
0000
0001
0000
0010
0000
0000
,  // measure 28
0000
0010
0000
0002
0000
0000
0000
0000
0000
0013
0000
0000
,  // measure 29
0000
0000
0000
0100
0000
0000
0000
0100
0000
1000
0000
0000
,  // measure 30
0000
1000
0000
0020
0000
0000
0000
0000
0000
1030
0000
0000
,  // measure 31
0000
0001
0000
0001
,  // measure 32
0000
0001
0000
0200
,  // measure 33
0000
0000
0000
1300
,  // measure 34
0000
0000
0000
1010
0000
0000
0000
0000
0000
0001
0000
1000
,  // measure 35
0000
0001
0000
1000
0000
0000
0000
0000
0000
0001
0000
1000
,  // measure 36
0000
0100
0000
1000
0000
0000
0000
0000
0000
0001
0000
1000
,  // measure 37
0000
0010
0000
1000
0000
0000
0000
0000
0000
1000
0000
0100
,  // measure 38
0000
0010
0000
0001
0000
0000
0000
0000
0000
0001
0000
0010
,  // measure 39
0000
0100
0000
1000
0000
0000
0000
0000
0000
1000
0000
0010
,  // measure 40
0000
1000
0000
0001
0000
0000
0000
0000
0000
0001
0000
1000
,  // measure 41
0000
0100
0000
1000
0000
0000
0000
0000
0000
0002
0000
0000
,  // measure 42
0000
0000
0000
2003
0000
0000
0000
0000
0000
3010
0000
1000
,  // measure 43
0000
0001
0000
1000
0000
0000
0000
0000
0000
0100
0000
0010
,  // measure 44
0000
0001
0000
0010
0000
0000
0000
0000
0000
0001
0000
0010
,  // measure 45
0000
0100
0000
0010
0000
0000
0000
0000
0000
1000
0000
0001
,  // measure 46
0000
1000
0000
0010
0000
0000
0000
0000
0000
1000
0000
0001
,  // measure 47
0000
1000
0000
0100
0000
0000
0000
0000
0000
0100
0000
1000
,  // measure 48
0000
0010
0000
1000
0000
0000
0000
0000
0000
0001
0000
0010
,  // measure 49
0000
0100
0000
1000
0000
0000
0000
0000
0000
0001
0000
1000
,  // measure 50
0000
0010
0000
1000
0000
0000
0000
0000
0000
0002
0000
0000
,  // measure 51
0000
2003
0000
3020
,  // measure 52
0000
2030
0000
3002
,  // measure 53
0000
0023
0000
0230
,  // measure 54
0000
2300
0000
3002
,  // measure 55
0000
2003
0000
3020
,  // measure 56
0000
2030
0000
3200
,  // measure 57
0000
0320
0000
0032
,  // measure 58
0000
0000
0000
2003
0000
0000
0000
0000
3000
0001
0000
1000
,  // measure 59
0000
0010
0000
2000
0000
0000
0000
0000
0000
3002
0000
0000
,  // measure 60
0000
0000
0000
0013
0000
0000
0000
0000
0000
0001
0000
0010
,  // measure 61
0000
0100
0000
0020
0000
0000
0000
0000
0000
0032
0000
0000
,  // measure 62
0000
0000
0000
1003
0000
0000
0000
0000
0000
0010
0000
1000
,  // measure 63
0000
0001
0000
2000
0000
0000
0000
0000
0000
3002
0000
0000
,  // measure 64
0000
0023
0000
0230
,  // measure 65
0000
2300
0000
3002
,  // measure 66
0000
2003
0000
3020
,  // measure 67
0000
1000
0000
2030
,  // measure 68
0000
0000
0000
3001
0000
1000
0000
0001
0000
1000
0000
0000
,  // measure 69
0000
0100
0000
2000
,  // measure 70
0000
3001
0000
0002
,  // measure 71
0000
0023
0000
0032
,  // measure 72
0000
1003
0000
0001
,  // measure 73
0001
0001
0000
1000
,  // measure 74
1000
1000
0000
0010
,  // measure 75
0010
0010
0000
2000
,  // measure 76
0000
0000
0000
3001
0000
0000
0000
0000
0000
0001
0000
1000
,  // measure 77
0000
0001
0000
0020
0000
0000
0000
0000
0000
0032
0000
0000
,  // measure 78
0000
0000
0000
2003
0000
0000
0000
0000
0000
3001
0000
1000
,  // measure 79
0000
0100
0000
2000
0000
0000
0000
0000
0000
3020
0000
0000
,  // measure 80
0000
0000
0000
2030
0000
0000
0000
0000
0000
3001
0000
1000
,  // measure 81
0000
0001
0000
2000
0000
0000
0000
0000
0000
3001
0000
1000
,  // measure 82
0000
0001
0000
2000
0000
0000
0000
0000
0000
3001
0000
1000
,  // measure 83
0000
0001
0000
2000
0000
0000
0000
0000
0000
3002
0000
0000
,  // measure 84
0000
0023
0000
0230
,  // measure 85
0000
0000
0000
2300
,  // measure 86
0000
0000
0000
0000
,  // measure 87
0000
0000
0000
3002
,  // measure 88
0000
0000
0003
0000
;

//---------------dance-single - ----------------
#NOTEDATA:;
#CHARTNAME:;
#STEPSTYPE:dance-single;
#DESCRIPTION:;
#CHARTSTYLE:;
#DIFFICULTY:Beginner;
#METER:2;
#RADARVALUES:0.130009,0.148989,0.027166,0.074707,0.000000,134.000000,130.000000,4.000000,11.000000,0.000000,0.000000,0.000000,0.000000,0.000000,0.130009,0.148989,0.027166,0.074707,0.000000,134.000000,130.000000,4.000000,11.000000,0.000000,0.000000,0.000000,0.000000,0.000000;
#CREDIT:Musey's Chart;
#NOTES:
// measure 0
0000
0000
0000
0000
,  // measure 1
0000
1000
0000
0000
,  // measure 2
0000
0001
0000
0000
,  // measure 3
0000
0010
0000
0000
,  // measure 4
0000
1000
0000
0000
,  // measure 5
0000
0100
0000
0000
,  // measure 6
0000
1000
0000
0000
,  // measure 7
0000
0010
0000
0000
,  // measure 8
0000
1000
0000
0000
,  // measure 9
0000
0100
0000
0000
,  // measure 10
0000
0010
0000
0000
,  // measure 11
0000
1000
0000
0000
,  // measure 12
0000
0001
0000
0000
,  // measure 13
0000
1000
0000
0000
,  // measure 14
0000
0010
0000
0000
,  // measure 15
0000
1000
0000
0000
,  // measure 16
0000
0100
0000
0000
,  // measure 17
0000
1100
0000
0000
,  // measure 18
0000
1100
0000
0000
,  // measure 19
0000
0001
0000
0000
,  // measure 20
0000
0001
0000
0000
,  // measure 21
0000
1000
0000
0000
,  // measure 22
0000
0010
0000
0000
,  // measure 23
0000
1000
0000
0000
,  // measure 24
0000
0100
0000
0000
,  // measure 25
0000
1001
0000
0000
,  // measure 26
0000
0010
0000
0000
,  // measure 27
0000
1000
0000
0000
,  // measure 28
0000
0100
0000
0000
,  // measure 29
0000
1000
0000
0000
,  // measure 30
0000
0001
0000
0000
,  // measure 31
0000
0010
0000
0000
,  // measure 32
0000
0001
0000
0000
,  // measure 33
0000
0011
0000
0000
,  // measure 34
0000
0000
0000
0001
,  // measure 35
0000
1000
0000
0001
,  // measure 36
0000
1000
0000
0010
,  // measure 37
0000
1000
0000
0100
,  // measure 38
0000
1000
0000
0001
,  // measure 39
0000
0010
0000
0100
,  // measure 40
0000
1000
0000
0001
,  // measure 41
0000
1000
0000
0010
,  // measure 42
0000
0010
0000
1000
,  // measure 43
0000
0100
0000
1000
,  // measure 44
0000
0010
0000
0001
,  // measure 45
0000
0100
0000
0010
,  // measure 46
0000
1000
0000
0001
,  // measure 47
0000
0010
0000
0100
,  // measure 48
0000
0010
0000
0001
,  // measure 49
0000
1000
0000
0010
,  // measure 50
0000
1000
0000
0001
,  // measure 51
0000
0001
0000
0001
,  // measure 52
0000
0001
0000
1000
,  // measure 53
0000
1000
0000
2000
,  // measure 54
0000
0000
0000
3010
,  // measure 55
0000
0010
0000
0001
,  // measure 56
0000
0001
0000
1000
,  // measure 57
0000
0100
0000
2000
,  // measure 58
0000
0000
0000
3001
,  // measure 59
0000
0010
0000
0100
,  // measure 60
0000
0100
0000
0010
,  // measure 61
0000
0001
0000
1000
,  // measure 62
0000
1000
0000
0010
,  // measure 63
0000
1000
0000
0100
,  // measure 64
0000
1000
0000
0001
,  // measure 65
0000
0010
0000
0200
,  // measure 66
0000
1300
0000
0001
,  // measure 67
0000
0001
0000
1000
,  // measure 68
0000
1000
0000
2000
,  // measure 69
0000
0001
0000
3020
,  // measure 70
0000
0000
0000
1030
,  // measure 71
0000
0001
0000
0020
,  // measure 72
0000
0000
0000
0031
,  // measure 73
0000
0001
0000
1000
,  // measure 74
0000
1000
0000
0010
,  // measure 75
0000
0010
0000
1000
,  // measure 76
0000
1000
0000
0001
,  // measure 77
0000
1000
0000
0002
,  // measure 78
0000
0013
0000
0100
,  // measure 79
0000
1000
0000
0020
,  // measure 80
0000
1030
0000
0001
,  // measure 81
0000
0001
0000
1000
,  // measure 82
0000
1000
0000
0001
,  // measure 83
0000
0001
0000
2000
,  // measure 84
0000
0000
0000
3002
,  // measure 85
0000
0000
0000
2003
,  // measure 86
0000
0000
0000
0000
,  // measure 87
0000
0000
0000
3000
;
