#VERSION:0.83;
#TITLE:Ditto;
#SUBTITLE:;
#ARTIST:New Jeans;
#TITLETRANSLIT:;
#SUBTITLETRANSLIT:;
#ARTISTTRANSLIT:;
#GENRE:;
#ORIGIN:;
#CREDIT:;
#BANNER:AV.avi;
#BACKGROUND:bg.png;
#PREVIEWVID:;
#JACKET:jacket.png;
#CDIMAGE:;
#DISCIMAGE:;
#LYRICSPATH:;
#CDTITLE:;
#MUSIC:audio.ogg;
#OFFSET:-0.296000;
#SAMPLESTART:69.944656;
#SAMPLELENGTH:14.999991;
#SELECTABLE:YES;
#BPMS:0.000=134.000;
#STOPS:;
#DELAYS:;
#WARPS:;
#TIMESIGNATURES:0.000=4=4;
#TICKCOUNTS:0.000=4;
#COMBOS:0.000=1;
#SPEEDS:0.000=1.000=0.000=0;
#SCROLLS:0.000=1.000;
#FAKES:;
#LABELS:0.000=Song Start;
#BGCHANGES:0.000=MV.avi=1.000=1=0=1===CrossFade==,
99999=-nosongbg-=1.000=0=0=0 // don't automatically add -songbackground-
;
#KEYSOUNDS:;
#ATTACKS:
;

//---------------dance-single - ----------------
#NOTEDATA:;
#CHARTNAME:;
#STEPSTYPE:dance-single;
#DESCRIPTION:;
#CHARTSTYLE:;
#DIFFICULTY:Hard;
#METER:13;
#RADARVALUES:0.511510,0.666968,0.023402,0.663068,0.401741,459.000000,456.000000,3.000000,85.000000,0.000000,0.000000,0.000000,0.000000,0.000000,0.511510,0.666968,0.023402,0.663068,0.401741,459.000000,456.000000,3.000000,85.000000,0.000000,0.000000,0.000000,0.000000,0.000000;
#CREDIT:;
#NOTES:
// measure 0
0000
0000
0000
0000
,  // measure 1
0000
0000
0000
0000
,  // measure 2
0000
0000
0000
0000
,  // measure 3
0000
0000
0000
0000
,  // measure 4
0020
0000
0000
0000
,  // measure 5
0032
0000
0000
0000
,  // measure 6
2003
0000
3002
0000
,  // measure 7
0023
0000
0032
0000
,  // measure 8
1003
0000
0000
0200
0000
0000
1300
0000
0001
0020
0000
0000
0031
0000
0000
0000
,  // measure 9
1000
0000
0000
0020
0000
0000
1030
0000
0001
2000
0000
0000
3001
0000
0000
0000
,  // measure 10
0010
0000
0000
0002
0000
0000
0013
0000
0100
2000
0000
0000
3010
0000
0000
0000
,  // measure 11
1000
0000
0000
0002
0000
0000
1003
0000
0010
0000
0000
2000
0000
0000
3001
0000
,  // measure 12
0010
0000
0000
0002
0000
0000
1003
0000
0010
2000
0000
0000
3100
0000
0000
0000
,  // measure 13
1000
0000
0000
0002
0000
0000
1003
0000
0010
0000
0000
2000
0000
0000
3100
0000
,  // measure 14
0010
0000
0000
0002
0000
0000
1003
0000
0020
0000
0000
0000
1030
0000
0000
0000
,  // measure 15
0100
0000
0100
0000
0001
0000
0001
1000
0000
1000
0001
0000
1000
0000
0001
0000
,  // measure 16
0101
0002
0003
0001
0100
0001
0010
0200
,  // measure 17
0300
1000
0010
1000
0100
1000
0010
0200
,  // measure 18
0300
0001
0010
0001
0100
0001
0010
0200
,  // measure 19
0300
2000
3000
1000
0010
1000
0001
1000
,  // measure 20
0020
0000
1030
0100
1000
0000
0001
0010
,  // measure 21
0002
0000
0013
0100
0010
0000
0100
1000
,  // measure 22
0020
0000
1030
0200
0000
0000
1300
0002
,  // measure 23
0000
0000
1003
0000
0001
0000
0010
0100
0000
0100
0010
0000
0001
0000
0100
0000
,  // measure 24
0101
0020
0030
0010
0100
0010
1000
0002
,  // measure 25
0003
0200
0300
0100
0001
0100
0010
2000
,  // measure 26
3000
0001
0001
0010
0100
1000
0010
2000
,  // measure 27
3000
0002
0003
1000
0100
1000
0010
1000
,  // measure 28
0002
0000
0013
0002
0003
0000
0010
0100
,  // measure 29
0020
0000
0130
0020
0030
0000
1000
0100
,  // measure 30
2000
0000
3100
2000
0000
0000
3000
0001
,  // measure 31
0020
0032
0023
0230
,  // measure 32
2300
0000
0000
0000
0010
0000
0000
0000
0100
0000
3000
0001
0000
0000
0001
0000
,  // measure 33
2000
0000
0000
0000
3002
0000
0000
0000
0023
0000
0030
0100
0000
0000
1000
0000
,  // measure 34
0002
0000
0000
0000
0010
0000
0000
0000
1000
0000
0000
0103
0000
0000
0010
0000
,  // measure 35
2000
0000
0000
0000
3200
0000
0000
0000
2300
0000
3000
0010
0000
0000
1000
0000
,  // measure 36
0001
0000
0000
0010
0000
0000
0010
0000
0010
0000
0000
2000
0000
3000
0020
0000
,  // measure 37
2030
0000
3000
0200
0000
0000
0300
0000
1000
0000
0000
0010
0000
0000
0010
0000
,  // measure 38
0020
0000
0000
0000
0100
0030
0000
0000
0001
0000
0000
1000
0000
0000
0010
0000
,  // measure 39
2000
0000
0000
0000
3020
0000
0000
0000
1030
0001
1000
0000
0001
0000
0010
0000
,  // measure 40
0011
0000
0001
1000
0001
0000
0100
0000
0001
1000
0000
1000
0100
0000
1000
0000
,  // measure 41
0001
0000
0001
0010
0100
0000
0010
0000
0001
1000
0000
1000
0001
0000
0010
0000
,  // measure 42
0001
0000
1000
0100
0010
0000
0001
0000
0001
0100
0000
0100
0010
0000
0010
0000
,  // measure 43
0100
0000
0001
0010
0100
0000
0100
0000
1000
0010
0001
0010
0100
0000
0001
0000
,  // measure 44
1000
0010
0000
0010
1000
0000
0010
0000
0010
1000
0000
1000
0010
0000
1000
0000
,  // measure 45
0010
0100
0000
0001
0010
0000
0100
0000
0100
0010
0001
0100
0010
0000
1000
0000
,  // measure 46
0010
0000
0001
0100
0001
0000
1000
0000
0100
0001
0000
0001
0100
0000
0010
0000
,  // measure 47
2000
3002
0023
0230
,  // measure 48
2300
0000
0000
0000
3001
0000
1000
0000
0001
0100
0000
1000
0100
0000
0010
0000
,  // measure 49
0002
0000
0000
0000
1003
0000
1000
0000
0001
0010
0000
0100
0010
0000
0100
0000
,  // measure 50
2000
0000
0000
0000
3001
0000
1000
0000
0010
0100
0000
0100
0010
0000
1000
0000
,  // measure 51
0002
0000
1003
0100
0020
0000
0031
0100
,  // measure 52
0002
0000
0000
0000
1003
0000
1000
0000
0010
0100
0000
0100
0010
0000
0100
0000
,  // measure 53
0002
0000
0000
0000
1003
0000
1000
0000
0010
0001
0000
0001
1000
0000
0010
0000
,  // measure 54
0002
0000
0000
0000
1003
0000
1000
0000
0010
0100
0000
0100
0010
0000
1000
0000
,  // measure 55
0002
0023
0230
2300
,  // measure 56
3002
0000
0000
0000
1003
0000
1000
0000
0010
0100
0001
0100
0010
0000
1000
0000
,  // measure 57
0001
0100
0000
0001
0010
0000
0001
0000
1000
0001
0000
1000
0100
0000
1000
0000
,  // measure 58
0020
0000
0000
0000
0130
0000
0100
0000
0001
1000
0100
0010
0001
0000
1000
0000
,  // measure 59
1000
0100
0000
0100
1000
0000
0001
0000
0100
0010
0000
0010
0100
0000
0001
0000
,  // measure 60
2000
0000
0000
0000
3001
0000
0100
0000
1000
0001
0010
0001
1000
0000
0001
0000
,  // measure 61
0100
0010
0000
0010
0100
0000
0001
0000
1000
0100
0000
0100
1000
0000
0010
0000
,  // measure 62
0200
0000
0000
0000
0301
0000
1000
0000
0001
0010
0100
1000
0100
0000
1000
0000
,  // measure 63
0010
0000
0100
0010
0100
0010
1000
0001
0000
0001
0010
0001
0010
0000
0100
0000
,  // measure 64
0100
0000
0100
0000
1000
0001
1000
0010
0000
0010
1000
0010
0100
0000
1000
0000
,  // measure 65
0001
0000
0001
0000
0010
0100
0010
0100
0000
0100
0010
0100
1000
0000
0010
0000
,  // measure 66
0001
0000
0001
0000
1000
0010
1000
0010
0000
0010
1000
0001
0100
0000
1000
0000
,  // measure 67
0010
0000
0010
0000
1000
0001
1000
0001
0000
0001
1000
0001
0100
0000
1000
0000
,  // measure 68
0200
0000
0000
0000
0000
0000
0000
0310
,  // measure 69
0020
0000
0000
0032
0000
0000
0000
0000
,  // measure 70
2000
0003
0000
0000
,  // measure 71
0000
3000
0000
0000
;

//---------------dance-single - ----------------
#NOTEDATA:;
#CHARTNAME:;
#STEPSTYPE:dance-single;
#DESCRIPTION:;
#CHARTSTYLE:;
#DIFFICULTY:Medium;
#METER:9;
#RADARVALUES:0.374438,0.444646,0.062406,0.577259,0.062406,336.000000,328.000000,8.000000,74.000000,0.000000,0.000000,0.000000,0.000000,0.000000,0.374438,0.444646,0.062406,0.577259,0.062406,336.000000,328.000000,8.000000,74.000000,0.000000,0.000000,0.000000,0.000000,0.000000;
#CREDIT:;
#NOTES:
// measure 0
0000
0000
0000
0000
,  // measure 1
0000
0000
0000
0000
,  // measure 2
0000
0000
0000
0000
,  // measure 3
0000
0000
0000
0000
,  // measure 4
2000
0000
0000
0000
,  // measure 5
3020
0000
0000
0000
,  // measure 6
0230
0000
0000
0000
,  // measure 7
0302
0000
0000
0000
2003
0000
0000
3000
,  // measure 8
0001
0000
1000
0000
0100
1000
0001
0000
,  // measure 9
0010
0000
0001
0000
1000
0010
1000
0000
,  // measure 10
0100
0000
0010
0000
0001
0010
0100
0000
,  // measure 11
1000
0000
0010
0000
1000
0001
1000
0000
,  // measure 12
0100
0000
0010
0000
0001
0010
0001
0000
,  // measure 13
1000
0000
0010
0000
0100
0010
0100
0000
,  // measure 14
0001
1000
0002
0013
,  // measure 15
1000
0010
1000
1010
,  // measure 16
0001
0010
0001
1000
0020
0000
1030
0000
,  // measure 17
0001
1000
0100
1000
0002
0000
0013
0000
,  // measure 18
0100
0010
0002
0000
0013
0100
2000
0000
,  // measure 19
3010
1000
0001
0010
0200
0000
1300
0000
,  // measure 20
0002
0000
1003
0000
0010
0000
1000
0100
,  // measure 21
2000
0000
3100
0000
0001
0000
0010
0100
,  // measure 22
0020
0031
2000
3001
,  // measure 23
1001
0010
1010
0100
,  // measure 24
1000
0000
1000
0000
1000
0100
2000
0000
,  // measure 25
3100
0000
0010
0000
0001
0010
0002
0000
,  // measure 26
0013
0000
0100
0000
1000
0010
2000
0000
,  // measure 27
3001
0000
0010
0000
0001
0010
0100
0000
,  // measure 28
2000
0000
3010
1000
0001
0000
1000
0010
,  // measure 29
2000
0000
3100
0010
0001
0000
0001
0010
,  // measure 30
0200
0000
0310
0001
0020
0000
0031
0010
,  // measure 31
0002
0023
0032
0023
,  // measure 32
0230
0000
0000
0000
0000
0300
0000
0020
,  // measure 33
2030
3002
0023
0230
,  // measure 34
2300
0000
0000
0000
3002
0000
0000
0013
,  // measure 35
0200
0320
0032
2003
,  // measure 36
3010
0000
0000
0010
0000
0000
0010
0000
0010
0000
0000
0100
0000
0000
0001
0000
,  // measure 37
0020
0000
0000
0000
0031
0000
0000
0000
1000
0000
0000
1000
0000
0000
1000
0000
,  // measure 38
0020
1030
0001
0010
,  // measure 39
0200
0000
0000
0000
2300
0000
0000
0000
3002
0000
0000
0000
2003
0000
0000
3000
,  // measure 40
0002
0000
0013
0100
1000
0010
1000
0000
,  // measure 41
0002
2003
3020
2030
,  // measure 42
3001
0010
0200
0000
1300
0010
2000
0000
,  // measure 43
3001
0010
0200
0000
1300
0010
2000
0000
,  // measure 44
3001
1000
0010
1000
0002
0000
0013
0000
,  // measure 45
0100
0010
0002
0000
1003
0010
2000
0000
,  // measure 46
3100
1100
0001
0011
,  // measure 47
0001
0010
0100
1000
0010
1000
0002
0000
,  // measure 48
0013
1000
0100
1000
0020
0000
1030
0000
,  // measure 49
1000
0010
0001
0010
2000
0000
3001
0000
,  // measure 50
0001
0010
0100
0010
0002
0000
0013
0000
,  // measure 51
0100
1000
0020
0000
1030
0001
0020
0000
,  // measure 52
0130
1000
0020
0000
1030
0100
2000
0000
,  // measure 53
3001
0010
0200
0000
1300
0010
2000
0000
,  // measure 54
3001
1001
0001
0011
,  // measure 55
0001
0010
0100
1000
0010
1000
0002
0000
,  // measure 56
1003
0000
0000
0000
0001
0000
0010
0000
0001
0020
0000
0000
0031
0000
0000
0000
,  // measure 57
1000
0000
0000
0100
0000
0000
1000
0000
0010
0000
0000
1000
0000
0000
0001
0000
,  // measure 58
0010
0000
0000
0100
0000
0000
1000
0000
0001
2000
0000
0000
3010
0000
0000
0000
,  // measure 59
1000
0000
0000
0001
0000
0000
0010
0000
0100
0000
0000
0010
0000
0000
0001
0000
,  // measure 60
0010
0000
0000
0100
0000
0000
1000
0000
0010
2000
0000
0000
3001
0000
0000
0000
,  // measure 61
1000
0000
0000
0010
0000
0000
1000
0000
0001
0000
0000
0010
0000
0000
0100
0000
,  // measure 62
1000
0000
0000
0001
0000
0000
1000
0000
0010
2000
0000
0000
3001
0000
0000
0000
,  // measure 63
0010
0100
1000
1001
,  // measure 64
0100
1000
0100
1000
0010
1000
0001
0000
,  // measure 65
0010
0100
0010
0001
1000
0010
1000
0000
,  // measure 66
0001
0010
0100
0010
0001
0010
0100
0000
,  // measure 67
0010
1000
0010
1000
0001
0010
0100
0000
,  // measure 68
0002
0000
0000
0000
,  // measure 69
2003
0000
0000
0000
,  // measure 70
3200
0000
0000
0000
,  // measure 71
0000
0300
0000
0000
;

//---------------dance-single - ----------------
#NOTEDATA:;
#CHARTNAME:;
#STEPSTYPE:dance-single;
#DESCRIPTION:;
#CHARTSTYLE:;
#DIFFICULTY:Easy;
#METER:4;
#RADARVALUES:0.248511,0.305157,0.015602,0.358837,0.000000,223.000000,221.000000,2.000000,46.000000,0.000000,0.000000,0.000000,0.000000,0.000000,0.248511,0.305157,0.015602,0.358837,0.000000,223.000000,221.000000,2.000000,46.000000,0.000000,0.000000,0.000000,0.000000,0.000000;
#CREDIT:;
#NOTES:
0000
0000
0000
0000
,
0000
0000
0000
0000
,
0000
0000
0000
0000
,
0000
0000
0000
0000
,
1000
2000
0000
0000
0000
0000
0000
0000
,
3001
0002
0000
0000
0000
0000
0000
0000
,
0013
0020
0000
0000
0000
0000
0000
0000
,
0000
0000
0030
0000
,
1000
0000
0100
0000
2000
0000
0000
3000
,
0010
0000
1000
0000
0002
0000
0000
0003
,
0010
0000
0100
0000
0020
0000
0000
0030
,
0100
1000
0010
1000
,
0001
0000
0010
0000
0200
0000
0000
0300
,
1000
0000
0001
0000
2000
0000
0000
3000
,
0001
0000
0010
0000
0002
0000
0000
0003
,
0010
0000
0011
0000
,
0100
0000
1000
0000
0010
1000
0010
0000
,
1000
0000
0001
0000
1000
0001
1000
0000
,
0001
0000
0010
0000
0100
0010
0100
0000
,
0001
0000
0010
0000
0100
0010
0100
0000
,
1000
0000
1000
0000
0001
1000
0001
0000
,
0001
0000
0001
0000
1000
0001
1000
0000
,
0010
1000
0100
0010
,
0001
0010
0100
1000
,
0001
0000
1000
0000
0010
1000
0010
0000
,
1000
0000
0100
0000
0010
0100
0010
0000
,
0001
0000
1000
0000
0010
1000
0010
0000
,
1000
0000
0001
0000
0010
0001
0010
0000
,
0200
0310
0002
0013
,
2000
3001
0020
1030
,
2000
3001
0002
1003
,
0100
0010
0001
0010
,
0002
0000
0000
0003
,
1000
0010
1000
0100
,
0020
0000
0000
0000
0000
0030
0000
0000
,
0001
1000
0100
1000
,
0020
0000
1030
0000
,
0002
0000
1003
0000
,
2002
0000
3003
0000
,
1000
0100
0010
0001
,
0020
0001
0031
0000
,
0010
1000
0100
1000
,
0002
1000
1003
0000
,
0020
1000
1030
0000
,
1000
0100
1000
0010
,
2000
3001
0001
0010
,
0200
0000
0310
0000
,
1000
0001
1000
0010
,
1000
0001
0020
0031
,
0001
1000
0020
1030
,
1000
0100
0020
0130
,
0100
0010
0001
1000
,
0010
1000
0002
0013
,
0100
1000
0010
1000
,
0001
0010
0200
1300
,
2000
3001
0002
1003
,
0010
1000
0200
0310
,
0001
1000
0010
1000
,
0100
0010
0002
1003
,
0010
1000
0100
0010
,
0010
1000
0002
1003
,
0010
1000
0001
0010
,
0100
0010
0002
1003
,
2000
3001
0020
0130
,
0002
0000
0000
0000
,
2003
0000
0000
0000
,
3020
0000
0000
0000
,
0230
0000
0000
0000
,
0302
0000
0000
0000
,
2003
0000
0000
0000
,
3020
0000
0000
0000
,
0000
0030
0000
0000
0000
0000
0000
0000
;

//---------------dance-single - ----------------
#NOTEDATA:;
#CHARTNAME:;
#STEPSTYPE:dance-single;
#DESCRIPTION:;
#CHARTSTYLE:;
#DIFFICULTY:Beginner;
#METER:2;
#RADARVALUES:0.162702,0.194191,0.000000,0.202821,0.000000,146.000000,146.000000,0.000000,26.000000,0.000000,0.000000,0.000000,0.000000,0.000000,0.162702,0.194191,0.000000,0.202821,0.000000,146.000000,146.000000,0.000000,26.000000,0.000000,0.000000,0.000000,0.000000,0.000000;
#CREDIT:;
#NOTES:
0000
0000
0000
0000
,
0000
0000
0000
0000
,
0000
0000
0000
0000
,
0000
0000
0000
0000
,
2000
0000
0000
0000
,
3002
0000
0000
0000
,
0023
0000
0000
0000
,
0000
0000
0000
0000
,
0031
0000
0001
0000
,
1000
0000
1000
0000
,
0100
0000
0100
0000
,
1000
0000
1000
0000
,
0010
0000
0010
0000
,
0100
0000
0100
0000
,
0001
0000
2000
0000
,
3001
0000
0001
0000
,
1000
0010
1000
0000
,
1000
0100
1000
0000
,
0001
0010
0100
0000
,
1000
0010
0001
0000
,
1000
0100
1000
0000
,
0001
0010
0100
0000
,
0002
0000
1003
0000
,
2000
0000
3001
0000
,
0010
0100
0010
0000
,
1000
0001
1000
0000
,
0100
1000
0100
0000
,
0010
1000
0010
0000
,
0002
0000
1003
0000
,
2000
0000
3100
0000
,
0020
0000
0130
0000
,
1000
0000
0100
0000
,
0002
0000
0000
0003
,
1000
0000
0010
0000
,
2000
0000
0000
3000
,
0001
0000
0010
0000
,
0200
0000
0000
0000
,
2300
0000
0000
0000
,
3002
0000
0003
0000
,
1000
0000
0010
0000
,
1000
1000
0020
0030
,
1000
0001
1000
0000
,
0002
0000
0013
0000
,
2000
0000
3100
0000
,
0010
1000
0010
0000
,
0001
0100
0001
0000
,
0002
0000
1003
0000
,
0010
1000
0010
0000
,
0100
1000
0100
0000
,
0001
0010
0100
0000
,
1000
0001
1000
0000
,
0010
0010
0001
0000
,
1000
0100
1000
0000
,
0001
0010
0001
0000
,
1000
0100
1000
0000
,
0020
0000
1030
0000
,
0001
1000
0010
0000
,
1000
0010
0001
0000
,
0001
1000
0100
0000
,
0001
0010
0001
0000
,
0010
1000
0100
0000
,
0001
1000
0010
0000
,
0001
1000
0001
0000
,
0010
0000
0100
0000
,
2000
0000
0000
0000
,
3002
0000
0000
0000
,
0023
0000
0000
0000
,
0032
0000
0000
0000
,
2003
0000
0000
0000
,
3200
0000
0000
0000
,
0320
0000
0000
0000
,
0000
0030
0000
0000
0000
0000
0000
0000
;
