#VERSION:0.83;
#TITLE:Delicious;
#SUBTITLE:;
#ARTIST:THE BOYZ;
#TITLETRANSLIT:;
#SUBTITLETRANSLIT:;
#ARTISTTRANSLIT:;
#GENRE:;
#ORIGIN:;
#CREDIT:;
#BANNER:AV.avi;
#BACKGROUND:bg.png;
#PREVIEWVID:;
#JACKET:jacket.png;
#CDIMAGE:;
#DISCIMAGE:;
#LYRICSPATH:;
#CDTITLE:;
#MUSIC:audio.ogg;
#OFFSET:-0.094000;
#SAMPLESTART:87.426140;
#SAMPLELENGTH:15.000000;
#SELECTABLE:YES;
#DISPLAYBPM:90.000000:180.000000;
#BPMS:0.000=179.976;
#STOPS:;
#DELAYS:;
#WARPS:;
#TIMESIGNATURES:0.000=4=4;
#TICKCOUNTS:0.000=4;
#COMBOS:0.000=1;
#SPEEDS:0.000=1.000=0.000=0;
#SCROLLS:0.000=1.000,
254.500=0.900,
255.000=0.700,
255.500=0.600,
256.000=0.500,
265.000=1.000;
#FAKES:;
#LABELS:0.000=Song Start;
#BGCHANGES:0.000=MV.avi=1.000=1=0=1===CrossFade==,
99999=-nosongbg-=1.000=0=0=0 // don't automatically add -songbackground-
;
#KEYSOUNDS:;
#ATTACKS:
;

//---------------dance-single - ----------------
#NOTEDATA:;
#CHARTNAME:;
#STEPSTYPE:dance-single;
#DESCRIPTION:;
#CHARTSTYLE:;
#DIFFICULTY:Hard;
#METER:12;
#RADARVALUES:0.461408,0.542129,0.105781,0.684052,0.000000,458.000000,443.000000,15.000000,97.000000,0.000000,0.000000,0.000000,0.000000,0.000000,0.461408,0.542129,0.105781,0.684052,0.000000,458.000000,443.000000,15.000000,97.000000,0.000000,0.000000,0.000000,0.000000,0.000000;
#CREDIT:Musey's Chart;
#DISPLAYBPM:90.000000:180.000000;
#NOTES:
// measure 0
0000
0000
0000
0000
,  // measure 1
0000
0000
0000
0000
,  // measure 2
0000
0000
0000
0000
,  // measure 3
0000
0000
0000
0000
,  // measure 4
0000
0000
0000
0000
,  // measure 5
0000
0000
0000
0000
,  // measure 6
0000
0000
0000
0000
,  // measure 7
0000
0000
0000
0000
,  // measure 8
1000
0100
0010
0000
0001
0000
1000
0000
,  // measure 9
0100
1000
0010
0000
0100
0010
1000
0000
,  // measure 10
0001
0010
0100
0000
1000
0000
0001
0000
,  // measure 11
0100
0010
0100
0010
1000
0001
1000
0000
,  // measure 12
0001
0100
0001
0000
0001
0000
0001
0010
,  // measure 13
0100
0100
0001
0010
,  // measure 14
1000
0010
1000
0000
1000
0000
1000
0100
,  // measure 15
0010
0000
0010
0100
0001
0100
2000
0000
,  // measure 16
0000
0000
3001
0000
0100
0001
1000
0000
,  // measure 17
0010
0000
1010
0000
0001
0100
0010
0000
,  // measure 18
0100
0000
1100
0000
1000
0010
0001
0000
,  // measure 19
0010
0000
1010
0000
0001
0100
0001
0100
,  // measure 20
0010
0000
0100
0001
0010
0100
1000
0000
,  // measure 21
0010
0000
0010
1000
0100
0010
0001
0000
,  // measure 22
0001
0000
0001
0010
0001
0010
0100
1000
,  // measure 23
0100
1000
0002
0000
1003
0000
0010
0100
,  // measure 24
0001
0010
0200
0000
2300
0000
3020
0000
,  // measure 25
0032
0000
0000
0003
,  // measure 26
1000
0100
0020
0000
0230
0000
2300
0000
,  // measure 27
3001
0200
0000
0320
0000
2030
0000
3002
,  // measure 28
0000
0023
0230
2300
,  // measure 29
3020
0000
0000
0030
,  // measure 30
0001
1000
0020
0000
2030
0000
3002
0000
,  // measure 31
0023
0000
0230
0000
1300
0000
1000
0100
,  // measure 32
0010
0001
1000
0000
0100
0000
1001
0000
,  // measure 33
0001
0010
0000
0010
0100
0000
1000
0000
,  // measure 34
0001
1000
0010
0000
0100
0000
1001
0000
,  // measure 35
1000
0100
0010
0001
1000
0010
0100
0001
,  // measure 36
0010
0001
1000
1001
,  // measure 37
0010
0100
0000
0001
1000
0000
0020
0000
,  // measure 38
1030
0000
0001
1000
0001
0000
0010
0000
,  // measure 39
0001
0100
0001
1000
0001
1000
0001
2000
,  // measure 40
0000
3000
0202
0000
0303
0000
0001
0100
,  // measure 41
0001
2000
0000
3020
0000
2030
0000
3002
,  // measure 42
0000
0023
0000
0032
0000
0003
0000
2000
,  // measure 43
0000
3020
0000
0230
0000
0302
0000
0023
,  // measure 44
0000
0032
0000
2003
0000
3200
0000
0320
,  // measure 45
0000
0032
0000
0000
0203
0000
0300
0001
,  // measure 46
0010
0200
0000
2300
0000
3001
0000
0001
,  // measure 47
0010
0000
0001
0000
0001
1000
0020
0000
,  // measure 48
2030
3002
0000
0000
,  // measure 49
0000
0000
0000
0103
,  // measure 50
0001
0000
0100
0000
0000
0100
0000
0000
,  // measure 51
0000
0000
0000
0010
,  // measure 52
1000
0000
0002
0000
0000
1000
0000
0000
,  // measure 53
0000
0000
0000
1003
,  // measure 54
0001
0000
1000
0010
0100
0010
1000
0010
,  // measure 55
0100
0010
1000
0010
0100
0001
0010
0000
,  // measure 56
0001
1000
0010
1000
,  // measure 57
0001
0000
0001
0010
0100
1000
0010
0000
,  // measure 58
0100
0010
1000
0001
,  // measure 59
1000
0000
1000
0100
0010
0100
1000
0000
,  // measure 60
1000
0000
0010
0000
0000
0010
0000
0000
,  // measure 61
0010
0000
0100
0001
1000
0000
0010
0000
,  // measure 62
1000
0000
0100
0000
0000
0100
0000
0000
,  // measure 63
1000
0000
0001
0000
0020
0030
0000
0000
,  // measure 64
2000
3001
0010
0000
0100
0000
1000
0000
,  // measure 65
1000
0000
1000
0000
0100
0000
1000
0100
,  // measure 66
0010
0001
0100
0000
0001
0000
0101
0000
,  // measure 67
1000
0001
0000
0001
1000
0000
0010
0000
,  // measure 68
0010
0100
0001
0000
1000
0000
1100
0000
,  // measure 69
0010
0001
0100
0001
0010
0100
0001
0010
,  // measure 70
1000
0001
1000
1001
,  // measure 71
0010
1000
0000
1000
0001
0000
2000
0000
,  // measure 72
0000
0000
3001
0100
0002
0000
0023
0000
,  // measure 73
0130
1000
0001
1000
0010
1000
0010
2000
,  // measure 74
0000
3000
0202
0000
0303
0000
1000
0010
,  // measure 75
1000
0002
0000
0023
0000
2030
0000
3200
,  // measure 76
0000
0302
0000
2003
0000
3000
0000
2000
,  // measure 77
0000
3002
0000
0023
0000
0032
0000
0203
,  // measure 78
0000
0320
0000
0032
0000
2003
0000
3200
,  // measure 79
0000
0320
0000
0000
2030
0000
3001
0100
,  // measure 80
0001
0020
0000
0032
0000
1003
0000
1000
,  // measure 81
0010
0000
0010
0000
0010
1000
0002
0000
,  // measure 82
1003
0000
0110
0000
0001
0100
0000
0100
,  // measure 83
0001
0001
0010
0001
,  // measure 84
1000
0000
1001
0000
0010
1000
0000
1000
,  // measure 85
0010
0001
0010
1000
,  // measure 86
0010
0000
1100
0000
0001
0100
0000
0100
,  // measure 87
0001
0100
0010
0001
,  // measure 88
1000
0000
0100
0010
1000
0000
0010
0000
,  // measure 89
0100
0001
0010
0100
1000
0010
0100
0001
,  // measure 90
0000
0000
0210
0000
0310
0000
0001
0100
,  // measure 91
0010
0200
0000
0320
0000
2030
0000
3002
,  // measure 92
0000
1003
0100
0020
0000
0030
0001
0010
,  // measure 93
1000
0020
0000
0032
0000
1003
0000
0010
,  // measure 94
1000
0020
0000
0032
0000
0013
0100
0010
,  // measure 95
0001
0020
0000
0000
0130
0000
0100
0001
,  // measure 96
1000
0020
0000
2030
0000
3002
0000
0013
,  // measure 97
0200
0000
0302
0000
1003
0001
2000
0000
,  // measure 98
3200
0000
0301
0000
0000
0001
0000
0001
,  // measure 99
0010
0010
0100
0001
,  // measure 100
0001
0000
0010
0000
0000
0010
0000
0001
,  // measure 101
1000
0000
1000
0100
0010
0001
1000
0020
,  // measure 102
0000
0030
0002
0000
0003
0000
0000
0000
;

//---------------dance-single - ----------------
#NOTEDATA:;
#CHARTNAME:;
#STEPSTYPE:dance-single;
#DESCRIPTION:;
#CHARTSTYLE:;
#DIFFICULTY:Medium;
#METER:8;
#RADARVALUES:0.298203,0.360538,0.021156,0.282083,0.000000,296.000000,293.000000,3.000000,40.000000,0.000000,0.000000,0.000000,0.000000,0.000000,0.298203,0.360538,0.021156,0.282083,0.000000,296.000000,293.000000,3.000000,40.000000,0.000000,0.000000,0.000000,0.000000,0.000000;
#CREDIT:Musey's Chart;
#DISPLAYBPM:90.000000:180.000000;
#NOTES:
// measure 0
0000
0000
0000
0000
,  // measure 1
0000
0000
0000
0000
,  // measure 2
0000
0000
0000
0000
,  // measure 3
0000
0000
0000
0000
,  // measure 4
0000
0000
0000
0000
,  // measure 5
0000
0000
0000
0000
,  // measure 6
0000
0000
0000
0000
,  // measure 7
0000
0000
0000
0000
,  // measure 8
1000
0010
0010
1000
,  // measure 9
0001
0200
0000
0310
,  // measure 10
0100
0001
0001
0010
,  // measure 11
0100
0020
0000
0031
,  // measure 12
1000
0010
0010
1000
,  // measure 13
0100
0100
1000
0001
,  // measure 14
0001
0010
0010
0100
,  // measure 15
1000
1000
0000
1001
,  // measure 16
0000
0010
1000
0001
,  // measure 17
0001
1000
0000
0010
,  // measure 18
1000
0001
0001
0010
,  // measure 19
0100
0100
0000
1001
,  // measure 20
0000
1000
0100
0010
,  // measure 21
0010
0001
1000
0010
,  // measure 22
0010
1000
0100
0010
,  // measure 23
0001
0010
0100
1000
,  // measure 24
0001
0100
0001
0010
,  // measure 25
0002
0000
0000
1003
,  // measure 26
0000
0010
1000
0200
,  // measure 27
0000
1300
1000
0002
,  // measure 28
0000
0013
0100
0010
,  // measure 29
0200
0000
0000
1300
,  // measure 30
0000
0001
0001
1000
,  // measure 31
0010
2000
0000
3001
,  // measure 32
0000
0001
0010
0001
,  // measure 33
0001
1000
1000
0010
,  // measure 34
1000
0100
0100
1000
,  // measure 35
0001
0010
1000
0010
,  // measure 36
0001
1000
0001
0010
,  // measure 37
0001
0010
0100
2000
,  // measure 38
0000
3001
0001
0100
,  // measure 39
0100
0001
1000
0001
,  // measure 40
0000
0020
0000
0031
,  // measure 41
0100
0100
0001
1000
,  // measure 42
0010
2000
0000
3010
,  // measure 43
1000
0001
1000
0100
,  // measure 44
0010
0001
1000
0010
,  // measure 45
1000
0002
0000
1003
,  // measure 46
0010
0100
0100
0001
,  // measure 47
1000
0010
0010
2000
,  // measure 48
0000
3002
0000
0000
,  // measure 49
0000
0023
0000
0000
,  // measure 50
0000
0230
0000
0000
,  // measure 51
0000
0320
0000
0000
,  // measure 52
0000
0032
0000
2003
,  // measure 53
0000
3002
0000
0000
,  // measure 54
0000
0203
0000
0320
,  // measure 55
0000
2030
0000
0000
,  // measure 56
0000
3001
0100
0001
,  // measure 57
0001
2000
0000
3001
,  // measure 58
0000
0010
1000
0001
,  // measure 59
0010
0100
0010
0001
,  // measure 60
0000
1000
0000
1000
,  // measure 61
0000
0001
0000
0001
,  // measure 62
0100
0001
0000
0001
,  // measure 63
0000
0010
0000
0100
,  // measure 64
0000
0002
0000
0000
,  // measure 65
0000
1003
0000
0000
,  // measure 66
0000
1000
1000
0010
,  // measure 67
1000
0001
0001
0010
,  // measure 68
0100
1000
1000
0001
,  // measure 69
1000
0010
1000
0001
,  // measure 70
0010
0100
0100
0010
,  // measure 71
0001
1000
0010
2000
,  // measure 72
0000
3001
0100
0001
,  // measure 73
0001
0010
0010
0010
,  // measure 74
0000
0210
0000
0310
,  // measure 75
0001
1000
1000
0010
,  // measure 76
1000
0002
0000
0013
,  // measure 77
1000
0010
0001
0100
,  // measure 78
0010
1000
0001
0010
,  // measure 79
0100
2000
0000
3001
,  // measure 80
0100
0001
0010
0100
,  // measure 81
1000
0001
0001
2000
,  // measure 82
0000
3020
0000
2030
,  // measure 83
0000
3001
1000
0001
,  // measure 84
0001
0002
0000
0023
,  // measure 85
0000
0130
0010
0100
,  // measure 86
0100
2000
0000
3002
,  // measure 87
0000
1003
0001
1000
,  // measure 88
1000
0010
0001
0010
,  // measure 89
1000
0001
0010
1000
,  // measure 90
0000
0001
0001
1000
,  // measure 91
1000
0020
0000
1030
,  // measure 92
0000
0001
0010
0100
,  // measure 93
0010
0002
0000
1003
,  // measure 94
0000
0010
1000
0001
,  // measure 95
0010
0200
0000
1300
,  // measure 96
0000
0001
1000
0010
,  // measure 97
1000
0000
0001
0000
1000
0001
1000
0000
,  // measure 98
0002
1003
0000
0100
,  // measure 99
0000
0001
0100
0001
,  // measure 100
0000
0010
0000
0001
,  // measure 101
0000
1000
0001
2000
,  // measure 102
0000
3010
0000
0000
;

//---------------dance-single - ----------------
#NOTEDATA:;
#CHARTNAME:;
#STEPSTYPE:dance-single;
#DESCRIPTION:;
#CHARTSTYLE:;
#DIFFICULTY:Easy;
#METER:4;
#RADARVALUES:0.159176,0.216323,0.007052,0.155146,0.000000,158.000000,157.000000,1.000000,22.000000,0.000000,0.000000,0.000000,0.000000,0.000000,0.159176,0.216323,0.007052,0.155146,0.000000,158.000000,157.000000,1.000000,22.000000,0.000000,0.000000,0.000000,0.000000,0.000000;
#CREDIT:Musey's Chart;
#DISPLAYBPM:90.000000:180.000000;
#NOTES:
// measure 0
0000
0000
0000
0000
,  // measure 1
0000
0000
0000
0000
,  // measure 2
0000
0000
0000
0000
,  // measure 3
0000
0000
0000
0000
,  // measure 4
0000
0000
0000
0000
,  // measure 5
0000
0000
0000
0000
,  // measure 6
0000
0000
0000
0000
,  // measure 7
0000
0000
0000
0000
,  // measure 8
0000
1000
0000
0000
,  // measure 9
0000
1000
0000
0000
,  // measure 10
0000
0001
0000
0000
,  // measure 11
0000
0001
0000
0000
,  // measure 12
0000
0010
0000
0010
,  // measure 13
0000
0100
0000
0000
,  // measure 14
0000
1000
0000
0001
,  // measure 15
0000
1000
0000
0000
,  // measure 16
0000
0010
0000
0010
,  // measure 17
0000
0100
0000
0100
,  // measure 18
0000
0001
0000
0001
,  // measure 19
0000
1000
0000
0000
,  // measure 20
0000
1000
0000
1000
,  // measure 21
0000
0001
0000
0001
,  // measure 22
0000
0010
0000
0010
,  // measure 23
0000
0100
0000
0100
,  // measure 24
0000
0002
0000
0000
,  // measure 25
0000
0000
0003
0000
,  // measure 26
0000
1000
0000
1000
,  // measure 27
0000
0010
0000
0010
,  // measure 28
0000
0200
0000
0000
,  // measure 29
0000
0000
0300
0000
,  // measure 30
0000
0001
0000
1000
,  // measure 31
0000
0001
0000
0000
,  // measure 32
0000
0100
0000
0100
,  // measure 33
0000
0001
0000
0010
,  // measure 34
0000
0001
0000
0001
,  // measure 35
0000
1000
0000
0001
,  // measure 36
0000
1000
0000
1000
,  // measure 37
0000
0010
0000
0010
,  // measure 38
0000
0100
0000
0001
,  // measure 39
0000
1000
0000
1000
,  // measure 40
0000
0002
0000
1003
,  // measure 41
0000
0010
0000
1000
,  // measure 42
0000
0020
0000
1030
,  // measure 43
0000
0001
0000
0100
,  // measure 44
0000
0002
0000
1003
,  // measure 45
0000
0020
0000
1030
,  // measure 46
0000
1000
0000
0001
,  // measure 47
0000
2000
0000
3010
,  // measure 48
0000
0002
0000
0000
,  // measure 49
0000
0000
0000
0000
,  // measure 50
0000
0203
0000
0000
,  // measure 51
0000
0000
0000
0000
,  // measure 52
0000
0302
0000
0000
,  // measure 53
0000
0000
0000
0000
,  // measure 54
0000
0023
0000
0000
,  // measure 55
0000
0000
0000
0000
,  // measure 56
0000
0031
0000
0001
,  // measure 57
0000
1000
0000
1000
,  // measure 58
0000
0010
0000
0010
,  // measure 59
0000
0100
0000
0100
,  // measure 60
0000
0002
0000
0000
,  // measure 61
0000
2003
0000
0000
,  // measure 62
0000
3010
0000
0010
,  // measure 63
0000
0010
0000
0000
,  // measure 64
0000
0200
0000
0000
,  // measure 65
0000
0000
0000
0000
,  // measure 66
0000
0301
0000
0001
,  // measure 67
0000
0010
0000
0001
,  // measure 68
0000
1000
0000
1000
,  // measure 69
0000
0010
0000
1000
,  // measure 70
0000
0001
0000
0001
,  // measure 71
0000
0100
0000
0100
,  // measure 72
0000
0001
0000
1000
,  // measure 73
0000
0002
0000
0013
,  // measure 74
0000
2000
0000
3010
,  // measure 75
0000
0100
0000
0001
,  // measure 76
0000
2000
0000
3010
,  // measure 77
0000
0001
0000
0010
,  // measure 78
0000
0001
0000
1000
,  // measure 79
0000
0020
0000
0130
,  // measure 80
0000
0001
0000
1000
,  // measure 81
0000
0200
0000
1300
,  // measure 82
0000
1000
0000
1000
,  // measure 83
0000
0001
0000
0001
,  // measure 84
0000
0010
0000
0010
,  // measure 85
0000
0001
0000
0001
,  // measure 86
0000
0100
0000
0100
,  // measure 87
0000
0010
0000
0010
,  // measure 88
0000
1000
0000
0001
,  // measure 89
0000
1000
0001
1000
,  // measure 90
0000
0001
0000
0001
,  // measure 91
0000
0010
0100
0010
,  // measure 92
0000
0001
0000
0001
,  // measure 93
0000
1000
0001
1000
,  // measure 94
0000
0010
0000
1000
,  // measure 95
0000
0100
1000
0100
,  // measure 96
0000
0010
0000
0001
,  // measure 97
0000
2000
0000
3001
,  // measure 98
0000
0200
0000
0000
,  // measure 99
0000
0301
0000
0000
,  // measure 100
0000
0002
0000
0000
,  // measure 101
0000
1003
0000
0000
,  // measure 102
0000
1001
0000
0000
;

//---------------dance-single - ----------------
#NOTEDATA:;
#CHARTNAME:;
#STEPSTYPE:dance-single;
#DESCRIPTION:;
#CHARTSTYLE:;
#DIFFICULTY:Beginner;
#METER:2;
#RADARVALUES:0.107796,0.180269,0.000000,0.141042,0.000000,107.000000,107.000000,0.000000,20.000000,0.000000,0.000000,0.000000,0.000000,0.000000,0.107796,0.180269,0.000000,0.141042,0.000000,107.000000,107.000000,0.000000,20.000000,0.000000,0.000000,0.000000,0.000000,0.000000;
#CREDIT:Musey's Chart;
#DISPLAYBPM:90.000000:180.000000;
#NOTES:
// measure 0
0000
0000
0000
0000
,  // measure 1
0000
0000
0000
0000
,  // measure 2
0000
0000
0000
0000
,  // measure 3
0000
0000
0000
0000
,  // measure 4
0000
0000
0000
0000
,  // measure 5
0000
0000
0000
0000
,  // measure 6
0000
0000
0000
0000
,  // measure 7
0000
0000
0000
0000
,  // measure 8
0000
1000
0000
0000
,  // measure 9
0000
1000
0000
0000
,  // measure 10
0000
0001
0000
0000
,  // measure 11
0000
0001
0000
0000
,  // measure 12
0000
0010
0000
0000
,  // measure 13
0000
0010
0000
0000
,  // measure 14
0000
0010
0000
0000
,  // measure 15
0000
1000
0000
0000
,  // measure 16
0000
0001
0000
0000
,  // measure 17
0000
0001
0000
0000
,  // measure 18
0000
1000
0000
0000
,  // measure 19
0000
0100
0000
0000
,  // measure 20
0000
1000
0000
0000
,  // measure 21
0000
1000
0000
0000
,  // measure 22
0000
0001
0000
0000
,  // measure 23
0000
0010
0000
0000
,  // measure 24
0000
2000
0000
0000
,  // measure 25
0000
0000
3000
0000
,  // measure 26
0000
0002
0000
0000
,  // measure 27
0000
0000
0003
0000
,  // measure 28
0000
0020
0000
0000
,  // measure 29
0000
0030
0000
0000
,  // measure 30
0000
2000
0000
0000
,  // measure 31
0000
3000
0000
0000
,  // measure 32
0000
0001
0000
0001
,  // measure 33
0000
1000
0000
1000
,  // measure 34
0000
0010
0000
0010
,  // measure 35
0000
0100
0000
0100
,  // measure 36
0000
0001
0000
0001
,  // measure 37
0000
1000
0000
0000
,  // measure 38
0000
0010
0000
0010
,  // measure 39
0000
1000
0000
0000
,  // measure 40
0000
2000
0000
0000
,  // measure 41
0000
3001
0000
0000
,  // measure 42
0000
0002
0000
0000
,  // measure 43
0000
0013
0000
0000
,  // measure 44
0000
0100
0000
0000
,  // measure 45
0000
0100
0000
0000
,  // measure 46
0000
0010
0000
0010
,  // measure 47
0000
2000
0000
0000
,  // measure 48
0000
3002
0000
0000
,  // measure 49
0000
0000
0000
0000
,  // measure 50
0000
2003
0000
0000
,  // measure 51
0000
0000
0000
0000
,  // measure 52
0000
3020
0000
0000
,  // measure 53
0000
0000
0000
0000
,  // measure 54
0000
2030
0000
0000
,  // measure 55
0000
0000
0000
0000
,  // measure 56
0000
3001
0000
0000
,  // measure 57
0000
0001
0000
0000
,  // measure 58
0000
1000
0000
0000
,  // measure 59
0000
1000
0000
0000
,  // measure 60
0000
0010
0000
0000
,  // measure 61
0000
0000
0000
0000
,  // measure 62
0000
0010
0000
0000
,  // measure 63
0000
0000
0000
0000
,  // measure 64
0000
0200
0000
0000
,  // measure 65
0000
0300
0000
0000
,  // measure 66
0000
0001
0000
0000
,  // measure 67
0000
1000
0000
1000
,  // measure 68
0000
0001
0000
0000
,  // measure 69
0000
0010
0000
0100
,  // measure 70
0000
0010
0000
0000
,  // measure 71
0000
2000
0000
0000
,  // measure 72
0000
3001
0000
0001
,  // measure 73
0000
0002
0000
0000
,  // measure 74
0000
0013
0000
0000
,  // measure 75
0000
0010
0000
0000
,  // measure 76
0000
0100
0000
0000
,  // measure 77
0000
1000
0000
0000
,  // measure 78
0000
0001
0000
1000
,  // measure 79
0000
0001
0000
0000
,  // measure 80
0000
2000
0000
0000
,  // measure 81
0000
3010
0000
0000
,  // measure 82
0000
0001
0000
0010
,  // measure 83
0000
0001
0000
0001
,  // measure 84
0000
0010
0000
0100
,  // measure 85
0000
0010
0000
0010
,  // measure 86
0000
0100
0000
0010
,  // measure 87
0000
0100
0000
0100
,  // measure 88
0000
0001
0000
0001
,  // measure 89
0000
1000
0000
0000
,  // measure 90
0000
0020
0000
0000
,  // measure 91
0000
1030
0000
1000
,  // measure 92
0000
0002
0000
0000
,  // measure 93
0000
1003
0000
1000
,  // measure 94
0000
0010
0000
0010
,  // measure 95
0000
2000
0000
0000
,  // measure 96
0000
3001
0000
0001
,  // measure 97
0000
1000
0000
1000
,  // measure 98
0000
0020
0000
0000
,  // measure 99
0000
1030
0000
0000
,  // measure 100
0000
2000
0000
0000
,  // measure 101
0000
3001
0000
0000
,  // measure 102
0000
1000
0000
0000
;
