#VERSION:0.83;
#TITLE:-Deep Impact;
#SUBTITLE:;
#ARTIST:Sephid;
#TITLETRANSLIT:;
#SUBTITLETRANSLIT:;
#ARTISTTRANSLIT:;
#GENRE:;
#ORIGIN:;
#CREDIT:;
#BANNER:AV.avi;
#BACKGROUND:bg.png;
#PREVIEWVID:;
#JACKET:jacket.png;
#CDIMAGE:;
#DISCIMAGE:;
#LYRICSPATH:;
#CDTITLE:;
#MUSIC:Audio.ogg;
#OFFSET:-0.138000;
#SAMPLESTART:52.858093;
#SAMPLELENGTH:15.000004;
#SELECTABLE:YES;
#DISPLAYBPM:*;
#BPMS:0.000=100.000,
8.000=400.000,
40.000=100.000,
56.000=200.000,
88.000=400.000,
120.000=100.000,
136.000=200.000,
198.000=100.000,
199.000=200.000,
231.000=100.000,
257.000=400.000,
317.000=100.000,
318.000=400.000,
378.000=100.000,
379.000=400.000,
407.000=100.000,
408.000=400.000;
#STOPS:;
#DELAYS:;
#WARPS:;
#TIMESIGNATURES:0.000=4=4;
#TICKCOUNTS:0.000=4;
#COMBOS:0.000=1;
#SPEEDS:0.000=1.000=0.000=0,
244.000=2.000=1.000=0,
246.000=5.000=1.000=0,
248.000=10.000=1.000=0,
250.000=15.000=1.000=0,
252.000=20.000=1.000=0;
#SCROLLS:0.000=1.000,
7.000=8.000,
7.063=0.250,
7.125=8.000,
7.188=0.250,
7.250=8.000,
7.313=0.250,
7.375=8.000,
7.438=0.250,
7.500=8.000,
7.563=0.250,
7.625=8.000,
7.688=0.250,
7.750=8.000,
7.813=0.250,
7.875=8.000,
7.938=0.250,
8.000=1.000,
47.500=2.000,
47.563=0.250,
47.625=2.000,
47.688=0.250,
47.750=2.000,
47.813=0.250,
47.875=2.000,
47.938=0.250,
48.000=1.000,
71.125=0.200,
71.250=2.000,
71.375=0.200,
71.500=2.000,
71.625=0.200,
71.750=2.000,
71.875=0.200,
72.000=1.000,
86.000=2.000,
86.125=0.200,
86.250=2.000,
86.375=0.200,
86.500=2.000,
86.625=0.200,
86.750=2.000,
86.875=0.200,
87.000=2.000,
87.125=0.200,
87.250=2.000,
87.375=0.200,
87.500=2.000,
87.625=0.200,
87.750=2.000,
87.875=0.200,
88.000=1.000,
151.000=2.000,
151.125=0.200,
151.250=2.000,
151.375=0.200,
151.500=2.000,
151.625=0.200,
151.750=2.000,
151.875=0.200,
152.000=1.000,
166.500=2.000,
166.563=0.250,
166.625=2.000,
166.688=0.250,
166.750=2.000,
166.813=0.250,
166.875=2.000,
166.938=0.250,
167.000=2.000,
167.063=0.250,
167.125=2.000,
167.188=0.250,
167.250=2.000,
167.313=0.250,
167.375=2.000,
167.438=0.250,
167.500=1.000,
231.000=0.050,
254.000=0.005,
257.000=0.050;
#FAKES:;
#LABELS:0.000=Song Start;
#BGCHANGES:0.000=MV.avi=1.000=1=0=1===CrossFade==,
472.000=MV.avi=0.000=0=0=1=====,
472.021=bg.png=1.000=1=0=1===CrossFade==,
99999=-nosongbg-=1.000=0=0=0 // don't automatically add -songbackground-
;
#KEYSOUNDS:;
#ATTACKS:
;

//---------------dance-single - ----------------
#NOTEDATA:;
#CHARTNAME:;
#STEPSTYPE:dance-single;
#DESCRIPTION:;
#CHARTSTYLE:;
#DIFFICULTY:Challenge;
#METER:17;
#RADARVALUES:0.826417,1.588610,0.448760,0.399804,0.212141,709.000000,654.000000,55.000000,49.000000,0.000000,0.000000,0.000000,0.000000,0.000000,0.826417,1.588610,0.448760,0.399804,0.212141,709.000000,654.000000,55.000000,49.000000,0.000000,0.000000,0.000000,0.000000,0.000000;
#CREDIT:Rajeious's Chart;
#DISPLAYBPM:*;
#NOTES:
// measure 0
0000
0000
0000
0000
,  // measure 1
0000
0000
0000
0000
,  // measure 2
1001
0000
0001
0010
,  // measure 3
0100
1000
0010
0100
,  // measure 4
0001
1000
0001
0100
,  // measure 5
0010
0000
1000
0000
0001
0000
0010
0001
,  // measure 6
0010
0001
0010
0100
,  // measure 7
1000
0001
0001
0100
,  // measure 8
0100
0001
0100
0001
1000
0010
1000
0010
,  // measure 9
0100
0010
0100
0001
1000
0001
0100
0010
,  // measure 10
0100
0000
0001
0000
0001
0100
0000
0100
0010
1000
0010
0000
1001
0000
0001
0000
,  // measure 11
0101
0000
1000
0000
0001
0100
0000
0100
0010
1000
0100
0000
1100
0000
1000
0000
,  // measure 12
1001
0000
0010
0000
1000
0100
0000
0100
1000
0001
0010
0000
0011
0000
0001
0000
,  // measure 13
1001
0000
0100
0000
0010
0100
0000
0100
0010
1000
0010
1000
1001
0000
0110
0000
,  // measure 14
1001
0000
0100
0010
0101
0001
1000
0010
,  // measure 15
1000
0100
0001
0000
0101
0000
1010
0000
,  // measure 16
0101
0000
0001
1000
0110
0010
0001
1000
,  // measure 17
0001
0100
0010
0000
0101
0000
1010
0000
,  // measure 18
0101
0000
1000
0001
0011
0010
0001
1000
,  // measure 19
0100
0001
0100
0000
0110
0000
1001
0000
,  // measure 20
0110
0000
1000
0001
0101
0100
0001
1000
,  // measure 21
0100
0010
0001
0010
0020
0000
0230
0000
,  // measure 22
1300
0000
0001
0100
,  // measure 23
0010
0100
0001
1000
,  // measure 24
0100
0010
0001
1000
,  // measure 25
0001
0000
0100
0000
0010
0000
1000
0001
,  // measure 26
1000
0100
0010
0001
,  // measure 27
1000
0001
0100
0010
,  // measure 28
1000
0100
1000
0100
0010
0100
0010
0001
,  // measure 29
0010
0100
1000
0100
0010
0001
1000
0010
,  // measure 30
0100
0000
0010
1000
0010
0000
1000
0001
0010
0100
0010
0000
1001
0000
0001
0100
,  // measure 31
0101
0000
1000
0100
0010
0000
0001
0010
0100
0010
0100
0000
1001
0000
0100
0010
,  // measure 32
0110
0000
0002
0023
2030
3020
0032
2003
3020
0230
0302
2003
3002
0023
0230
2300
,  // measure 33
3002
2003
3200
0302
0203
0320
0032
2003
3002
0203
0302
2003
3010
0000
0100
0000
,  // measure 34
0110
0000
1000
0100
0001
0100
0010
0100
,  // measure 35
1000
0001
1000
0010
0120
0030
1000
0000
,  // measure 36
1002
0003
0100
0010
0100
0001
1000
0100
,  // measure 37
1000
0000
0001
0000
0010
0000
0100
0000
2001
0000
3000
0000
0001
1000
0010
0000
,  // measure 38
0210
0300
0002
0023
2030
3020
0032
2003
,  // measure 39
3020
0230
0302
2003
3002
0023
0230
2300
,  // measure 40
3001
0001
1001
1000
1010
0010
0110
0100
,  // measure 41
0001
0000
0100
0000
0001
0000
0100
0000
0002
0003
1000
0010
1000
0000
0001
0000
,  // measure 42
1001
0000
0010
0000
0101
0001
1000
0010
,  // measure 43
1000
0100
0010
0001
1100
1000
0001
1000
,  // measure 44
1001
0010
0100
1000
0001
0010
0100
1000
,  // measure 45
0001
0100
0001
1000
0100
0010
0001
1000
,  // measure 46
0001
0100
0010
0000
0010
0000
1000
0000
0001
0000
0100
0000
0010
0000
0100
0000
,  // measure 47
0001
1000
0100
0000
0100
0000
1000
0000
0100
0000
1000
0000
0010
0000
0100
0000
,  // measure 48
0001
1000
0001
0000
0100
0000
0010
0100
0001
0000
1000
0000
0100
0000
1000
0000
,  // measure 49
0100
0010
0001
1000
1001
0110
1001
0000
,  // measure 50
0100
0000
1001
0001
0010
0100
0001
1000
,  // measure 51
0010
0010
1010
1000
0100
0010
1001
0010
,  // measure 52
0100
0000
1000
0100
1000
0000
0100
0000
0010
0000
0001
0000
1000
0000
0010
0000
,  // measure 53
0100
0000
0001
1000
0001
0000
0010
0000
0100
0000
0010
0000
0001
1000
0001
0000
,  // measure 54
0100
0000
0010
1000
0001
0000
1000
0001
0100
0000
0001
0000
1000
0100
0010
0000
,  // measure 55
0010
0000
0001
1000
0001
0000
1000
0001
1000
0000
0010
0000
0010
0100
0001
0000
,  // measure 56
0001
0000
1000
0001
0100
0000
0100
0000
0010
0000
0001
0000
0010
0000
0100
0000
,  // measure 57
0001
0000
1000
0000
0001
1000
0001
0000
0010
0000
0100
0000
1100
0000
0000
0000
,  // measure 58
0000
0000
0000
0000
,  // measure 59
0000
0000
0000
0000
,  // measure 60
0000
0000
0000
0000
,  // measure 61
0000
0000
0000
0000
,  // measure 62
0000
0000
0000
0000
,  // measure 63
0000
0000
0000
0000
,  // measure 64
0000
1001
0000
0001
,  // measure 65
1000
0001
0010
1000
,  // measure 66
0010
0100
1000
0001
,  // measure 67
1000
0001
0100
0010
,  // measure 68
1000
0001
1000
0000
0100
0000
0010
0000
,  // measure 69
0001
1000
0010
1000
,  // measure 70
0001
0100
0010
1000
,  // measure 71
0001
0000
0100
0010
0100
0010
1000
0000
,  // measure 72
0001
1001
0000
1000
,  // measure 73
0001
0100
0010
1000
,  // measure 74
0100
0001
1000
0010
,  // measure 75
0001
1000
0010
1000
,  // measure 76
0001
0100
0001
0000
1000
0000
0010
0000
,  // measure 77
1000
0100
0001
0100
,  // measure 78
1000
0001
0100
0010
,  // measure 79
0100
0000
0001
1000
1001
0000
0000
0000
,  // measure 80
0001
0010
0100
1000
,  // measure 81
0010
0100
0001
1000
,  // measure 82
0001
0100
0010
1000
,  // measure 83
0001
0000
1000
0001
1000
0000
0100
0000
,  // measure 84
0010
0001
0100
0010
,  // measure 85
0001
1000
0001
0010
,  // measure 86
0100
0000
0010
0000
1000
0001
1000
0001
,  // measure 87
0100
0001
1001
0000
,  // measure 88
0001
0100
0001
0010
,  // measure 89
0100
0000
1000
0001
1000
0000
0001
0000
,  // measure 90
1000
0001
0100
0010
,  // measure 91
1000
0000
0001
1000
0001
0000
0100
0000
,  // measure 92
0010
0001
0010
1000
,  // measure 93
0001
0000
1000
0000
0010
0100
0010
1000
,  // measure 94
0001
0000
0010
0000
0100
0000
1000
0000
0001
0000
1000
0001
1000
0000
0001
0000
,  // measure 95
1000
0001
0100
0010
0100
0010
1000
0000
,  // measure 96
0010
0000
1000
0000
0001
0100
0001
0100
,  // measure 97
0010
1000
0010
1000
0001
0010
0100
1000
,  // measure 98
0001
1000
0001
1000
,  // measure 99
0100
1000
0100
1000
0001
0100
0001
0100
,  // measure 100
0010
0000
0010
0000
1000
0001
1000
0001
,  // measure 101
1000
0100
0010
0100
1000
0000
1001
0110
,  // measure 102
0001
1000
0001
0010
0100
1000
0100
1000
,  // measure 103
0001
0100
0010
1000
0001
1000
0001
0100
,  // measure 104
0010
1000
0001
0100
0001
0010
0100
1000
,  // measure 105
0001
0100
0010
1000
0010
0001
0010
0100
,  // measure 106
0001
1000
0100
0010
0001
1000
0010
1000
,  // measure 107
0001
0100
0010
0100
,  // measure 108
1000
0100
0010
1000
,  // measure 109
1001
0000
0110
0000
,  // measure 110
2002
0000
0000
0000
,  // measure 111
0000
0000
0000
0000
,  // measure 112
0000
0000
0000
0000
,  // measure 113
0000
0000
0000
0000
,  // measure 114
0000
0000
0000
0000
,  // measure 115
0000
0000
0000
0000
,  // measure 116
0000
0000
0000
0000
,  // measure 117
0000
0000
0000
0000
,  // measure 118
3003
0000
0000
0000
;

//---------------dance-single - ----------------
#NOTEDATA:;
#CHARTNAME:;
#STEPSTYPE:dance-single;
#DESCRIPTION:;
#CHARTSTYLE:;
#DIFFICULTY:Hard;
#METER:14;
#RADARVALUES:0.627098,1.107213,0.497715,0.048956,0.093832,538.000000,477.000000,61.000000,6.000000,0.000000,0.000000,0.000000,0.000000,0.000000,0.627098,1.107213,0.497715,0.048956,0.093832,538.000000,477.000000,61.000000,6.000000,0.000000,0.000000,0.000000,0.000000,0.000000;
#CREDIT:Rajeious's Chart;
#DISPLAYBPM:*;
#NOTES:
// measure 0
0000
0000
0000
0000
,  // measure 1
0000
0000
0000
0000
,  // measure 2
0001
0000
1000
0100
,  // measure 3
0010
0001
1000
0001
,  // measure 4
0100
0010
1000
0000
,  // measure 5
1000
0000
0001
1000
,  // measure 6
0010
0100
1000
0100
,  // measure 7
0001
0010
1000
0010
,  // measure 8
0100
0010
0001
0000
,  // measure 9
1000
0000
0100
0000
,  // measure 10
1001
0000
0001
0000
0100
0010
0000
0010
0000
0010
1000
0000
0001
0000
0010
0000
,  // measure 11
0100
0000
1000
0000
0001
0010
0000
0010
0000
0010
0001
0000
1000
0000
0001
0000
,  // measure 12
1001
0000
1000
0000
0010
0100
0000
0100
0000
0100
0001
0000
1000
0000
0100
0000
,  // measure 13
0001
0000
0100
0000
1000
0010
0000
0010
0000
0010
0100
0000
0101
0000
0010
0000
,  // measure 14
0101
0000
0010
1000
0001
0010
0000
0010
,  // measure 15
0000
0010
0001
0000
1001
0000
0100
0000
,  // measure 16
0101
0000
1000
0100
0010
0001
0000
0001
,  // measure 17
0000
0001
0100
0000
0110
0000
1000
0000
,  // measure 18
1001
0000
0001
1000
0100
0010
0000
0010
,  // measure 19
0000
0010
0100
0000
1001
0000
0010
0000
,  // measure 20
1001
0000
0100
0010
0100
0001
0000
0001
,  // measure 21
0000
0001
1000
0010
0200
0000
0302
0000
,  // measure 22
1003
0000
1000
0001
,  // measure 23
0100
0001
1000
0010
,  // measure 24
0100
0001
1000
0000
,  // measure 25
1001
0000
1001
0000
,  // measure 26
0010
0000
0101
0000
,  // measure 27
0101
0000
0101
0000
,  // measure 28
1000
0010
1000
0001
,  // measure 29
0010
0100
1000
0001
,  // measure 30
0010
0000
0001
1000
0001
0000
0100
0000
0010
1000
0001
0000
0101
0000
0000
0000
,  // measure 31
1010
0000
0001
0100
0010
0000
0100
0000
1000
0100
0010
0000
1010
0000
0000
0000
,  // measure 32
1001
0000
0100
0010
0100
0000
0001
0000
0010
0100
0010
0000
1000
0000
0010
0000
,  // measure 33
1000
0000
0001
0010
1000
0000
0001
0000
0100
0010
0001
0000
0100
0000
0010
0000
,  // measure 34
0101
0000
1000
0001
0000
0001
0000
0001
,  // measure 35
1000
0100
0010
0001
1000
0000
0001
0000
,  // measure 36
1001
0000
0100
0010
0100
0000
0001
0000
,  // measure 37
1000
0010
0001
0000
0010
0000
0100
0000
,  // measure 38
1001
0000
0010
1000
0010
0100
0000
0001
,  // measure 39
0100
0010
0100
0010
0001
0000
1000
0000
,  // measure 40
1010
0000
0101
0000
0110
0000
1000
0001
,  // measure 41
1000
0001
1000
0001
2000
3000
0020
0030
,  // measure 42
1001
0000
1000
0001
0100
0001
0000
1000
,  // measure 43
0010
0100
0001
0000
1001
0000
0100
0000
,  // measure 44
1001
0000
0100
0010
0100
0001
0000
0001
,  // measure 45
0100
1000
0100
0000
1010
0000
0100
0000
,  // measure 46
0101
0000
1000
0000
0001
0010
0100
0000
,  // measure 47
0110
0000
0001
0000
0001
1000
0100
0000
,  // measure 48
1001
0000
0100
0000
0010
1000
0010
0100
,  // measure 49
0001
0010
1000
0010
0001
1000
1001
0000
,  // measure 50
0010
0000
0101
0000
0001
0010
0100
1000
,  // measure 51
0001
1010
0100
1010
,  // measure 52
0001
0000
0101
0000
1000
0001
0010
0100
,  // measure 53
1000
0000
0000
0000
0011
0000
0000
0000
0100
0000
0000
0000
0010
0100
0010
0000
,  // measure 54
0100
0000
0000
0000
1001
0000
0000
0000
0010
0000
0000
0000
0100
0010
0100
0000
,  // measure 55
0010
1001
0010
0100
,  // measure 56
0001
0010
0100
1000
0100
0001
1000
0010
,  // measure 57
0001
0000
1000
0000
0001
0100
0001
0000
1000
0000
0010
0000
1010
0000
0000
0000
,  // measure 58
0000
0000
0000
0000
,  // measure 59
0000
0000
0000
0000
,  // measure 60
0000
0000
0000
0000
,  // measure 61
0000
0000
0000
0000
,  // measure 62
0000
0000
0000
0000
,  // measure 63
0000
0000
0000
0000
,  // measure 64
0000
1001
0000
1000
,  // measure 65
0001
0100
0001
1000
,  // measure 66
0001
0010
0100
1000
,  // measure 67
0000
0011
0000
1000
,  // measure 68
0010
1000
0001
0100
,  // measure 69
0000
0110
0000
0001
,  // measure 70
0010
1000
0010
0001
,  // measure 71
0100
0000
0001
1000
0001
0000
0010
0000
,  // measure 72
0100
1000
0000
1000
,  // measure 73
0010
0001
1000
0001
,  // measure 74
0010
0100
0001
1000
,  // measure 75
0000
1001
0000
1000
,  // measure 76
0100
0010
0001
1000
,  // measure 77
0000
0110
0000
0100
,  // measure 78
0010
1000
0001
0100
,  // measure 79
0010
0000
0010
1000
1001
0000
0000
0000
,  // measure 80
1000
0100
0001
0100
,  // measure 81
1000
0010
1000
0001
,  // measure 82
0100
0000
1001
0000
,  // measure 83
0100
0010
0001
0010
,  // measure 84
1000
0000
0001
0100
,  // measure 85
0001
0100
0010
1000
,  // measure 86
0001
0000
0100
0000
0001
1000
0010
0000
,  // measure 87
1000
0100
0010
0000
,  // measure 88
1000
0001
0100
0001
,  // measure 89
1000
0010
0000
0001
,  // measure 90
0001
0100
0001
0010
,  // measure 91
0001
0100
0010
1000
,  // measure 92
0100
0010
0001
1000
,  // measure 93
0010
0000
0100
0000
0001
1000
0001
0000
,  // measure 94
0100
0000
0010
0000
1000
0001
1000
0010
,  // measure 95
1000
0010
0100
0000
0010
0000
0001
0000
,  // measure 96
0010
0000
0100
0000
0001
0000
0001
0100
,  // measure 97
0010
0100
0001
0000
1000
0000
0100
0000
,  // measure 98
0010
0001
1000
0010
,  // measure 99
1000
0001
1000
0001
0100
0000
0010
0000
,  // measure 100
1000
0000
0100
0000
1000
0001
1000
0001
,  // measure 101
1000
0000
0010
0000
0100
0000
0001
1000
,  // measure 102
1001
0100
0001
0100
,  // measure 103
0001
1010
0000
0101
,  // measure 104
1000
0010
0100
0001
,  // measure 105
1010
0000
1001
1000
,  // measure 106
0101
0000
0101
1000
,  // measure 107
0010
1001
0000
1001
,  // measure 108
0100
0010
0101
0000
,  // measure 109
1001
0000
0110
0000
,  // measure 110
2002
0000
0000
0000
,  // measure 111
0000
0000
0000
0000
,  // measure 112
0000
0000
0000
0000
,  // measure 113
0000
0000
0000
0000
,  // measure 114
0000
0000
0000
0000
,  // measure 115
0000
0000
0000
0000
,  // measure 116
0000
0000
0000
0000
,  // measure 117
0000
0000
0000
0000
,  // measure 118
3003
0000
0000
0000
;

//---------------dance-single - ----------------
#NOTEDATA:;
#CHARTNAME:;
#STEPSTYPE:dance-single;
#DESCRIPTION:;
#CHARTSTYLE:;
#DIFFICULTY:Medium;
#METER:9;
#RADARVALUES:0.379989,0.722095,0.040796,0.008159,0.000000,326.000000,321.000000,5.000000,1.000000,0.000000,0.000000,0.000000,0.000000,0.000000,0.379989,0.722095,0.040796,0.008159,0.000000,326.000000,321.000000,5.000000,1.000000,0.000000,0.000000,0.000000,0.000000,0.000000;
#CREDIT:Rajeious's Chart;
#DISPLAYBPM:*;
#NOTES:
// measure 0
0000
0000
0000
0000
,  // measure 1
0000
0000
0000
0000
,  // measure 2
1000
0000
0001
0000
,  // measure 3
1000
0000
0100
0000
,  // measure 4
1000
0000
0100
0000
,  // measure 5
0010
0001
0010
0000
,  // measure 6
0001
0000
1000
0000
,  // measure 7
0010
0000
0100
0000
,  // measure 8
0001
0000
1000
0000
,  // measure 9
1000
0100
1000
0000
,  // measure 10
0010
1000
0100
0000
1000
0010
0100
0100
,  // measure 11
0001
0010
0100
0000
0100
1000
0010
0010
,  // measure 12
1000
0001
0100
0000
0001
1000
0010
0010
,  // measure 13
1000
0100
0010
0000
0001
0010
0100
0100
,  // measure 14
1000
0001
1000
0010
,  // measure 15
1000
0010
1000
0000
0010
0000
0010
0000
,  // measure 16
1000
0001
0010
0100
,  // measure 17
0010
0100
0010
0000
0001
0000
0001
0000
,  // measure 18
1000
0001
1000
0010
,  // measure 19
0010
1000
0100
0100
,  // measure 20
1000
0001
0010
0100
,  // measure 21
0001
0010
0100
0100
,  // measure 22
1000
0000
0010
0000
,  // measure 23
1000
0000
0001
0000
,  // measure 24
0010
0000
0100
0000
,  // measure 25
1000
0100
1000
0000
,  // measure 26
0010
0000
1000
0000
,  // measure 27
0001
0000
0010
0000
,  // measure 28
0100
0000
1000
0000
,  // measure 29
0010
0000
1000
0000
,  // measure 30
0001
1000
0100
0000
0100
1000
0010
0010
,  // measure 31
1000
0001
0010
0000
0001
0010
0100
0100
,  // measure 32
1000
0010
1000
0000
0001
1000
0100
0100
,  // measure 33
1000
0001
0010
0000
0001
0010
0100
0100
,  // measure 34
1000
0010
1000
1000
,  // measure 35
0001
1000
0001
0001
,  // measure 36
0010
0100
0010
0010
,  // measure 37
0001
1000
0010
0010
,  // measure 38
1000
0001
1000
1000
,  // measure 39
0001
0010
0100
0100
,  // measure 40
1000
0001
1000
1000
,  // measure 41
0010
1000
0010
0010
,  // measure 42
1000
0001
1000
0000
0001
0000
0010
0000
,  // measure 43
0001
0010
0001
0000
0010
0000
0010
0000
,  // measure 44
0100
1000
0010
1000
,  // measure 45
0001
1000
0001
0000
0010
0000
0010
0000
,  // measure 46
0001
0010
0100
0100
,  // measure 47
1000
0001
1000
0000
0010
0000
0010
0000
,  // measure 48
1000
0100
1000
0001
,  // measure 49
0010
0001
0010
0000
0100
0100
1000
0000
,  // measure 50
0001
0000
1000
0000
0010
0000
1000
0010
,  // measure 51
1000
0001
0001
0010
,  // measure 52
0100
0000
1000
0000
0010
0000
1000
0010
,  // measure 53
1000
0001
0001
0010
,  // measure 54
0100
0000
1000
0000
0001
0000
1000
0010
,  // measure 55
1000
0001
0001
1000
,  // measure 56
0010
0000
1000
0000
1001
0000
0010
0001
,  // measure 57
0010
0100
0100
1001
,  // measure 58
0000
0000
0000
0000
,  // measure 59
0000
0000
0000
0000
,  // measure 60
0000
0000
0000
0000
,  // measure 61
0000
0000
0000
0000
,  // measure 62
0000
0000
0000
0000
,  // measure 63
0000
0000
0000
0000
,  // measure 64
0000
1000
0000
0100
,  // measure 65
0000
1000
0010
0000
,  // measure 66
0000
1000
0000
0001
,  // measure 67
0000
0010
0000
0010
,  // measure 68
0000
0001
0000
0010
,  // measure 69
0000
0001
0000
1000
,  // measure 70
0000
0100
0000
1000
,  // measure 71
0000
0010
0000
1000
,  // measure 72
0000
0001
0000
0010
,  // measure 73
0000
0100
0000
1000
,  // measure 74
0000
0010
0000
1000
,  // measure 75
0000
0001
0000
0100
,  // measure 76
0000
0010
0000
1000
,  // measure 77
0000
0001
0000
0010
,  // measure 78
0000
0100
0000
0000
,  // measure 79
0000
0110
0000
0000
,  // measure 80
1000
0000
0001
0000
,  // measure 81
1000
0000
0010
0000
,  // measure 82
1000
0000
0001
0000
,  // measure 83
0010
0000
0100
0000
,  // measure 84
1000
0000
0001
0000
,  // measure 85
0100
0000
0010
0000
,  // measure 86
1000
0000
0001
0000
,  // measure 87
0010
0000
0100
0000
,  // measure 88
1000
0000
0001
0000
,  // measure 89
0100
0000
0010
0000
,  // measure 90
1000
0000
0001
0000
,  // measure 91
1000
0000
0010
0000
,  // measure 92
1000
0000
0001
0000
,  // measure 93
0010
0000
0100
0000
,  // measure 94
1000
0000
1001
0000
,  // measure 95
0000
1000
0000
0001
,  // measure 96
0000
1000
0000
0010
,  // measure 97
0000
1000
0000
0100
,  // measure 98
0000
1000
0000
0001
,  // measure 99
0000
0010
0000
0100
,  // measure 100
0000
1000
0000
0001
,  // measure 101
0000
1000
0000
0110
,  // measure 102
0000
0000
1000
0000
,  // measure 103
0001
0000
0010
0000
,  // measure 104
0100
0000
1000
0000
,  // measure 105
0010
0000
0100
0000
,  // measure 106
0001
0000
0010
0000
,  // measure 107
0100
0000
1000
0000
,  // measure 108
0010
0000
1000
0000
,  // measure 109
0001
0000
1000
0000
,  // measure 110
2000
0000
0000
0000
,  // measure 111
0000
0000
0000
0000
,  // measure 112
0000
0000
0000
0000
,  // measure 113
0000
0000
0000
0000
,  // measure 114
0000
0000
0000
0000
,  // measure 115
0000
0000
0000
0000
,  // measure 116
0000
0000
0000
0000
,  // measure 117
0000
0000
0000
0000
,  // measure 118
3000
0000
0000
0000
;

//---------------dance-single - ----------------
#NOTEDATA:;
#CHARTNAME:;
#STEPSTYPE:dance-single;
#DESCRIPTION:;
#CHARTSTYLE:;
#DIFFICULTY:Easy;
#METER:5;
#RADARVALUES:0.166682,0.240698,0.008159,0.016319,0.000000,143.000000,142.000000,1.000000,2.000000,0.000000,0.000000,0.000000,0.000000,0.000000,0.166682,0.240698,0.008159,0.016319,0.000000,143.000000,142.000000,1.000000,2.000000,0.000000,0.000000,0.000000,0.000000,0.000000;
#CREDIT:Rajeious's Chart;
#DISPLAYBPM:*;
#NOTES:
// measure 0
0000
0000
0000
0000
,  // measure 1
0000
0000
0000
0000
,  // measure 2
1000
0000
0000
0000
,  // measure 3
1000
0000
0000
0000
,  // measure 4
0001
0000
0000
0000
,  // measure 5
0001
0000
0000
0000
,  // measure 6
1000
0000
0000
0000
,  // measure 7
1000
0000
0000
0000
,  // measure 8
0010
0000
0000
0000
,  // measure 9
0010
0000
0000
0000
,  // measure 10
0100
0000
0100
0000
,  // measure 11
0010
0000
0010
0000
,  // measure 12
1000
0000
1000
0000
,  // measure 13
0001
0000
0001
0000
,  // measure 14
0100
0000
1000
0000
,  // measure 15
0100
0000
1000
0000
,  // measure 16
0010
0000
1000
0000
,  // measure 17
0001
0000
0010
0000
,  // measure 18
0100
0000
0010
0000
,  // measure 19
0001
0000
0010
0000
,  // measure 20
0001
0000
1000
0000
,  // measure 21
0100
0000
1000
0000
,  // measure 22
0010
0000
0000
0000
,  // measure 23
1000
0000
0000
0000
,  // measure 24
0001
0000
0000
0000
,  // measure 25
0010
0000
0000
0000
,  // measure 26
0100
0000
0000
0000
,  // measure 27
0010
0000
0000
0000
,  // measure 28
0001
0000
0000
0000
,  // measure 29
1000
0000
0000
0000
,  // measure 30
0001
0000
1000
0000
,  // measure 31
0001
0000
0100
0000
,  // measure 32
0010
0000
0100
0000
,  // measure 33
0001
0000
1000
0000
,  // measure 34
1000
0000
0100
0000
,  // measure 35
1000
0000
0010
0000
,  // measure 36
1000
0000
0001
0000
,  // measure 37
1000
0000
0010
0000
,  // measure 38
0100
0000
0001
0000
,  // measure 39
0010
0000
0001
0000
,  // measure 40
0100
0000
0010
0000
,  // measure 41
0001
0000
0010
0000
,  // measure 42
1000
0000
0001
0000
,  // measure 43
1000
0000
0010
0000
,  // measure 44
0100
0000
0001
0000
,  // measure 45
0010
0000
0001
0000
,  // measure 46
0100
0000
0001
0000
,  // measure 47
0100
0000
0010
0000
,  // measure 48
0100
0000
0001
0000
,  // measure 49
0100
0000
0010
1000
,  // measure 50
0000
0100
0000
1000
,  // measure 51
0000
0010
0000
1000
,  // measure 52
0000
0001
0000
0010
,  // measure 53
0000
0100
0000
0010
,  // measure 54
0000
0001
0000
0100
,  // measure 55
0000
0010
0000
1000
,  // measure 56
0000
0001
0000
1000
,  // measure 57
0000
0010
0000
0100
,  // measure 58
0000
0000
0000
0000
,  // measure 59
0000
0000
0000
0000
,  // measure 60
0000
0000
0000
0000
,  // measure 61
0000
0000
0000
0000
,  // measure 62
0000
0000
0000
0000
,  // measure 63
0000
0000
0000
0000
,  // measure 64
0000
0000
0000
0000
,  // measure 65
0000
1000
0000
0000
,  // measure 66
0000
0001
0000
0000
,  // measure 67
0000
1000
0000
0000
,  // measure 68
0000
0010
0000
0000
,  // measure 69
0000
0100
0000
0000
,  // measure 70
0000
0001
0000
0000
,  // measure 71
0000
0010
0000
0000
,  // measure 72
0000
0100
0000
0000
,  // measure 73
0000
1000
0000
0000
,  // measure 74
0000
0001
0000
0000
,  // measure 75
0000
1000
0000
0000
,  // measure 76
0000
0010
0000
0000
,  // measure 77
0000
0100
0000
0000
,  // measure 78
0000
0001
0000
0000
,  // measure 79
0000
1000
0000
0000
,  // measure 80
0000
0000
0001
0000
,  // measure 81
0000
0000
1000
0000
,  // measure 82
0000
0000
0010
0000
,  // measure 83
0000
0000
0100
0000
,  // measure 84
0000
0000
0001
0000
,  // measure 85
0000
0000
1000
0000
,  // measure 86
0000
0000
0100
0000
,  // measure 87
0000
0000
0010
0000
,  // measure 88
0000
0000
0001
0000
,  // measure 89
0000
0000
0010
0000
,  // measure 90
0000
0000
0001
0000
,  // measure 91
0000
0000
1000
0000
,  // measure 92
0000
0000
0010
0000
,  // measure 93
0000
0000
0100
0000
,  // measure 94
0000
0000
0001
0000
,  // measure 95
0000
0000
0000
0010
,  // measure 96
0000
0000
0000
1000
,  // measure 97
0000
0000
0000
0001
,  // measure 98
0000
0000
0000
0010
,  // measure 99
0000
0000
0000
0100
,  // measure 100
0000
0000
0000
0010
,  // measure 101
0000
0000
0000
0001
,  // measure 102
0000
0000
0000
0000
,  // measure 103
0010
0000
0000
0000
,  // measure 104
1000
0000
0000
0000
,  // measure 105
0001
0000
0000
0000
,  // measure 106
1000
0000
0000
0000
,  // measure 107
0010
0000
0000
1000
,  // measure 108
0000
0000
0000
0001
,  // measure 109
0000
0000
0000
0000
,  // measure 110
2002
0000
0000
0000
,  // measure 111
0000
0000
0000
0000
,  // measure 112
0000
0000
0000
0000
,  // measure 113
0000
0000
0000
0000
,  // measure 114
0000
0000
0000
0000
,  // measure 115
0000
0000
0000
0000
,  // measure 116
0000
0000
0000
0000
,  // measure 117
0000
0000
0000
0000
,  // measure 118
3003
0000
0000
0000
;

//---------------dance-single - ----------------
#NOTEDATA:;
#CHARTNAME:;
#STEPSTYPE:dance-single;
#DESCRIPTION:;
#CHARTSTYLE:;
#DIFFICULTY:Beginner;
#METER:3;
#RADARVALUES:0.082758,0.240698,0.000000,0.008159,0.000000,71.000000,71.000000,0.000000,1.000000,0.000000,0.000000,0.000000,0.000000,0.000000,0.082758,0.240698,0.000000,0.008159,0.000000,71.000000,71.000000,0.000000,1.000000,0.000000,0.000000,0.000000,0.000000,0.000000;
#CREDIT:Rajeious's Chart;
#DISPLAYBPM:*;
#NOTES:
// measure 0
0000
0000
0000
0000
,  // measure 1
0000
0000
0000
0000
,  // measure 2
1000
0000
0000
0000
,  // measure 3
0000
0000
0000
0000
,  // measure 4
0000
0000
0000
0000
,  // measure 5
0000
0000
0000
0000
,  // measure 6
0010
0000
0000
0000
,  // measure 7
0000
0000
0000
0000
,  // measure 8
0000
0000
0000
0000
,  // measure 9
0000
0000
0000
0000
,  // measure 10
1000
0000
0000
0000
,  // measure 11
0100
0000
0000
0000
,  // measure 12
0001
0000
0000
0000
,  // measure 13
0100
0000
0000
0000
,  // measure 14
0010
0000
0000
0000
,  // measure 15
1000
0000
0000
0000
,  // measure 16
0010
0000
0000
0000
,  // measure 17
0100
0000
0000
0000
,  // measure 18
0001
0000
0000
0000
,  // measure 19
0010
0000
0000
0000
,  // measure 20
0100
0000
0000
0000
,  // measure 21
0001
0000
0000
0000
,  // measure 22
1000
0000
0000
0000
,  // measure 23
0000
0000
0000
0000
,  // measure 24
0000
0000
0000
0000
,  // measure 25
0000
0000
0000
0000
,  // measure 26
0100
0000
0000
0000
,  // measure 27
0000
0000
0000
0000
,  // measure 28
0000
0000
0000
0000
,  // measure 29
0000
0000
0000
0000
,  // measure 30
0010
0000
0010
0000
,  // measure 31
0001
0000
0001
0000
,  // measure 32
1000
0000
1000
0000
,  // measure 33
0100
0000
0100
0000
,  // measure 34
0010
0000
0000
0000
,  // measure 35
0010
0000
0000
0000
,  // measure 36
1000
0000
0000
0000
,  // measure 37
0100
0000
0000
0000
,  // measure 38
0001
0000
0000
0000
,  // measure 39
0010
0000
0000
0000
,  // measure 40
0100
0000
0000
0000
,  // measure 41
0001
0000
0000
0000
,  // measure 42
1000
0000
0000
0000
,  // measure 43
0100
0000
0000
0000
,  // measure 44
0010
0000
0000
0000
,  // measure 45
0100
0000
0000
0000
,  // measure 46
0001
0000
0000
0000
,  // measure 47
0100
0000
0000
0000
,  // measure 48
1000
0000
0000
0000
,  // measure 49
0010
0000
0000
1000
,  // measure 50
0000
0000
0000
0001
,  // measure 51
0000
0000
0000
1000
,  // measure 52
0000
0000
0000
0001
,  // measure 53
0000
0000
0000
0010
,  // measure 54
0000
0000
0000
0100
,  // measure 55
0000
0000
0000
0001
,  // measure 56
0000
0000
0000
0100
,  // measure 57
0000
0000
0000
1000
,  // measure 58
0000
0000
0000
0000
,  // measure 59
0000
0000
0000
0000
,  // measure 60
0000
0000
0000
0000
,  // measure 61
0000
0000
0000
0000
,  // measure 62
0000
0000
0000
0000
,  // measure 63
0000
0000
0000
0000
,  // measure 64
0000
1000
0000
0000
,  // measure 65
0000
0000
0000
0000
,  // measure 66
0000
0100
0000
0000
,  // measure 67
0000
0000
0000
0000
,  // measure 68
0000
1000
0000
0000
,  // measure 69
0000
0000
0000
0000
,  // measure 70
0000
0010
0000
0000
,  // measure 71
0000
0000
0000
0000
,  // measure 72
0000
0001
0000
0000
,  // measure 73
0000
0000
0000
0000
,  // measure 74
0000
1000
0000
0000
,  // measure 75
0000
0000
0000
0000
,  // measure 76
0000
0100
0000
0000
,  // measure 77
0000
0000
0000
0000
,  // measure 78
1000
0000
0000
0000
,  // measure 79
0000
0000
0000
0000
,  // measure 80
0000
0000
0000
0000
,  // measure 81
0000
0000
0001
0000
,  // measure 82
0000
0000
0000
0000
,  // measure 83
0000
0000
0010
0000
,  // measure 84
0000
0000
0000
0000
,  // measure 85
0000
0000
1000
0000
,  // measure 86
0000
0000
0000
0000
,  // measure 87
0000
0000
0100
0000
,  // measure 88
0000
0000
0000
0000
,  // measure 89
0000
0000
0010
0000
,  // measure 90
0000
0000
0000
0000
,  // measure 91
0000
0000
0001
0000
,  // measure 92
0000
0000
0000
0000
,  // measure 93
0000
0000
0010
0000
,  // measure 94
0000
0000
0000
0000
,  // measure 95
0000
0000
0000
0000
,  // measure 96
0000
0000
0000
0001
,  // measure 97
0000
0000
0000
0000
,  // measure 98
0000
0000
0000
0010
,  // measure 99
0000
0000
0000
0000
,  // measure 100
0000
0000
0000
1000
,  // measure 101
0000
0000
0000
0000
,  // measure 102
0000
0000
0000
0000
,  // measure 103
0000
0000
0000
0000
,  // measure 104
0001
0000
0000
0000
,  // measure 105
0000
0000
0000
0000
,  // measure 106
0100
0000
0000
0000
,  // measure 107
0000
0000
0000
0000
,  // measure 108
0010
0000
0000
0000
,  // measure 109
0000
0000
0000
0000
,  // measure 110
2000
0000
0000
0000
,  // measure 111
0000
0000
0000
0000
,  // measure 112
0000
0000
0000
0000
,  // measure 113
0000
0000
0000
0000
,  // measure 114
0000
0000
0000
0000
,  // measure 115
0000
0000
0000
0000
,  // measure 116
0000
0000
0000
0000
,  // measure 117
0000
0000
0000
0000
,  // measure 118
3000
0000
0000
0000
;
