#VERSION:0.83;
#TITLE:Cure for Me;
#SUBTITLE:;
#ARTIST:Aurora;
#TITLETRANSLIT:;
#SUBTITLETRANSLIT:;
#ARTISTTRANSLIT:;
#GENRE:;
#ORIGIN:;
#CREDIT:;
#BANNER:AV.avi;
#BACKGROUND:bg.png;
#PREVIEWVID:;
#JACKET:jacket.png;
#CDIMAGE:;
#DISCIMAGE:;
#LYRICSPATH:;
#CDTITLE:;
#MUSIC:audio.ogg;
#OFFSET:-0.178000;
#SAMPLESTART:40.266720;
#SAMPLELENGTH:15.000007;
#SELECTABLE:YES;
#BPMS:0.000=115.900;
#STOPS:;
#DELAYS:;
#WARPS:;
#TIMESIGNATURES:0.000=4=4;
#TICKCOUNTS:0.000=4;
#COMBOS:0.000=1;
#SPEEDS:0.000=1.000=0.000=0;
#SCROLLS:0.000=1.000;
#FAKES:;
#LABELS:0.000=Song Start;
#BGCHANGES:0.000=MV.avi=1.000=1=0=1===CrossFade==,
99999=-nosongbg-=1.000=0=0=0 // don't automatically add -songbackground-
;
#KEYSOUNDS:;
#ATTACKS:
;

//---------------dance-single - ----------------
#NOTEDATA:;
#CHARTNAME:;
#STEPSTYPE:dance-single;
#DESCRIPTION:;
#CHARTSTYLE:;
#DIFFICULTY:Hard;
#METER:13;
#RADARVALUES:0.508058,0.625027,0.156135,0.615865,0.485753,410.000000,392.000000,18.000000,71.000000,0.000000,0.000000,0.000000,0.000000,0.000000,0.508058,0.625027,0.156135,0.615865,0.485753,410.000000,392.000000,18.000000,71.000000,0.000000,0.000000,0.000000,0.000000,0.000000;
#CREDIT:Rajeious's Chart;
#NOTES:
// measure 0
0000
0000
0000
0000
,  // measure 1
0000
0000
0000
0000
,  // measure 2
0000
0000
0000
0000
,  // measure 3
0000
0000
0000
0000
,  // measure 4
0000
0000
0000
0000
0000
0000
0001
0000
2000
0000
0000
3010
0000
0000
0010
0000
,  // measure 5
0200
0000
0000
0301
0000
0000
1000
0000
0200
0000
0000
0310
0000
0000
0001
0000
,  // measure 6
2000
0000
0000
3100
0000
0000
0010
0000
0200
0000
0000
0310
0000
0000
0001
0000
,  // measure 7
2000
0000
0000
3001
0000
0000
0010
0000
0100
0000
0000
0001
0000
0000
0100
0000
,  // measure 8
0010
1000
0000
1000
0010
0000
0100
0000
0002
0000
0000
1003
0000
0000
0010
0000
,  // measure 9
0200
0000
0000
0310
0000
0000
1000
0000
0002
0000
0000
0013
0000
0000
0001
0000
,  // measure 10
0200
0000
0000
0301
0000
0000
1000
0000
0020
0000
0000
0000
0130
0000
0001
0000
,  // measure 11
1000
0000
0000
0000
1000
0000
0100
0000
0010
0000
0000
0001
0000
0000
0100
0000
,  // measure 12
0001
1000
0000
1000
0001
0000
0100
0000
0020
0000
0130
0000
0002
0000
1003
0000
,  // measure 13
0020
0000
0100
0000
1030
0010
0100
0001
,  // measure 14
1000
0000
0010
0100
0000
0100
0001
0000
0200
0000
0310
0000
2000
0000
3001
0000
,  // measure 15
0020
0000
0001
0000
0031
0001
1000
0100
,  // measure 16
0010
0000
0001
1000
0000
1000
0001
0000
0200
0000
0000
0000
0000
0000
0302
0000
,  // measure 17
0000
2003
0000
3020
2030
3020
0230
0302
,  // measure 18
0203
0000
0301
1000
0020
0000
0230
0000
,  // measure 19
0302
0000
0000
0000
1003
0000
0010
0000
1000
0100
0000
0000
0100
0010
0000
0000
,  // measure 20
0010
0000
0000
0000
0001
0000
0000
0000
1001
0000
0001
0000
0200
0000
0000
0310
,  // measure 21
0000
0010
0000
0100
0000
0100
0000
0000
0101
0000
0001
0000
2000
0000
0000
3010
,  // measure 22
0000
0010
0000
1000
0000
1000
0000
0000
0110
0000
0100
0000
0002
0000
0000
0103
,  // measure 23
0000
0100
0000
0010
0000
0010
0000
0000
1001
0000
0001
0000
2000
0000
0000
3100
,  // measure 24
0000
0100
0000
0010
0000
0010
0000
0100
1000
0000
0001
0000
0100
0001
0100
0010
,  // measure 25
0000
0010
0000
1000
0000
1000
0000
0100
0010
0000
0010
0000
0001
1000
0001
0100
,  // measure 26
0000
0100
0000
0010
0000
0010
0000
1000
0010
0000
0010
0000
0100
0001
0100
0010
,  // measure 27
0000
0010
0000
1000
0000
1000
0000
0010
0100
0000
0100
0000
0010
1000
0001
1000
,  // measure 28
0000
1000
0000
0001
0000
0001
0000
0100
0010
0000
0000
0000
1001
0000
0000
0000
,  // measure 29
0010
0000
1001
2000
3002
2003
3020
2030
,  // measure 30
3002
0000
0003
0000
2001
0000
0000
3000
0020
0000
0000
0000
0130
0000
0010
0000
,  // measure 31
0100
0000
0001
0000
1000
0000
0200
0000
1000
0300
1000
0000
0001
0000
0200
0000
,  // measure 32
0010
0300
0010
0000
1000
0000
0001
0000
0010
0000
0000
0000
1001
0000
0000
0000
,  // measure 33
0100
0000
1001
0002
2003
3002
0203
0302
,  // measure 34
2003
3002
0023
0030
0200
0000
1300
0001
,  // measure 35
0010
0002
0000
0203
0000
0320
1030
0001
,  // measure 36
0010
0100
1000
0001
0200
0000
0301
2000
,  // measure 37
0010
3020
0130
0002
2003
3002
0203
0302
,  // measure 38
2003
3100
0010
0001
2000
0000
3010
0100
,  // measure 39
0010
2000
0000
3002
0000
0103
0010
0100
,  // measure 40
1000
0000
0100
0000
0001
0000
1000
0000
0010
0000
1000
0000
0001
0000
0010
0001
,  // measure 41
0010
0000
0100
0000
1000
0000
0001
0100
0010
0000
1000
0000
0001
0000
0100
0010
,  // measure 42
0100
0000
0001
0100
0001
0000
1000
0001
1000
0000
0001
0000
0100
0000
0010
0100
,  // measure 43
0010
0000
1000
0001
1000
0000
0010
0100
0001
0000
1000
0100
0010
0000
0001
1000
,  // measure 44
0002
0000
0103
0000
0200
0000
0300
0000
1001
0000
0001
0000
0100
0010
0100
0010
,  // measure 45
0000
0010
1000
0001
0010
0000
0001
0000
1001
0000
1000
0000
0010
1000
0010
1000
,  // measure 46
0000
1000
0010
0100
0010
1000
0001
0000
1001
0000
1000
0000
0010
0100
0010
1000
,  // measure 47
0000
0001
0010
0100
1000
0000
0001
0000
0011
0000
0010
0000
0001
0100
0001
1000
,  // measure 48
0000
1000
0010
0100
0001
0100
0010
0000
1010
0000
1000
0000
0001
1000
0001
0010
,  // measure 49
0000
0010
0100
1000
0001
0000
0100
0000
0110
0000
0010
0000
1000
0001
1000
0001
,  // measure 50
0000
0001
0010
0100
1000
0001
1000
0000
1010
0000
0010
0000
0100
0001
1000
0010
,  // measure 51
0000
0010
1000
0001
1000
0000
0001
0000
0101
0000
0100
0000
0001
0100
0001
1000
,  // measure 52
0000
1000
0100
0010
0100
0010
0001
0000
1001
0000
1000
0000
0020
0000
0000
0100
,  // measure 53
0030
0100
0000
0002
0000
0000
0003
0000
0000
0000
0000
0000
0000
0000
0000
0000
;

//---------------dance-single - ----------------
#NOTEDATA:;
#CHARTNAME:;
#STEPSTYPE:dance-single;
#DESCRIPTION:;
#CHARTSTYLE:;
#DIFFICULTY:Medium;
#METER:8;
#RADARVALUES:0.325900,0.370386,0.173483,0.225528,0.013011,263.000000,243.000000,20.000000,26.000000,0.000000,0.000000,0.000000,0.000000,0.000000,0.325900,0.370386,0.173483,0.225528,0.013011,263.000000,243.000000,20.000000,26.000000,0.000000,0.000000,0.000000,0.000000,0.000000;
#CREDIT:Rajeious's Chart;
#NOTES:
// measure 0
0000
0000
0000
0000
,  // measure 1
0000
0000
0000
0000
,  // measure 2
0000
0000
0000
0000
,  // measure 3
0000
0000
0000
0000
,  // measure 4
0000
0000
0000
0100
0020
0000
0030
1000
,  // measure 5
0002
0000
0003
1000
0200
0000
0300
0010
,  // measure 6
0200
0000
0300
1000
0002
0000
1003
0100
,  // measure 7
0010
0001
0100
0001
,  // measure 8
0100
0000
0010
1000
0001
0000
0000
0100
,  // measure 9
0002
0000
0003
1000
0200
0000
0300
0010
,  // measure 10
0002
0000
0003
0100
0020
0000
1030
0000
,  // measure 11
0001
0000
0001
1000
0010
0000
0010
0000
,  // measure 12
1000
1000
0100
0010
,  // measure 13
1001
0000
1000
0000
0001
0000
1000
0100
,  // measure 14
0010
0001
1000
0000
0001
0000
1000
0000
,  // measure 15
0110
0000
0010
0000
0100
0000
0100
0001
,  // measure 16
1000
0010
0100
0000
2000
0000
0000
3002
,  // measure 17
0000
0203
0000
0320
2030
0000
3002
0000
,  // measure 18
0203
0300
0010
0010
,  // measure 19
0010
1000
2000
3200
,  // measure 20
0320
0032
1003
1010
,  // measure 21
0001
1000
0001
0000
1000
0000
1010
0000
,  // measure 22
0010
0100
0001
0000
0100
0000
1001
0000
,  // measure 23
0100
0010
0100
0000
0001
0000
1001
0000
,  // measure 24
0100
1001
0100
0110
,  // measure 25
0010
1000
0001
1000
0010
0000
1010
0000
,  // measure 26
1000
0010
0100
0001
1000
0000
1001
0000
,  // measure 27
0010
0100
0010
1000
0001
0000
0101
0000
,  // measure 28
0100
0001
1000
0001
0100
0000
0110
0000
,  // measure 29
0000
1001
0000
0110
,  // measure 30
0000
0000
1001
0000
0100
0000
0001
0100
,  // measure 31
0001
1001
0000
0101
,  // measure 32
0000
1010
0000
1001
,  // measure 33
0000
0110
0010
1000
,  // measure 34
0010
0100
0001
0000
0001
0000
0100
0010
,  // measure 35
1000
0000
1000
0000
0001
0100
0001
0000
,  // measure 36
0001
0100
0010
1000
,  // measure 37
0010
0000
1000
0000
1000
0010
0100
0000
,  // measure 38
0100
0001
0100
0000
1000
0000
1000
0001
,  // measure 39
0100
0000
0010
0000
0010
0100
0010
0000
,  // measure 40
0100
0010
1000
0010
,  // measure 41
0100
0000
0001
0000
0001
1000
0001
0000
,  // measure 42
1000
0001
1000
0000
0100
0000
0010
0001
,  // measure 43
0010
0000
0001
0000
0001
0010
0100
0000
,  // measure 44
1000
0001
1000
0000
0100
0010
0100
0000
,  // measure 45
0100
0010
1000
0001
0010
0001
1000
0000
,  // measure 46
1000
0100
0010
0001
1000
0010
0100
0000
,  // measure 47
0100
0001
0100
0001
2000
0000
3200
0000
,  // measure 48
0320
0000
0032
0000
1003
0100
1000
0000
,  // measure 49
0001
1000
0100
1000
0001
0100
0010
0000
,  // measure 50
0010
1000
0001
1000
0100
0010
0001
0000
,  // measure 51
0001
0100
0010
1000
0010
1000
0001
0000
,  // measure 52
0001
0000
1000
0000
0100
0000
0010
0000
0001
0000
0001
0000
0002
0000
0000
0013
,  // measure 53
0000
0010
0000
0020
0000
0000
0030
0000
0000
0000
0000
0000
0000
0000
0000
0000
;

//---------------dance-single - ----------------
#NOTEDATA:;
#CHARTNAME:;
#STEPSTYPE:dance-single;
#DESCRIPTION:;
#CHARTSTYLE:;
#DIFFICULTY:Easy;
#METER:3;
#RADARVALUES:0.171005,0.229594,0.060719,0.017348,0.004337,138.000000,131.000000,7.000000,2.000000,0.000000,0.000000,0.000000,0.000000,0.000000,0.171005,0.229594,0.060719,0.017348,0.004337,138.000000,131.000000,7.000000,2.000000,0.000000,0.000000,0.000000,0.000000,0.000000;
#CREDIT:Rajeious's Chart;
#NOTES:
// measure 0
0000
0000
0000
0000
,  // measure 1
0000
0000
0000
0000
,  // measure 2
0000
0000
0000
0000
,  // measure 3
0000
0000
0000
0000
,  // measure 4
0000
0000
0100
0000
,  // measure 5
0010
0000
1000
0000
,  // measure 6
0100
0000
0010
0000
,  // measure 7
1000
0000
0001
0000
,  // measure 8
0010
0000
0100
0000
,  // measure 9
0001
0000
0100
0000
,  // measure 10
1000
0000
0010
0000
,  // measure 11
0100
0000
0001
0000
,  // measure 12
1000
0000
0001
0100
,  // measure 13
0200
0000
0300
0100
,  // measure 14
0001
0010
1000
1000
,  // measure 15
2000
0000
3000
0010
,  // measure 16
1000
0100
0001
0000
,  // measure 17
0100
0000
0010
0000
,  // measure 18
1000
0000
0010
0100
,  // measure 19
0010
0000
1000
0100
,  // measure 20
0010
0001
0101
0000
,  // measure 21
1000
0100
0110
0000
,  // measure 22
1000
0001
0101
0000
,  // measure 23
0010
1000
0100
0010
,  // measure 24
0100
0001
1001
0000
,  // measure 25
0100
0010
0110
0000
,  // measure 26
0001
1000
0101
0000
,  // measure 27
0010
1000
0101
0000
,  // measure 28
0001
1000
0100
0010
,  // measure 29
0000
0010
0000
1000
,  // measure 30
0000
0100
0000
0010
,  // measure 31
0000
0100
0000
0001
,  // measure 32
0000
1000
0000
0001
,  // measure 33
0000
0010
0000
1000
,  // measure 34
0000
0001
0000
0100
,  // measure 35
0000
0010
0000
1000
,  // measure 36
0000
0001
0000
0010
,  // measure 37
0000
0100
0000
1000
,  // measure 38
0000
0001
0000
0100
,  // measure 39
0000
0001
0000
0100
,  // measure 40
0000
1000
0000
0010
,  // measure 41
0000
1000
0000
0010
,  // measure 42
0000
0001
0000
0100
,  // measure 43
0000
0010
0000
1000
,  // measure 44
0000
0001
0100
0010
,  // measure 45
0100
0001
1000
0100
,  // measure 46
0010
0001
1000
0001
,  // measure 47
0100
0010
1000
0010
,  // measure 48
0100
0001
1000
0100
,  // measure 49
0010
0001
1000
0001
,  // measure 50
0100
0010
0100
1000
,  // measure 51
0010
0100
0001
0100
,  // measure 52
0010
0000
0000
0000
1000
0000
0000
0000
0001
0000
0000
0000
0000
0000
0000
0001
;
