#TITLE:Confession / Farewell;
#SUBTITLE:;
#ARTIST:Greetea feat. ninnikuu;
#TITLETRANSLIT:;
#SUBTITLETRANSLIT:;
#ARTISTTRANSLIT:;
#GENRE:;
#CREDIT:;
#BANNER:AV.avi;
#BACKGROUND:BG.png;
#LYRICSPATH:;
#CDTITLE:;
#MUSIC:audio.ogg;
#OFFSET:-0.069000;
#SAMPLESTART:60.011002;
#SAMPLELENGTH:15.000000;
#SELECTABLE:YES;
#BPMS:0.000000=80.500000
,145.000000=40.250000
,161.000000=80.500000
;
#STOPS:
;
#BGCHANGES:0.000=MV.avi=1.000=1=0=1===CrossFade==,
99999=-nosongbg-=1.000=0=0=0 // don't automatically add -songbackground-
;
#KEYSOUNDS:;
#ATTACKS:;

//---------------dance-single - ----------------
#NOTES:
     dance-single:
     :
     Hard:
     9:
     0.334444,0.367930,0.058822,0.282345,0.276462,398.000000,388.000000,10.000000,48.000000,0.000000,0.000000,0.334444,0.367930,0.058822,0.282345,0.276462,398.000000,388.000000,10.000000,48.000000,0.000000,0.000000:
// measure 0
0000
0000
0000
0000
,  // measure 1
0000
0000
0000
0000
,  // measure 2
0000
0000
0000
0000
,  // measure 3
0000
0000
0000
0000
,  // measure 4
0000
0000
1000
0100
0010
0100
1000
0001
,  // measure 5
0100
0001
0200
0000
0310
0000
1000
0000
0001
0000
0010
0000
0200
0000
0000
0000
,  // measure 6
1300
0000
1000
0100
0010
0100
1000
0001
,  // measure 7
0100
0000
0010
0000
1000
0001
0010
0100
1000
0001
0100
0010
2000
0000
0000
0000
,  // measure 8
0001
0000
0000
0000
3100
0000
0001
0000
0010
0000
0001
0010
0100
0000
1000
0000
,  // measure 9
0002
0000
0003
0000
0100
0001
0100
0001
0010
0000
0100
0000
0200
0000
0000
0000
,  // measure 10
0001
0000
0000
0000
1300
0000
0100
0000
0010
0000
0001
1000
0020
0000
0000
0000
,  // measure 11
0130
0000
0000
0000
1000
0000
0100
0010
0001
0000
1000
0000
0020
0000
0100
0000
,  // measure 12
1000
0130
1001
0100
0010
0100
0001
0100
,  // measure 13
0010
0000
0000
0000
1000
0100
0010
0100
1000
0000
0001
0000
0200
0000
0000
0000
,  // measure 14
0010
0000
0000
0000
0301
0000
1000
0000
0001
0000
0010
0100
0020
0000
0000
0000
,  // measure 15
0031
0000
0001
1000
0100
1000
0010
1000
,  // measure 16
0001
1000
0100
1000
0001
0010
0100
0010
0001
0000
1000
0010
2000
0000
0001
0000
,  // measure 17
3010
0000
0100
0010
0002
0000
1000
0000
0103
0000
0010
1000
0002
0000
0010
0000
,  // measure 18
0103
0000
1000
0100
0010
0001
1000
0010
,  // measure 19
0100
0001
2000
0000
0100
0000
0010
0000
,  // measure 20
3001
0000
0000
0000
1001
0000
0001
0000
0010
0001
0010
0000
0100
0000
1000
0000
,  // measure 21
0002
0000
0000
0000
1003
0000
0100
0000
1000
0000
0001
0000
0010
0000
0100
0010
,  // measure 22
0002
0000
0000
0000
0013
0100
1000
0000
0001
0100
0010
0000
1000
0001
0010
0000
,  // measure 23
0000
0000
0100
0010
0001
0000
0100
0001
0000
1000
0010
0000
1000
0000
0100
0000
,  // measure 24
0010
0001
0010
0100
1000
0000
0001
0000
0100
0010
0000
2000
0000
0000
3100
0000
,  // measure 25
0010
0001
0000
0000
0100
0010
0001
1000
0010
0000
0100
0000
0000
0000
0001
1000
,  // measure 26
0010
0000
0000
0000
1000
0100
0010
0000
0100
1000
0001
0000
0100
0010
0000
1000
,  // measure 27
0000
0000
0001
1000
0001
0000
0010
0200
0000
0000
0320
0000
0000
0000
0032
0000
,  // measure 28
0000
0000
0000
0000
1003
0000
0000
0100
1000
0100
1000
0100
0000
0010
0000
0001
,  // measure 29
0000
0020
0000
0000
0031
0000
0000
0000
0100
1000
0100
1000
0001
0000
0100
0000
,  // measure 30
0010
1000
0000
0002
0000
0000
0000
0000
0013
0000
0000
0100
0000
0000
1000
0000
,  // measure 31
0100
1000
0000
0001
0000
0000
0000
0000
0010
0000
0000
0100
0000
0000
1000
0000
,  // measure 32
0001
0000
1000
0001
1000
0000
0001
0000
0001
0010
0000
0001
0000
0000
0001
0000
,  // measure 33
0001
0010
0000
0000
0100
0000
1000
0000
0100
1000
0000
1000
0100
0000
1000
0000
,  // measure 34
1000
0100
0010
0001
0010
0000
0010
0000
0010
0001
0000
0001
0000
0000
0001
0000
,  // measure 35
0010
0001
0000
2000
0000
0000
0000
0000
0100
0000
0000
0000
0010
0000
0000
0000
,  // measure 36
3100
0000
0000
0000
0002
0000
0000
0003
2000
0000
0000
3000
0200
0000
0000
0300
,  // measure 37
2000
0000
0000
3000
0002
0000
0000
0003
0020
0000
0000
0030
0002
0000
0000
0003
,  // measure 38
0020
0000
0000
0030
1000
0000
0100
0000
1000
0000
0100
0000
1000
0000
0001
0000
,  // measure 39
0010
0001
0010
0100
1000
0001
0200
0000
,  // measure 40
0002
0000
0000
0303
1001
0000
0000
0000
0001
0000
0000
0000
0100
0000
0001
0000
,  // measure 41
0010
0000
0000
0000
0100
0010
0001
1000
0020
0000
0230
0000
0300
0000
0001
1000
,  // measure 42
0002
0000
0003
0000
0010
1000
0020
0000
1030
0100
0020
0000
0130
1000
0002
0000
,  // measure 43
0003
0000
0100
0010
0100
0000
0001
0100
0000
0100
0001
0000
0010
0000
0001
0000
,  // measure 44
1000
0100
1000
0100
0010
0000
0001
0000
1000
0010
0000
0200
0000
0000
0301
0000
,  // measure 45
0010
0100
0000
0000
0001
0010
0100
1000
0002
0000
0203
0000
0300
0000
0010
1000
,  // measure 46
0002
0000
0003
0000
0010
0100
2000
0000
3001
0100
0020
0000
1030
0002
0000
0013
,  // measure 47
0000
0000
0100
0010
0001
0000
1000
0020
0000
0000
0230
0000
0000
0000
0302
0000
,  // measure 48
0000
0000
0000
0000
1000
0000
1000
0003
1001
0000
0010
0000
0100
0000
0100
0000
,  // measure 49
0110
0001
0010
0010
0011
0100
1000
1000
,  // measure 50
1100
0001
1000
1000
1001
0010
0100
0100
,  // measure 51
0110
0000
0001
0000
0010
0000
0010
0000
0011
0000
0100
0000
1000
0001
0100
0010
,  // measure 52
1000
0001
0010
0000
0000
0000
0000
0000
0000
0000
0000
0000
0000
0000
0000
0000
;

//---------------dance-single - ----------------
#NOTES:
     dance-single:
     :
     Medium:
     5:
     0.226044,0.260617,0.017647,0.323520,0.000000,269.000000,266.000000,3.000000,55.000000,0.000000,0.000000,0.226044,0.260617,0.017647,0.323520,0.000000,269.000000,266.000000,3.000000,55.000000,0.000000,0.000000:
// measure 0
0000
0000
0000
0000
,  // measure 1
0000
0000
0000
0000
,  // measure 2
0000
0000
0000
0000
,  // measure 3
0000
0000
0000
0000
,  // measure 4
0000
0000
1000
0000
0100
0000
1000
0100
,  // measure 5
1000
0001
0010
0002
,  // measure 6
0013
0000
0100
0000
1000
0000
0001
0100
,  // measure 7
0010
0000
1000
0100
0010
0001
0020
0000
,  // measure 8
0031
0000
0001
0010
0100
0010
0002
0000
,  // measure 9
1003
0000
1000
0100
1000
0100
2000
0000
,  // measure 10
3010
0000
0001
0010
0100
0000
0001
1000
,  // measure 11
0010
0000
0001
1000
0100
1000
0002
0000
,  // measure 12
0013
0000
0100
0000
1000
0000
0010
0100
,  // measure 13
0010
0000
1000
0100
0010
0100
2000
0000
,  // measure 14
3001
0010
0100
0001
,  // measure 15
0010
0000
0100
0010
0001
0010
0200
0000
,  // measure 16
1300
0000
1100
0000
0100
1000
0200
0000
,  // measure 17
1300
0002
0023
0032
,  // measure 18
0023
0000
0031
1000
0200
0000
0310
0001
,  // measure 19
2000
3010
0010
0010
,  // measure 20
0110
0000
1000
0100
1000
0001
0010
0100
,  // measure 21
0010
0000
1000
0100
1000
1000
0001
1000
,  // measure 22
0001
0000
0010
0100
0010
0010
0100
0010
,  // measure 23
0100
0000
1000
0100
0010
0001
2000
0000
,  // measure 24
3010
0000
0001
1000
0100
1000
0002
0000
,  // measure 25
0013
0000
0001
0010
0100
1000
0002
0000
,  // measure 26
0103
0000
0010
1000
0010
1000
0020
0000
,  // measure 27
1030
0002
0013
0220
,  // measure 28
0000
0330
0001
0000
0001
0000
1000
0001
,  // measure 29
2000
0000
3001
0000
0001
0000
1000
0001
,  // measure 30
2000
0000
3010
0000
0100
0000
0001
0010
,  // measure 31
0002
0013
0100
1000
,  // measure 32
0001
0000
0001
1000
0002
0000
0013
0100
,  // measure 33
0020
0000
0130
1000
0002
0000
0103
0010
,  // measure 34
2000
0000
3001
0010
0100
0010
0001
1000
,  // measure 35
0010
1000
0002
0000
1000
0000
0010
0000
,  // measure 36
1003
0200
2300
3002
,  // measure 37
2003
3002
2003
3020
,  // measure 38
0230
0302
2003
3002
,  // measure 39
2003
3020
0230
0302
,  // measure 40
0000
1003
0100
1000
,  // measure 41
0001
0000
0010
0100
0010
0001
0020
0000
,  // measure 42
0130
0000
1000
0001
1000
0010
2000
0000
,  // measure 43
3100
0000
0001
0010
0100
0010
0002
0000
,  // measure 44
1003
0000
0100
1000
0010
1000
0200
0000
,  // measure 45
0310
0000
1000
0001
1000
0010
0200
0000
,  // measure 46
0301
0000
0001
0010
0002
0000
0013
0001
,  // measure 47
0020
0032
0023
0230
,  // measure 48
2300
0000
3001
0100
0001
0100
0001
0010
,  // measure 49
0001
0010
0001
1000
0001
1000
0100
1000
,  // measure 50
0100
1000
0001
0100
0010
1000
0001
0010
,  // measure 51
0100
1000
0001
0100
0010
1000
0001
1000
,  // measure 52
0001
0001
0000
0000
0000
0000
0000
0000
;

//---------------dance-single - ----------------
#NOTES:
     dance-single:
     :
     Easy:
     3:
     0.173944,0.214626,0.088233,0.135290,0.000000,207.000000,192.000000,15.000000,23.000000,0.000000,0.000000,0.173944,0.214626,0.088233,0.135290,0.000000,207.000000,192.000000,15.000000,23.000000,0.000000,0.000000:
// measure 0
0000
0000
0000
0000
,  // measure 1
0000
0000
0000
0000
,  // measure 2
0000
0000
0000
0000
,  // measure 3
0000
0000
0000
0000
,  // measure 4
0000
1000
0100
1000
,  // measure 5
0001
0010
0100
1000
,  // measure 6
1000
0001
0100
0010
,  // measure 7
1000
0000
0001
1000
0001
1000
0001
0000
,  // measure 8
0000
0100
0100
1000
,  // measure 9
1000
0001
0001
0002
,  // measure 10
0000
1003
0010
0100
,  // measure 11
0010
1000
1000
2000
,  // measure 12
0000
3001
0010
0001
,  // measure 13
1000
0100
0010
0200
,  // measure 14
0000
1300
0001
0100
,  // measure 15
0001
1000
1000
2000
,  // measure 16
0000
3001
0100
0002
,  // measure 17
0000
0023
0032
2003
,  // measure 18
0000
3001
0001
0002
,  // measure 19
0000
0203
0000
0300
,  // measure 20
0000
1000
1000
0100
,  // measure 21
1000
0000
0100
1000
0100
0000
1000
0100
,  // measure 22
1000
0000
0001
0010
0001
0000
0010
0001
,  // measure 23
0010
0100
0100
0200
,  // measure 24
0300
1000
1000
0001
,  // measure 25
0001
0000
0010
0100
0010
0000
0010
0000
,  // measure 26
0001
0000
1000
0001
1000
0000
0001
1000
,  // measure 27
0001
2000
0100
3010
,  // measure 28
0000
0000
0001
1000
0001
0000
0010
0000
,  // measure 29
0010
0000
0001
1000
0001
0000
1000
0000
,  // measure 30
1000
0000
0100
1000
0100
0000
1000
0100
,  // measure 31
1000
0010
0110
0100
,  // measure 32
0110
0001
1001
1000
,  // measure 33
1001
0100
1100
1000
,  // measure 34
1100
0000
0001
1000
0001
0000
0010
0100
,  // measure 35
0010
0002
1000
0100
,  // measure 36
0013
2000
0000
3002
,  // measure 37
0000
0203
0000
0302
,  // measure 38
0000
2003
0000
3020
,  // measure 39
0000
2030
0000
3002
,  // measure 40
0000
1003
0010
1000
,  // measure 41
0100
0000
1000
0000
0001
0000
1000
0001
,  // measure 42
1000
0000
0100
1000
0001
0010
0100
0000
,  // measure 43
1000
0001
0001
1001
,  // measure 44
0000
0000
1000
0000
0010
0000
1000
0010
,  // measure 45
1000
0000
0001
0010
0100
0000
0100
0000
,  // measure 46
0110
0000
0001
1000
0010
0000
0010
1000
,  // measure 47
0001
0000
0100
0010
0001
0000
1000
0000
,  // measure 48
0001
1000
1001
0100
,  // measure 49
1100
1000
1100
0001
,  // measure 50
0011
0100
0110
0001
,  // measure 51
1001
0010
0010
0220
,  // measure 52
0000
0330
0000
0000
0000
0000
0000
0000
;

//---------------dance-single - ----------------
#NOTES:
     dance-single:
     :
     Beginner:
     1:
     0.098316,0.136981,0.000000,0.076468,0.000000,117.000000,117.000000,0.000000,13.000000,0.000000,0.000000,0.098316,0.136981,0.000000,0.076468,0.000000,117.000000,117.000000,0.000000,13.000000,0.000000,0.000000:
// measure 0
0000
0000
0000
0000
,  // measure 1
0000
0000
0000
0000
,  // measure 2
0000
0000
0000
0000
,  // measure 3
0000
0000
0000
0000
,  // measure 4
0000
1000
0000
0000
,  // measure 5
0000
1000
0000
0000
,  // measure 6
0000
0001
0000
0000
,  // measure 7
0000
1000
0000
0000
,  // measure 8
0000
0001
0000
1000
,  // measure 9
0000
0100
0000
0100
,  // measure 10
0000
0001
0000
1000
,  // measure 11
0000
0001
0001
0002
,  // measure 12
0003
1000
0000
0100
,  // measure 13
0000
1000
0000
0010
,  // measure 14
0000
0100
0000
0001
,  // measure 15
0000
1000
1000
2000
,  // measure 16
3000
0001
1000
0001
,  // measure 17
0000
0010
0001
0010
,  // measure 18
0000
0100
1000
0100
,  // measure 19
0000
0002
0003
0000
,  // measure 20
0000
1000
1000
0020
,  // measure 21
0030
1000
0001
2000
,  // measure 22
3000
0001
0001
0002
,  // measure 23
0003
1000
0010
2000
,  // measure 24
3000
0100
1000
0200
,  // measure 25
0300
0001
0010
0200
,  // measure 26
0300
1000
1000
0002
,  // measure 27
0003
0010
1000
0020
,  // measure 28
0030
1000
1000
1000
,  // measure 29
0000
0001
1000
0001
,  // measure 30
0000
0010
1000
0010
,  // measure 31
0000
0100
0001
0100
,  // measure 32
0000
1000
1000
1000
,  // measure 33
0000
0001
0010
0001
,  // measure 34
0000
1000
0001
1000
,  // measure 35
0000
0100
0000
0100
,  // measure 36
0000
0002
0000
0000
,  // measure 37
0000
0000
0000
0000
,  // measure 38
0000
0000
0000
0000
,  // measure 39
0000
0000
0000
0000
,  // measure 40
0000
1003
0000
1000
,  // measure 41
0000
0001
1000
0001
,  // measure 42
0000
0010
1000
0010
,  // measure 43
0000
0100
1000
0100
,  // measure 44
0000
0001
1000
0010
,  // measure 45
0000
1000
0001
1000
,  // measure 46
0000
0100
1000
0010
,  // measure 47
0000
0200
0000
0301
,  // measure 48
0000
1000
1000
0001
,  // measure 49
0001
0010
0010
0100
,  // measure 50
0100
1000
1000
0100
,  // measure 51
0100
1000
1000
1000
;
