#TITLE:Cheese;
#SUBTITLE:;
#ARTIST:Cravity;
#TITLETRANSLIT:;
#SUBTITLETRANSLIT:;
#ARTISTTRANSLIT:;
#GENRE:;
#CREDIT:;
#BANNER:AV.avi;
#BACKGROUND:bg.png;
#LYRICSPATH:;
#CDTITLE:;
#MUSIC:audio.ogg;
#OFFSET:-0.212000;
#SAMPLESTART:48.627979;
#SAMPLELENGTH:14.999997;
#SELECTABLE:YES;
#BPMS:0.000000=162.000000
;
#STOPS:
;
#BGCHANGES:0.000=MV.avi=1.000=1=0=1===CrossFade==,
99999=-nosongbg-=1.000=0=0=0 // don't automatically add -songbackground-
;
#KEYSOUNDS:;
#ATTACKS:;

//---------------dance-single - ----------------
#NOTES:
     dance-single:
     :
     Hard:
     13:
     0.513102,0.562348,0.264296,0.941977,0.081322,530.000000,491.000000,39.000000,139.000000,0.000000,0.000000,0.513102,0.562348,0.264296,0.941977,0.081322,530.000000,491.000000,39.000000,139.000000,0.000000,0.000000:
// measure 0
0000
0000
0000
0000
,  // measure 1
0000
0000
0000
0000
,  // measure 2
0000
0000
0000
0000
,  // measure 3
0000
0000
0000
0000
,  // measure 4
0000
0000
0000
0000
,  // measure 5
0000
0000
0000
0000
,  // measure 6
0000
0000
0000
0000
,  // measure 7
0000
0000
0000
0000
,  // measure 8
0000
0000
0000
0000
,  // measure 9
0000
0000
0000
0100
,  // measure 10
0001
0100
0020
0000
0130
0001
1000
0000
,  // measure 11
0001
0010
0100
0010
0002
0000
0103
0000
,  // measure 12
0010
0100
0001
0010
0100
2000
0000
3001
,  // measure 13
1000
0010
0200
0000
0302
0000
1003
0001
,  // measure 14
0010
0100
1000
0100
0010
0002
0000
0000
,  // measure 15
1003
0010
0200
0000
0320
0000
0130
0000
,  // measure 16
0001
0010
1000
0010
0002
0003
0021
0000
,  // measure 17
0031
0000
1000
0000
0001
1000
0010
0000
,  // measure 18
0100
0021
0031
0102
,  // measure 19
0103
0001
0100
1000
0100
0001
1000
0000
,  // measure 20
0100
1200
1300
1002
,  // measure 21
1003
0010
0001
0010
2000
0000
3001
1000
,  // measure 22
0100
0010
0100
1000
0001
0100
0000
0100
,  // measure 23
0010
1000
0020
0000
0230
0000
0310
0000
,  // measure 24
1010
0000
1100
0000
0101
0000
2002
3003
,  // measure 25
0001
0100
0001
2000
,  // measure 26
3020
0230
0302
2003
,  // measure 27
3002
0023
0032
2003
,  // measure 28
0000
0000
3002
0000
0000
0203
0000
0000
,  // measure 29
0000
0302
0000
0203
,  // measure 30
0302
2003
3020
0230
,  // measure 31
0302
0023
0032
2003
,  // measure 32
0000
3002
0000
0000
0000
0000
0103
0000
,  // measure 33
0001
0010
0100
0110
,  // measure 34
0100
0010
0100
0000
0100
1000
0000
1000
,  // measure 35
0100
0010
0001
0100
0001
0010
0200
0000
,  // measure 36
0310
0001
0010
0000
0010
0001
0000
0001
,  // measure 37
0100
0001
0010
0100
1000
0001
2000
3000
,  // measure 38
2002
0000
0000
3003
0000
0000
0020
0000
0000
0030
0000
0000
0220
0000
0000
0330
0000
0000
0001
0000
0010
0000
0000
0000
,  // measure 39
0100
0000
1000
0000
0000
0000
0100
0000
0010
0000
0000
0000
2200
0000
0000
3300
0000
0000
0001
0000
0000
0010
0000
0000
,  // measure 40
1000
0010
0001
0100
0010
1000
0100
0000
,  // measure 41
1000
0000
0100
0010
0001
0010
0200
0000
,  // measure 42
0310
0100
0010
0000
0010
0100
0000
0100
,  // measure 43
1000
0100
0010
0001
0010
1000
0020
0000
,  // measure 44
0031
1000
0001
0000
0001
1000
0000
1000
,  // measure 45
1000
0001
1000
0010
1000
0001
0020
0030
,  // measure 46
0022
0000
0000
0033
0000
0000
0001
0000
1000
0000
0000
0000
2020
0000
0000
3030
0000
0000
0010
0000
0100
0000
0000
0000
,  // measure 47
0001
0000
0010
0000
0000
0000
0100
0000
1000
0000
0000
0000
0220
0000
0000
0330
0000
0000
0100
0000
0000
1000
0000
0000
,  // measure 48
0100
0001
0200
0000
0310
0100
0000
0100
,  // measure 49
0010
0000
1001
0000
1000
0100
2000
3000
,  // measure 50
0000
0000
0002
0003
0000
0000
2000
3000
,  // measure 51
0010
0000
0002
0003
0000
0000
2000
3000
,  // measure 52
0000
0000
0002
0003
0000
0000
0220
0330
,  // measure 53
0001
0010
0200
0300
0000
0000
2000
3000
,  // measure 54
0000
0000
0002
0003
0000
0000
2000
3000
,  // measure 55
2000
3000
0002
0003
0000
0000
2000
3000
,  // measure 56
0000
0000
0002
0003
0001
0010
0220
0330
,  // measure 57
0010
0100
2000
3000
0000
0000
2000
3000
,  // measure 58
0010
1000
0002
0003
0010
0100
2000
3001
,  // measure 59
0100
0010
0002
0003
0010
0000
2000
3000
,  // measure 60
0100
1000
0002
0003
0001
0010
0110
1000
,  // measure 61
0001
0100
0020
0030
0100
0000
2000
3000
,  // measure 62
0001
0010
0002
0003
0100
0010
2000
3010
,  // measure 63
2000
3010
0002
0003
0010
0000
2000
3000
,  // measure 64
0010
0100
0002
0003
0010
0001
0220
0330
,  // measure 65
0001
0010
0200
0000
0300
0000
2100
0000
,  // measure 66
3001
0010
0001
0000
0001
0100
0000
0100
,  // measure 67
0001
0010
0100
0010
0001
1000
0020
0000
,  // measure 68
1030
0100
1000
0000
1000
0100
0000
0100
,  // measure 69
1000
0001
0010
0100
0010
0001
0020
0030
,  // measure 70
0022
0000
0000
0033
0000
0000
0100
0000
0010
0000
0000
0000
0220
0000
0000
0330
0000
0000
0001
0000
0010
0000
0000
0000
,  // measure 71
1000
0000
0100
0000
0000
0000
0001
0000
0100
0000
0000
0000
2002
0000
0000
3003
0000
0000
0001
0000
0000
1000
0000
0000
,  // measure 72
0001
0010
0200
0000
0310
0001
0010
1000
,  // measure 73
0010
0100
0010
0001
1000
0100
2000
0000
,  // measure 74
3001
0100
0010
0000
0010
1000
0000
1000
,  // measure 75
0100
0010
0100
1000
0001
0100
0002
0000
,  // measure 76
1003
0100
1000
0000
1000
0100
0000
0100
,  // measure 77
1000
0001
0010
0100
0010
0001
0020
0030
,  // measure 78
0022
0000
0000
0033
0000
0000
0100
0000
1000
0000
0000
0000
2200
0000
0000
3300
0000
0000
0100
0000
0010
0000
0000
0000
,  // measure 79
0001
0000
1000
0000
0000
0000
0010
0000
0100
0000
0000
0000
2002
0000
0000
3003
0000
0000
0100
0000
0000
0010
0000
0000
,  // measure 80
0001
0010
2000
0000
3010
0001
1001
0000
,  // measure 81
1010
0110
0101
2000
,  // measure 82
3001
0010
0001
0000
0001
1000
0000
1000
,  // measure 83
0100
0000
1000
0100
1000
0000
0001
0000
1000
0000
0010
0000
0200
0000
0000
0000
,  // measure 84
0301
0100
0010
0000
0010
0100
0000
0100
,  // measure 85
0010
0100
0001
0100
1000
0100
0020
0030
,  // measure 86
2200
0000
0000
3300
0000
0000
0002
0000
0000
0003
0000
0000
0022
0000
0000
0033
0000
0000
0100
0000
0010
0000
0000
0000
,  // measure 87
0010
0000
0100
0000
0000
0000
0001
0000
1000
0000
0000
0000
2002
0000
0000
3003
0000
0000
0001
0000
0000
1000
0000
0000
,  // measure 88
0001
0100
0020
0000
1030
0001
0100
0010
,  // measure 89
0100
0001
1000
0010
1000
0100
0020
0000
,  // measure 90
0031
0010
0001
0000
0001
0010
0000
0010
,  // measure 91
0100
0000
1000
0100
1000
0000
0100
0000
1000
0000
0001
0000
0200
0000
0000
0000
,  // measure 92
0310
0100
0010
0000
0010
0100
0000
0100
,  // measure 93
0001
0100
0010
0100
0001
1000
0002
0003
,  // measure 94
0022
0000
0000
0033
0000
0000
1000
0000
0100
0000
0000
0000
2200
0000
0000
3300
0000
0000
1000
0000
0100
0000
0000
0000
,  // measure 95
0010
0000
0001
0000
0000
0000
0001
0000
1000
0000
0000
0000
2002
0000
0000
3003
0000
0000
0010
0000
0000
0100
0000
0000
,  // measure 96
0001
0100
2000
0000
3100
0010
0000
0010
,  // measure 97
0100
0000
0001
0000
2002
3003
0000
0000
;

//---------------dance-single - ----------------
#NOTES:
     dance-single:
     :
     Medium:
     9:
     0.387246,0.462517,0.101652,0.433716,0.000000,400.000000,385.000000,15.000000,64.000000,0.000000,0.000000,0.387246,0.462517,0.101652,0.433716,0.000000,400.000000,385.000000,15.000000,64.000000,0.000000,0.000000:
// measure 0
0000
0000
0000
0000
,  // measure 1
0000
0000
0000
0000
,  // measure 2
0000
0000
0000
0000
,  // measure 3
0000
0000
0000
0000
,  // measure 4
0000
0000
0000
0000
,  // measure 5
0000
0000
0000
0000
,  // measure 6
0000
0000
0000
0000
,  // measure 7
0000
0000
0000
0000
,  // measure 8
0000
0000
0000
0000
,  // measure 9
0000
0000
0000
1000
,  // measure 10
0001
0010
0001
0000
0100
0000
0001
0000
,  // measure 11
1000
0100
1000
0000
0010
0000
0100
0000
,  // measure 12
0001
0010
1000
0000
0010
0000
0001
0000
,  // measure 13
0100
0001
0100
0000
0010
0000
1000
0000
,  // measure 14
1000
0000
0010
0100
0010
0000
0100
0000
,  // measure 15
0001
0020
0032
0013
,  // measure 16
0100
1000
0100
0000
0010
0001
0010
0000
,  // measure 17
0001
0000
0100
0001
0010
0100
0010
0000
,  // measure 18
0001
1000
0001
0000
1000
0001
1000
0000
,  // measure 19
0100
1000
0100
0010
0100
0000
0010
0000
,  // measure 20
0001
0100
0001
0000
0100
0001
0100
0000
,  // measure 21
0001
0010
0100
0010
0001
0000
0100
0000
,  // measure 22
0100
0000
0010
0100
0010
0000
1000
0000
,  // measure 23
1000
0200
1300
1000
,  // measure 24
0001
0101
0001
0010
,  // measure 25
0100
1000
0001
2000
,  // measure 26
0000
3001
0000
0020
,  // measure 27
0000
0031
0000
0002
,  // measure 28
0000
0000
0023
0000
0000
0032
0000
0000
,  // measure 29
0000
0203
0000
0302
,  // measure 30
0000
1003
0000
0200
,  // measure 31
0000
0310
0000
2000
,  // measure 32
0000
3001
0000
0100
,  // measure 33
0001
0100
0001
0010
,  // measure 34
0010
0000
0001
0000
1000
0001
0000
0001
,  // measure 35
1000
0100
0010
0000
0001
0000
1000
0000
,  // measure 36
1000
0000
0010
0000
0010
1000
0000
1000
,  // measure 37
0100
0010
0001
1000
,  // measure 38
1000
0000
0001
0000
0001
0000
0100
0001
,  // measure 39
0100
0000
0001
0000
0011
0000
0001
0010
,  // measure 40
0100
0010
0001
0000
0100
0001
0100
0000
,  // measure 41
0010
0000
1000
0100
0010
0100
1000
0000
,  // measure 42
0001
0100
0001
0000
0001
1000
0000
1000
,  // measure 43
0010
1000
0100
0010
,  // measure 44
0001
0010
0001
0000
0001
0100
0000
0100
,  // measure 45
0010
1000
0100
1000
,  // measure 46
1000
0000
0001
0000
0001
0000
0100
0001
,  // measure 47
0100
0000
0001
0000
0011
0000
0001
0010
,  // measure 48
0100
0000
0010
0000
0100
1000
0000
1000
,  // measure 49
0010
0000
1000
0001
0100
0001
2000
3000
,  // measure 50
0000
0000
0002
0003
0000
0000
2000
3000
,  // measure 51
0010
0000
0002
0003
0000
0000
2000
3000
,  // measure 52
0000
0000
0002
0003
0000
0000
2002
3003
,  // measure 53
0002
0003
0200
0300
0000
0000
2000
3000
,  // measure 54
0000
0000
0002
0003
0000
0000
2000
3000
,  // measure 55
2000
3000
0002
0003
0000
0000
2000
3000
,  // measure 56
0000
0000
0002
0003
0200
0300
0220
0330
,  // measure 57
0002
0003
0020
0030
0000
0000
2000
3000
,  // measure 58
0010
0000
0002
0003
0010
0000
2000
3000
,  // measure 59
0010
0000
0002
0003
0000
0000
2000
3000
,  // measure 60
0010
0000
0002
0003
0010
0000
2020
3030
,  // measure 61
0200
0300
0020
0030
0000
0000
2000
3000
,  // measure 62
0100
0000
0002
0003
0100
0000
2000
3000
,  // measure 63
2000
3000
0002
0003
0100
0000
2000
3000
,  // measure 64
0100
0000
0002
0003
0200
0300
0220
0330
,  // measure 65
0200
0300
2000
0000
0000
0000
3001
0000
,  // measure 66
0100
0000
0001
0000
0010
0001
0000
0001
,  // measure 67
0100
0001
0010
0000
0100
0000
2000
0000
,  // measure 68
3010
0000
0100
0000
0001
0010
0000
0010
,  // measure 69
0001
0100
0001
1000
,  // measure 70
1000
0010
0010
1000
,  // measure 71
0010
0000
0100
0000
0110
0000
0001
0010
,  // measure 72
0100
0010
0001
1000
,  // measure 73
1000
0000
0010
1000
0100
1000
0002
0000
,  // measure 74
0013
0000
0001
0000
0100
0010
0000
0010
,  // measure 75
0100
0000
0001
0010
0100
0010
0002
0000
,  // measure 76
1003
0000
0001
0000
0100
0010
0000
0010
,  // measure 77
0100
0001
0010
0001
,  // measure 78
0001
0010
0010
0100
,  // measure 79
0110
0100
1100
0001
,  // measure 80
1000
0000
0010
0000
1000
0000
0100
0010
,  // measure 81
0001
0000
0010
0100
0010
0000
0002
0000
,  // measure 82
1003
0000
0010
0000
0100
0010
0000
0010
,  // measure 83
0100
0001
0010
0000
0100
0000
2000
0000
,  // measure 84
3001
0000
0100
0000
0001
0010
0000
0010
,  // measure 85
0100
1000
0100
0000
1000
0000
0010
0000
,  // measure 86
0010
1000
1000
0001
,  // measure 87
1001
0000
1000
0000
1001
0000
0001
0010
,  // measure 88
0100
0010
0002
0000
1003
0000
0010
0100
,  // measure 89
0001
0000
0010
1000
0010
0001
2000
0000
,  // measure 90
3010
0000
1000
0000
0001
0100
0000
0100
,  // measure 91
0001
0010
1000
0000
0010
0000
0002
0000
,  // measure 92
0103
0000
0010
0000
1000
0100
0000
0100
,  // measure 93
1000
0001
0010
0001
,  // measure 94
0001
0100
0110
0001
,  // measure 95
0010
0000
0100
0000
0110
0000
0001
1000
,  // measure 96
0001
1000
0010
0100
,  // measure 97
0100
0001
1001
0000
;

//---------------dance-single - ----------------
#NOTES:
     dance-single:
     :
     Easy:
     5:
     0.258487,0.296570,0.033884,0.210081,0.000000,267.000000,262.000000,5.000000,31.000000,0.000000,0.000000,0.258487,0.296570,0.033884,0.210081,0.000000,267.000000,262.000000,5.000000,31.000000,0.000000,0.000000:
// measure 0
0000
0000
0000
0000
,  // measure 1
0000
0000
0000
0000
,  // measure 2
0000
0000
0000
0000
,  // measure 3
0000
0000
0000
0000
,  // measure 4
0000
0000
0000
0000
,  // measure 5
0000
0000
0000
0000
,  // measure 6
0000
0000
0000
0000
,  // measure 7
0000
0000
0000
0000
,  // measure 8
0000
0000
0000
0000
,  // measure 9
0000
0000
0000
1000
,  // measure 10
0001
0200
0000
0301
,  // measure 11
0010
0002
0000
0103
,  // measure 12
0010
0200
0000
0310
,  // measure 13
1000
0020
0000
1030
,  // measure 14
1000
0001
0100
0001
,  // measure 15
0010
0200
0000
0310
,  // measure 16
0001
0010
0010
0002
,  // measure 17
0000
0103
0000
0001
,  // measure 18
1000
0010
1000
0001
,  // measure 19
1000
0200
0000
0310
,  // measure 20
0001
0010
1000
0010
,  // measure 21
0001
0200
0000
0301
,  // measure 22
0001
2000
0000
3010
,  // measure 23
0100
0020
0000
0130
,  // measure 24
0100
0001
0001
0020
,  // measure 25
0000
0031
0000
2000
,  // measure 26
0000
0000
0000
3200
,  // measure 27
0000
0000
0000
0320
,  // measure 28
0000
0000
0000
0032
,  // measure 29
0000
0000
0000
0203
,  // measure 30
0000
0000
0000
0302
,  // measure 31
0000
0000
0000
2003
,  // measure 32
0000
0000
0000
3001
,  // measure 33
0000
0000
0000
1001
,  // measure 34
0000
0000
0001
0000
0000
0100
0000
0000
,  // measure 35
0100
0001
0000
0010
,  // measure 36
0100
0000
0010
0000
0000
0010
0000
0000
,  // measure 37
0010
0100
1000
0001
,  // measure 38
0001
2000
0000
3001
,  // measure 39
0100
0000
0002
0000
0000
0003
0010
0000
,  // measure 40
0001
0100
0010
2000
,  // measure 41
0000
3100
1000
0100
,  // measure 42
0100
0000
0010
0000
0000
0001
0000
0000
,  // measure 43
0001
0100
0001
0010
,  // measure 44
0100
0000
1000
0000
0000
1000
0000
0000
,  // measure 45
1000
0010
0100
0001
,  // measure 46
0001
1000
0001
1000
,  // measure 47
1000
0200
0000
1300
,  // measure 48
0010
1000
0100
0020
,  // measure 49
0000
0031
0000
1000
,  // measure 50
0000
0001
0000
1000
,  // measure 51
0000
0001
0000
1000
,  // measure 52
0000
0001
0000
1001
,  // measure 53
0000
0001
0000
1000
,  // measure 54
0000
0001
0000
1000
,  // measure 55
1000
0001
0000
1000
,  // measure 56
0000
0001
0000
0110
,  // measure 57
0100
0002
0000
1003
,  // measure 58
0000
0001
0000
1000
,  // measure 59
0000
0001
0000
1000
,  // measure 60
0000
0001
0000
0110
,  // measure 61
0000
0010
0000
1000
,  // measure 62
0000
0001
0000
1000
,  // measure 63
1000
0001
0000
1000
,  // measure 64
0000
0001
0000
0110
,  // measure 65
0000
0002
0000
0013
,  // measure 66
0100
0000
0010
0000
0001
1000
0000
0000
,  // measure 67
1000
0001
0100
0010
,  // measure 68
1000
0000
0100
0000
0010
0001
0000
0000
,  // measure 69
0001
0100
0001
0010
,  // measure 70
0010
0100
0100
0010
,  // measure 71
0010
0001
0001
2000
,  // measure 72
0000
3010
0000
0100
,  // measure 73
0001
0100
0001
0020
,  // measure 74
0000
0130
0000
1000
,  // measure 75
0001
1000
0010
0200
,  // measure 76
0000
0301
0000
0010
,  // measure 77
0100
0010
0001
1000
,  // measure 78
1000
0010
0010
0100
,  // measure 79
0100
0001
0001
1000
,  // measure 80
0100
0010
0100
2000
,  // measure 81
0000
3001
0100
0001
,  // measure 82
0001
0000
0100
0000
0100
0010
0000
0000
,  // measure 83
0010
0100
0001
0010
,  // measure 84
0100
0000
1000
0000
0001
1000
0000
0000
,  // measure 85
1000
0001
0100
0010
,  // measure 86
0010
0100
0100
0001
,  // measure 87
0001
1000
1000
0100
,  // measure 88
1000
0010
1000
0002
,  // measure 89
0000
0103
0001
0010
,  // measure 90
0100
0000
0010
0000
0000
0001
0000
0000
,  // measure 91
0001
0100
0001
1000
,  // measure 92
0100
0000
0010
0000
0000
0001
0000
0000
,  // measure 93
0001
0100
0001
1000
,  // measure 94
1000
0010
0010
0100
,  // measure 95
0100
0001
0001
0010
,  // measure 96
0100
0010
0001
2000
,  // measure 97
0000
3010
0000
0000
;

//---------------dance-single - ----------------
#NOTES:
     dance-single:
     :
     Beginner:
     2:
     0.178133,0.229480,0.013554,0.040661,0.000000,184.000000,182.000000,2.000000,6.000000,0.000000,0.000000,0.178133,0.229480,0.013554,0.040661,0.000000,184.000000,182.000000,2.000000,6.000000,0.000000,0.000000:
// measure 0
0000
0000
0000
0000
,  // measure 1
0000
0000
0000
0000
,  // measure 2
0000
0000
0000
0000
,  // measure 3
0000
0000
0000
0000
,  // measure 4
0000
0000
0000
0000
,  // measure 5
0000
0000
0000
0000
,  // measure 6
0000
0000
0000
0000
,  // measure 7
0000
0000
0000
0000
,  // measure 8
0000
0000
0000
0000
,  // measure 9
0000
0000
0000
1000
,  // measure 10
0000
0010
0000
0100
,  // measure 11
0000
0100
0000
0001
,  // measure 12
0000
0010
0000
0001
,  // measure 13
0000
0001
0000
0100
,  // measure 14
0000
0100
0000
0010
,  // measure 15
0000
0010
0000
1000
,  // measure 16
0000
1000
0000
0200
,  // measure 17
0000
1300
0000
0001
,  // measure 18
0000
0100
0000
0001
,  // measure 19
0000
0010
0000
0100
,  // measure 20
0000
1000
0000
0100
,  // measure 21
0000
1010
0000
0001
,  // measure 22
0000
0001
0000
1000
,  // measure 23
0000
1000
0000
0010
,  // measure 24
0000
0100
0000
0002
,  // measure 25
0000
1003
0000
2000
,  // measure 26
0000
0000
0000
0000
,  // measure 27
0000
0000
0000
3200
,  // measure 28
0000
0000
0000
0000
,  // measure 29
0000
0000
0000
2300
,  // measure 30
0000
0000
0000
0000
,  // measure 31
0000
0000
0000
3002
,  // measure 32
0000
0000
0000
0003
,  // measure 33
0000
0000
0000
1000
,  // measure 34
0000
0001
0000
0100
,  // measure 35
0000
0100
0000
0001
,  // measure 36
0000
0010
0000
0100
,  // measure 37
0000
0100
0000
1000
,  // measure 38
0001
1000
0000
0001
,  // measure 39
1000
0001
0000
0100
,  // measure 40
0000
0100
0000
0010
,  // measure 41
0000
0010
0000
1000
,  // measure 42
0000
1000
0000
0001
,  // measure 43
0000
0010
0000
0100
,  // measure 44
0000
0100
0000
1000
,  // measure 45
0000
0001
0000
0100
,  // measure 46
0001
0100
0000
0001
,  // measure 47
0010
0100
0000
1000
,  // measure 48
0000
1000
0000
0001
,  // measure 49
0000
0100
0000
1000
,  // measure 50
0000
0001
0000
1000
,  // measure 51
0000
0001
0000
1000
,  // measure 52
0000
0001
0000
1000
,  // measure 53
0000
0001
0000
1000
,  // measure 54
0000
0001
0000
1000
,  // measure 55
0000
0001
0000
1000
,  // measure 56
0000
0001
0000
1000
,  // measure 57
0000
0001
0000
1000
,  // measure 58
0000
0001
0000
1000
,  // measure 59
0000
0001
0000
1000
,  // measure 60
0000
0001
0000
1000
,  // measure 61
0000
0001
0000
1000
,  // measure 62
0000
0001
0000
1000
,  // measure 63
0000
0001
0000
1000
,  // measure 64
0000
0001
0000
0100
,  // measure 65
0000
0010
0000
1000
,  // measure 66
0000
1000
0000
0100
,  // measure 67
1000
0001
0000
1010
,  // measure 68
0000
0010
0000
0001
,  // measure 69
0100
0010
0000
1000
,  // measure 70
0000
1000
0000
0001
,  // measure 71
0100
0001
0000
0010
,  // measure 72
0000
0010
0000
0001
,  // measure 73
0000
1000
0100
1000
,  // measure 74
0000
1000
0000
0001
,  // measure 75
0000
0100
0001
0010
,  // measure 76
0000
0001
0000
1000
,  // measure 77
0000
1000
0000
0010
,  // measure 78
0100
0010
0000
0100
,  // measure 79
0010
0100
0000
0001
,  // measure 80
0000
0001
0000
1000
,  // measure 81
0000
1000
0000
0100
,  // measure 82
1000
0100
0000
0010
,  // measure 83
0000
0010
0001
0100
,  // measure 84
0000
0100
0000
0010
,  // measure 85
0000
0010
0000
1000
,  // measure 86
0001
1000
0000
0001
,  // measure 87
0010
0100
0000
1000
,  // measure 88
0001
1000
0000
0010
,  // measure 89
0000
1000
0000
0100
,  // measure 90
0000
0100
0000
1000
,  // measure 91
0000
1000
0001
0100
,  // measure 92
0000
0100
0000
0001
,  // measure 93
0000
0010
0000
0100
,  // measure 94
0010
0100
0000
0010
,  // measure 95
0100
0010
0000
0001
,  // measure 96
0000
0001
0000
1000
;

//---------------dance-single - ----------------
#NOTES:
     dance-single:
     :
     Challenge:
     14:
     0.588615,0.661586,0.332064,0.996191,0.125371,608.000000,559.000000,49.000000,147.000000,0.000000,0.000000,0.588615,0.661586,0.332064,0.996191,0.125371,608.000000,559.000000,49.000000,147.000000,0.000000,0.000000:
// measure 0
0000
0000
0000
0000
,  // measure 1
0000
0000
0000
0000
,  // measure 2
0000
0000
0000
0000
,  // measure 3
0000
0000
0000
0000
,  // measure 4
0000
0000
0000
0000
,  // measure 5
0000
0000
0000
0000
,  // measure 6
0000
0000
0000
0000
,  // measure 7
0000
0000
0000
0000
,  // measure 8
0000
0000
0000
0000
,  // measure 9
0000
0000
0000
1001
,  // measure 10
0010
0100
0002
0000
1003
0010
1000
0000
,  // measure 11
0100
0000
0010
0001
0010
0000
0100
0000
2000
0000
3000
0000
0110
0000
0000
0000
,  // measure 12
0100
0010
0001
0100
0010
2000
0000
3001
,  // measure 13
0100
0010
0200
0000
0320
0000
1030
0100
,  // measure 14
0010
0001
0010
0100
1000
0010
0100
0001
,  // measure 15
1000
0100
2000
0000
3020
0000
1030
0000
,  // measure 16
0001
0100
0010
0100
2001
3000
0210
0000
,  // measure 17
0310
0000
1010
0001
1000
0100
0020
0000
,  // measure 18
0031
1002
0013
0210
,  // measure 19
0310
0000
0100
1000
0100
0000
0010
0000
0001
0000
1000
0000
0010
0000
0000
0000
,  // measure 20
0100
0000
0000
0000
0120
0000
0030
0000
1000
0010
0000
0000
2100
0000
0000
0000
,  // measure 21
3001
0100
0010
0100
0002
0000
1003
0100
,  // measure 22
0010
0001
0010
0100
1000
0001
0100
0010
,  // measure 23
1000
0100
0010
1000
0100
0001
0010
0000
,  // measure 24
0022
0033
0220
0330
2002
3003
0120
0000
,  // measure 25
0130
0000
1001
0000
0200
0300
0020
0000
,  // measure 26
0230
0300
2010
0000
3002
0000
0023
0000
,  // measure 27
0230
0300
2100
0000
3002
0000
0203
0000
,  // measure 28
0000
0000
0302
0000
0000
0023
0000
0000
,  // measure 29
0000
0032
0000
0203
,  // measure 30
0320
0030
2010
0000
3002
0000
0023
0000
,  // measure 31
0230
0300
2100
0000
3020
0000
2030
0000
,  // measure 32
0000
0000
3002
0000
0000
0000
0000
0000
0000
0000
0000
0000
0013
0001
0100
0000
,  // measure 33
0001
1000
0001
0000
0100
0010
0100
0000
0001
0010
0001
0000
2001
0000
0000
0000
,  // measure 34
3100
1000
0001
0010
0001
1000
0000
1000
,  // measure 35
0100
0000
0010
0100
0010
0000
0001
0000
1000
0000
0010
0000
0200
0000
0000
0000
,  // measure 36
0301
0010
1000
0010
0001
0100
0000
0100
,  // measure 37
0100
0010
1000
0100
0010
0001
2000
3000
,  // measure 38
1002
0000
0000
0000
0000
0000
0203
0000
0000
0300
0000
0000
0120
0000
0000
0000
0030
0000
1000
0000
0001
0000
0000
0000
,  // measure 39
0100
0000
0010
0000
0000
0000
1000
0000
0010
0000
0000
0000
0012
0000
0000
0000
0000
0000
1003
0000
0000
0100
0000
0000
,  // measure 40
0010
1000
0010
0001
0100
0010
0100
0001
,  // measure 41
0100
1000
0001
0010
0100
0001
0020
0000
,  // measure 42
0130
1000
0002
0000
0103
0001
0000
0001
,  // measure 43
0100
0000
0001
0010
0001
0000
1000
0000
0010
0000
1000
0000
0200
0000
0000
0000
,  // measure 44
0310
0001
0010
0000
0010
0100
0000
0100
,  // measure 45
0100
1000
0010
1000
0001
0100
0020
0030
,  // measure 46
0220
0000
0000
0330
0000
0000
1000
0000
0001
0000
0000
0000
1200
0000
0000
0300
0000
0000
0010
0000
0100
0000
0000
0000
,  // measure 47
1000
0000
0100
0000
0000
0000
0001
0000
0010
0000
0000
0000
2200
0000
0000
3300
0000
0000
0001
0000
0000
0100
0000
0000
,  // measure 48
0010
0100
0002
0000
1003
0100
0000
0100
,  // measure 49
0010
0001
0010
1000
0001
0010
2000
3000
,  // measure 50
0010
0200
0302
0003
0100
0010
2000
3100
,  // measure 51
1000
0000
0100
0010
0002
0000
0103
0000
0010
0000
0100
0000
2000
0000
3000
0000
,  // measure 52
0010
0100
0002
0003
0010
0100
0110
0100
,  // measure 53
1000
0010
0200
0310
0100
0001
2000
3000
,  // measure 54
0010
0100
0002
0003
0010
0100
2000
3100
,  // measure 55
2000
0000
3010
0100
0001
0000
0010
0000
0000
0000
0000
0000
2000
0000
3000
0000
,  // measure 56
0010
0100
0002
0003
0100
0010
0220
0330
,  // measure 57
0001
0010
0200
0310
0001
0010
2000
3000
,  // measure 58
0010
0100
0002
0103
0010
0100
2000
3100
,  // measure 59
1000
0010
0002
0003
0010
0000
2000
3000
,  // measure 60
0100
1000
0002
0103
0010
1000
0110
0001
,  // measure 61
1000
0010
0200
0000
0310
0000
2000
3000
,  // measure 62
0100
0010
0002
0003
0100
0010
2000
3010
,  // measure 63
2000
3010
0002
0013
1000
0001
2000
3000
,  // measure 64
0010
0100
0002
0003
1000
0100
0220
0330
,  // measure 65
0001
1000
0020
0000
0000
0030
0110
0000
,  // measure 66
0001
1000
0100
0010
0001
1000
0000
1000
,  // measure 67
0010
0000
1000
0001
1000
0000
0100
0000
0010
0000
0100
0000
0002
0000
0000
0000
,  // measure 68
0103
0010
0100
2000
0000
0100
0000
3100
,  // measure 69
0001
0100
1000
0010
0100
0001
0020
0030
,  // measure 70
0022
0000
0000
0033
0000
0000
1000
0000
0100
0000
0000
0000
0022
0000
0000
0033
0000
0000
1000
0000
0100
0000
0000
0000
,  // measure 71
0010
0000
0001
0000
0000
0000
1000
0000
0100
0000
0000
0000
0022
0000
0000
0033
0000
0000
1000
0000
0000
0100
0000
0000
,  // measure 72
0010
0001
0100
0010
0100
0001
1000
0100
,  // measure 73
0001
0100
1000
0001
0100
0010
0002
0000
,  // measure 74
0013
0100
0010
0000
1000
0001
0000
0001
,  // measure 75
0010
0000
0100
1000
0100
0000
0010
0000
0001
0000
0100
0000
0020
0000
0000
0000
,  // measure 76
1030
0001
0100
0000
0100
0001
0000
0001
,  // measure 77
0001
0010
0100
1000
0100
0001
0200
0300
,  // measure 78
2020
0000
0000
3030
0000
0000
0100
0000
0001
0000
0000
0000
2200
0000
0000
3300
0000
0000
0010
0000
0001
0000
0000
0000
,  // measure 79
0100
0000
0001
0000
0000
0000
0010
0000
0100
0000
0000
0000
2002
0000
0000
3003
0000
0000
0100
0000
0000
0010
0000
0000
,  // measure 80
1000
0001
0200
0000
0310
1000
0022
0033
,  // measure 81
2200
3300
0210
1300
1000
1000
2100
0000
,  // measure 82
3010
0100
1000
0001
0100
0010
0000
0010
,  // measure 83
0100
0000
1000
0100
1000
0000
0001
0000
0010
0000
0100
0000
2000
0000
0000
0000
,  // measure 84
3001
0100
0010
0200
0000
0010
0000
0310
,  // measure 85
1000
0001
0010
0100
1000
0001
1020
0030
,  // measure 86
0012
0000
0000
0003
0000
0000
2010
0000
0000
3000
0000
0000
0210
0000
0000
0300
0000
0000
0100
0000
0010
0000
0000
0000
,  // measure 87
1000
0000
0010
0000
0000
0000
0001
0000
0010
0000
0000
0000
2200
0000
0000
3300
0000
0000
0001
0000
0000
0010
0000
0000
,  // measure 88
0100
0010
0002
0000
1003
0010
0100
0001
,  // measure 89
0100
0010
1000
0100
0010
0001
0020
0000
,  // measure 90
0031
0100
0010
0000
0010
0100
0000
0100
,  // measure 91
0010
0000
1000
0100
1000
0000
0001
0000
0010
0000
0100
0000
0020
0000
0000
0000
,  // measure 92
0031
0100
0020
0000
1030
0001
0020
0000
,  // measure 93
0230
0310
0002
1003
0020
1030
0202
0303
,  // measure 94
0022
0000
0000
0033
0000
0000
0100
0000
1000
0000
0000
0000
0022
0000
0000
0033
0000
0000
0010
0000
0001
0000
0000
0000
,  // measure 95
1000
0000
0100
0000
0000
0000
0010
0000
0100
0000
0000
0000
2020
0000
0000
3030
0000
0000
0001
0000
0000
0100
0000
0000
,  // measure 96
0010
0100
0002
0000
1003
0100
0000
0100
,  // measure 97
1000
0010
1000
0002
0000
0003
0000
0000
;
