#TITLE:-Capella;
#SUBTITLE:;
#ARTIST:ARForest;
#TITLETRANSLIT:;
#SUBTITLETRANSLIT:;
#ARTISTTRANSLIT:;
#GENRE:;
#CREDIT:;
#BANNER:bn.png;
#BACKGROUND:bg.png;
#LYRICSPATH:;
#CDTITLE:;
#MUSIC:Capella.mp3;
#OFFSET:-0.333000;
#SAMPLESTART:83.484283;
#SAMPLELENGTH:15.000000;
#SELECTABLE:YES;
#DISPLAYBPM:*;
#BPMS:0.000000=210.000000
;
#STOPS:
;
#BGCHANGES:;
#KEYSOUNDS:;
#ATTACKS:;

//---------------dance-single - ----------------
#NOTES:
     dance-single:
     :
     Hard:
     16:
     0.663916,0.949093,0.257416,0.285245,0.132187,668.000000,631.000000,37.000000,41.000000,4.000000,0.000000,0.663916,0.949093,0.257416,0.285245,0.132187,668.000000,631.000000,37.000000,41.000000,4.000000,0.000000:
// measure 0
0000
0000
0000
0000
,  // measure 1
0000
0000
0000
0000
,  // measure 2
0000
0000
0000
0000
,  // measure 3
0000
0000
0000
0000
,  // measure 4
0000
0000
0000
0000
,  // measure 5
1000
0000
0100
1000
0000
1000
0001
0100
,  // measure 6
0001
0000
0100
0010
0000
1000
0001
0010
,  // measure 7
0001
0000
1000
0001
0000
0001
0010
0100
,  // measure 8
1000
0000
1000
0001
0000
0010
0001
1000
,  // measure 9
0100
0000
1000
0001
0000
0100
0010
1000
,  // measure 10
0001
0000
0001
1000
0000
1000
0001
0010
,  // measure 11
0100
0000
0100
1000
0000
0001
0100
0001
,  // measure 12
0010
0000
0000
0001
0000
1000
0100
0000
,  // measure 13
2000
0000
3200
0000
0310
0001
1000
0001
,  // measure 14
0000
0000
1000
0000
0010
0100
0000
0100
,  // measure 15
0001
0000
1000
0100
1000
0001
0100
0010
,  // measure 16
0000
0000
1000
0001
0010
0100
0010
0001
,  // measure 17
1000
0100
0001
0100
0010
0001
1000
0100
,  // measure 18
0000
0000
1001
0000
0001
0100
0000
0100
,  // measure 19
0001
0000
1000
0010
1000
0100
0010
0001
,  // measure 20
0000
0000
0100
1000
0010
0100
0001
1000
,  // measure 21
0100
1000
0001
0010
0002
0000
0010
0000
,  // measure 22
0023
0100
0230
1000
,  // measure 23
2300
0010
3002
0100
,  // measure 24
2003
0001
3020
0000
,  // measure 25
0000
0030
0110
0001
,  // measure 26
1000
0010
1000
0001
0000
1000
1000
0010
,  // measure 27
0100
0000
0100
0000
0001
0000
0001
0000
1000
0000
0000
0000
1000
0000
0010
0100
,  // measure 28
0001
1000
1000
0100
0000
0100
1000
0001
,  // measure 29
0100
0100
0010
0010
1000
0000
1002
0000
,  // measure 30
0103
0100
0010
1000
0000
1000
0100
1000
,  // measure 31
0001
0010
0001
0000
1000
0000
0100
0000
0020
0000
0000
0000
0001
0000
0000
0000
,  // measure 32
0032
0100
2003
0010
,  // measure 33
3010
0000
0100
0000
0001
0000
0010
0000
0001
0000
1000
0100
1000
0000
0001
0000
,  // measure 34
0100
0010
0100
0000
0001
0000
1000
0100
1000
0000
0001
0000
0100
0010
0100
0000
,  // measure 35
M000
0000
0M00
0000
00M0
0000
000M
0000
1000
0000
0001
0100
0010
0000
1000
0000
,  // measure 36
0001
0010
0100
0000
1000
0000
0001
0100
0010
0000
1000
0000
0001
0010
0100
0000
,  // measure 37
1000
0000
0001
1000
0001
0000
1000
0000
1100
0000
0000
0000
0010
0000
0110
0000
,  // measure 38
0000
0000
0010
0000
0011
0000
0000
0000
1000
0001
1000
0000
0010
0000
0100
0000
,  // measure 39
1002
0000
0000
0000
,  // measure 40
0000
0000
0000
0000
1003
0000
1000
0010
,  // measure 41
1000
0001
1010
0100
,  // measure 42
0010
0100
0001
0000
1001
0000
0010
0000
,  // measure 43
1000
0100
0010
0001
0101
0000
0100
0000
,  // measure 44
0001
0010
1000
0000
1001
0000
0001
0000
,  // measure 45
0100
0010
0100
0001
1001
0000
0100
0000
,  // measure 46
0001
0010
0100
0010
0011
0000
0001
0000
,  // measure 47
1000
0100
0010
0100
1100
0000
0001
0000
,  // measure 48
1000
0100
0010
0001
1001
0000
1000
0000
,  // measure 49
0001
0010
0100
1000
1001
0000
0100
0000
,  // measure 50
0011
0000
1000
0100
0001
0000
0001
0100
,  // measure 51
1000
0000
1000
0010
0100
0000
0010
0000
,  // measure 52
0101
0000
0001
0010
1000
0000
1000
0010
,  // measure 53
0001
0000
0001
0010
1000
0000
1000
0010
,  // measure 54
0100
0001
0100
0010
0001
0000
0001
0100
,  // measure 55
0010
1000
0010
0100
1000
0000
1000
0100
,  // measure 56
0010
0000
0010
0100
0001
1000
0100
1000
,  // measure 57
0010
0100
0001
0010
0002
0000
0000
0000
,  // measure 58
0100
0000
0023
0000
,  // measure 59
0001
0000
2030
0000
,  // measure 60
0010
0000
0000
0000
3020
0000
0000
0100
,  // measure 61
0000
0001
0032
0000
,  // measure 62
1000
0000
0203
0000
,  // measure 63
0001
0000
0320
0000
,  // measure 64
0100
0000
0000
0000
2030
0000
0000
0010
,  // measure 65
0000
0001
3002
0000
,  // measure 66
0000
0000
0023
0000
,  // measure 67
0000
0000
0230
0000
,  // measure 68
0000
0000
2300
0000
,  // measure 69
0000
0000
0000
0000
3001
0010
0100
1000
,  // measure 70
0001
0010
0100
1000
0001
0100
0010
1000
,  // measure 71
0001
0100
0010
1000
0001
0010
0100
1000
,  // measure 72
0001
0010
0100
1000
0001
1000
0010
0100
,  // measure 73
1000
0100
0010
1000
0000
0001
0201
0000
,  // measure 74
0301
0010
0001
1000
0000
0001
1002
0000
,  // measure 75
0103
0000
0010
1000
0001
0000
0100
0000
0000
0000
0010
0000
0210
0000
0000
0000
,  // measure 76
0301
0000
0010
0000
0001
0000
0100
0000
0000
0000
0100
0001
1000
0000
0001
0000
,  // measure 77
0010
0000
0010
0100
1000
0000
0001
0000
0000
0000
1000
0000
1020
0000
0000
0000
,  // measure 78
1030
0100
0010
0001
0000
1000
2001
0000
,  // measure 79
3001
0000
0010
0100
1000
0000
0001
0000
0000
0000
0100
0010
0100
0000
0001
0000
,  // measure 80
1000
0000
0100
0000
0010
0000
0001
0000
0000
0000
1000
0000
0010
1000
0001
0000
,  // measure 81
0100
0001
1000
0100
0000
0001
0102
0000
,  // measure 82
1003
0100
0001
0100
0000
1000
0100
0010
,  // measure 83
0001
1000
0001
0000
1000
0000
0100
0000
0000
0000
1000
0000
1020
0000
0000
0000
,  // measure 84
0130
0000
0001
0000
0010
0000
0001
0000
0000
0000
0010
0001
0010
0000
0100
0000
,  // measure 85
1000
0001
1000
0011
0000
0100
0100
0000
,  // measure 86
0001
1000
0001
1100
0000
0010
0010
0000
,  // measure 87
1000
0000
0100
0000
1000
0000
0001
0000
0010
0000
0100
1000
0001
0000
0010
0000
,  // measure 88
0001
1000
0001
0000
0100
0000
0010
0100
0001
0000
1000
0000
0010
0100
0010
0000
,  // measure 89
1000
1000
0001
0002
0000
0000
0000
0000
,  // measure 90
0000
0000
0000
0203
0000
0000
0000
0000
,  // measure 91
0301
0000
1000
0000
0001
0000
0100
0000
0010
1000
0010
0000
1000
0000
0100
0000
,  // measure 92
0010
0001
1000
1001
0000
0010
1000
0001
,  // measure 93
0100
0001
0100
0000
0010
0000
1010
0000
0000
0000
1000
0000
0001
0000
0100
0000
,  // measure 94
0010
0100
0001
0000
1000
0000
1001
0000
0000
0000
0100
0000
0010
0000
1000
0000
,  // measure 95
0010
1000
0001
0000
0100
0000
0001
0000
0010
0000
0100
1000
0001
0000
0010
0000
,  // measure 96
0001
1000
0001
0000
0100
0000
0010
1000
0010
0000
1000
0000
0001
0100
0001
0000
,  // measure 97
1000
0000
1000
0000
0010
0000
0010
0000
1000
0000
0001
0000
0100
0001
0100
0000
,  // measure 98
0001
1000
0100
1100
0000
1000
0001
1000
,  // measure 99
0010
0100
0010
0000
1000
0000
0001
0000
1000
0000
0010
0000
1000
0001
1000
0000
,  // measure 100
0010
0100
0010
0000
1000
0001
1000
0000
0100
0000
0010
0000
0001
1000
0001
0000
,  // measure 101
0100
0100
0001
1000
2001
0000
0000
0000
,  // measure 102
0000
0000
3200
0000
,  // measure 103
0000
0000
0320
0000
,  // measure 104
0000
0000
0032
0000
,  // measure 105
0000
0000
0000
0000
1003
0010
1000
0001
,  // measure 106
0000
0000
0110
0000
0001
1000
0010
0000
,  // measure 107
0101
0000
0001
0000
0010
1000
0010
1000
,  // measure 108
0000
0000
0101
0000
1000
0001
1000
0000
,  // measure 109
0011
0000
1000
0000
0001
0100
1000
0100
,  // measure 110
0001
0000
1000
0001
0010
0100
1000
0000
,  // measure 111
0001
0010
1000
0010
0001
0000
1000
0001
,  // measure 112
0010
0100
1000
0000
0001
1000
0100
0010
,  // measure 113
0001
0100
0010
1000
2200
0000
0000
0000
,  // measure 114
0000
0000
0000
0000
,  // measure 115
0000
0000
0000
0000
,  // measure 116
0000
0000
0000
0000
,  // measure 117
0000
0300
0000
0000
,  // measure 118
0000
0000
0000
0000
0000
3000
0000
0000
;

//---------------dance-single - ----------------
#NOTES:
     dance-single:
     :
     Medium:
     11:
     0.427371,0.536444,0.153058,0.222630,0.000000,430.000000,408.000000,22.000000,32.000000,0.000000,0.000000,0.427371,0.536444,0.153058,0.222630,0.000000,430.000000,408.000000,22.000000,32.000000,0.000000,0.000000:
// measure 0
0000
0000
0000
0000
,  // measure 1
0000
0000
0000
0000
,  // measure 2
0000
0000
0000
0000
,  // measure 3
0000
0000
0000
0000
,  // measure 4
0000
0000
0000
0000
,  // measure 5
1000
0000
0000
0010
0000
0000
0100
0000
,  // measure 6
0100
0000
0000
0001
0000
0000
1000
0000
,  // measure 7
0010
0000
0000
0001
0000
0000
1000
0000
,  // measure 8
0100
0000
0000
0001
0000
0000
0100
0000
,  // measure 9
1000
0000
0000
0010
0000
0000
1000
0000
,  // measure 10
0001
0000
0000
0100
0000
0000
1000
0000
,  // measure 11
0010
0000
0000
0100
0000
0000
0100
0000
,  // measure 12
0010
0000
0000
1000
0000
0000
0001
0000
,  // measure 13
0010
0000
0100
0000
1000
0001
0100
0001
,  // measure 14
0000
0010
1000
0000
,  // measure 15
0110
0000
0100
0000
0001
1000
0001
1000
,  // measure 16
0000
0010
0100
0100
,  // measure 17
0001
0000
0001
0000
1000
0010
1000
0010
,  // measure 18
0000
0100
0001
0000
,  // measure 19
1001
0000
1000
0000
0010
0100
0010
0100
,  // measure 20
0000
0001
1000
0100
,  // measure 21
0010
0001
1000
1000
,  // measure 22
0010
0010
0100
0100
,  // measure 23
0001
0001
0010
0010
,  // measure 24
0100
0100
1100
0000
,  // measure 25
0000
0000
1010
0010
,  // measure 26
1000
0001
0000
0001
0000
0001
0100
0000
,  // measure 27
0010
1000
0002
1003
,  // measure 28
0100
0000
0010
1000
0000
1000
0001
0000
,  // measure 29
0100
0000
0100
0001
0100
0000
0020
0000
,  // measure 30
1030
0001
0000
0001
0000
0001
0100
0000
,  // measure 31
0010
0000
1000
0010
0100
0000
0100
0000
,  // measure 32
0001
0001
1000
1000
,  // measure 33
0010
0100
0010
0000
1000
0002
0003
1000
,  // measure 34
0002
0003
1000
0002
0003
1000
0002
0003
,  // measure 35
0000
0000
0000
0000
0100
0020
0030
0100
,  // measure 36
0020
0030
0100
0020
0030
0100
0020
0030
,  // measure 37
1000
0000
0100
0000
0011
0000
0000
1001
,  // measure 38
0000
0000
0110
0000
0000
1010
0000
0000
,  // measure 39
0201
0000
0000
0000
,  // measure 40
0000
0000
0000
0000
0301
0000
1000
0001
,  // measure 41
1000
0010
0100
0001
,  // measure 42
1001
0000
0001
0100
,  // measure 43
0010
1000
0001
0000
1000
0000
0100
0000
,  // measure 44
1010
0000
0001
0100
,  // measure 45
0010
1000
0001
0000
0100
0000
0010
0000
,  // measure 46
1000
0001
1000
0000
0010
0000
0100
0000
,  // measure 47
0001
1000
0001
0000
0010
0000
0100
0000
,  // measure 48
1000
0100
1000
0000
0010
0000
1000
0000
,  // measure 49
0001
1000
0100
0000
0100
0000
1000
0000
,  // measure 50
1001
0000
0100
0010
0000
0000
0010
0100
,  // measure 51
0000
0000
0001
1000
0010
0000
0100
0000
,  // measure 52
0101
0000
0001
1000
0000
0000
0100
0001
,  // measure 53
0000
0000
1000
0100
0010
0000
0001
0000
,  // measure 54
0001
0000
0001
0010
0100
0000
1000
0000
,  // measure 55
1000
0000
1000
0010
0100
0000
0010
0000
,  // measure 56
0010
0000
0010
1000
0100
0000
0010
0000
,  // measure 57
0010
0000
0010
0001
2000
0000
0000
0000
,  // measure 58
0000
0000
3200
0000
,  // measure 59
0000
0000
0320
0000
,  // measure 60
0000
0000
0032
0000
,  // measure 61
0000
0000
0023
0000
,  // measure 62
0000
0000
0230
0000
,  // measure 63
0000
0000
2300
0000
,  // measure 64
0000
0000
3020
0000
,  // measure 65
0000
0000
0230
0000
,  // measure 66
0000
0000
0302
0000
,  // measure 67
0000
0000
2003
0000
,  // measure 68
0000
0000
0000
0000
3010
0000
0000
0010
,  // measure 69
0000
0010
0110
0000
,  // measure 70
0110
0000
1001
0000
,  // measure 71
1001
0000
0101
0000
,  // measure 72
0101
0000
0001
1000
,  // measure 73
0010
0000
1000
0001
0000
0001
1000
0000
,  // measure 74
0010
0000
0100
0010
0000
0010
1000
0000
,  // measure 75
0001
0000
0010
0100
0000
0100
1000
0000
,  // measure 76
0001
0000
0010
0100
0000
0100
0010
0000
,  // measure 77
0001
0000
0001
1000
0000
1000
0010
0000
,  // measure 78
0100
0000
0001
0010
0000
0010
0001
0000
,  // measure 79
1000
0000
0010
0100
0000
0100
0001
0000
,  // measure 80
1000
0000
0010
1000
0000
1000
0001
0000
,  // measure 81
0100
0000
0010
0100
0000
0100
0001
0000
,  // measure 82
1000
0000
0010
0100
0000
0100
0001
0000
,  // measure 83
0001
0000
1000
0010
0000
0010
1000
0000
,  // measure 84
0001
0000
1000
0001
0000
0001
0100
0000
,  // measure 85
0001
0100
0001
1000
0000
1000
0001
0000
,  // measure 86
0100
0010
0100
0001
0000
0001
1000
0000
,  // measure 87
0001
0100
0010
0100
0000
0100
0001
0000
,  // measure 88
1000
0000
0001
0100
0000
0100
0001
0000
,  // measure 89
1000
0010
1000
0020
0000
0000
0000
0000
,  // measure 90
0000
0000
0000
2030
0000
0000
0000
0000
,  // measure 91
3001
0100
0001
0100
0000
0100
0010
0000
,  // measure 92
1000
0001
0000
1001
0000
0000
0100
0000
,  // measure 93
0010
0100
0010
0100
0000
0100
0001
0000
,  // measure 94
1000
0010
0000
1001
0000
0000
0100
0000
,  // measure 95
0001
0010
0100
1000
0000
1000
0001
0000
,  // measure 96
2000
0000
3001
0200
0000
0301
0020
0000
,  // measure 97
0031
1000
0001
1000
0000
1000
0010
0000
,  // measure 98
0100
0010
0000
1001
0000
0000
1000
0000
,  // measure 99
0001
0100
0001
1000
0000
1000
0010
0000
,  // measure 100
1000
0001
1000
0010
0000
0010
0100
0000
,  // measure 101
0001
0000
1000
0001
2000
0000
0000
0000
,  // measure 102
0000
0000
3200
0000
,  // measure 103
0000
0000
0320
0000
,  // measure 104
0000
0000
0032
0000
,  // measure 105
0000
0000
0000
0000
1003
0000
0000
0010
,  // measure 106
0000
0000
0010
0000
0100
0000
0000
0001
,  // measure 107
0000
0000
0010
0000
1000
0000
0000
0001
,  // measure 108
0000
0000
0001
0000
0100
0000
0000
0010
,  // measure 109
0000
0000
1000
0000
0001
0000
0000
0100
,  // measure 110
0000
0000
0001
0000
1000
0000
0000
0010
,  // measure 111
0000
0000
0100
0000
0001
0000
0000
0100
,  // measure 112
0000
0000
0010
0000
1000
0000
0000
0001
,  // measure 113
0000
0100
0020
0000
,  // measure 114
0000
0000
0000
0000
,  // measure 115
0000
0000
0000
0000
,  // measure 116
0000
0000
0000
0000
,  // measure 117
0000
0000
0000
0000
,  // measure 118
0000
0000
0000
0000
0000
0030
0000
0000
;

//---------------dance-single - ----------------
#NOTES:
     dance-single:
     :
     Easy:
     7:
     0.317050,0.412649,0.215673,0.173930,0.000000,319.000000,288.000000,31.000000,25.000000,0.000000,0.000000,0.317050,0.412649,0.215673,0.173930,0.000000,319.000000,288.000000,31.000000,25.000000,0.000000,0.000000:
// measure 0
0000
0000
0000
0000
,  // measure 1
0000
0000
0000
0000
,  // measure 2
0000
0000
0000
0000
,  // measure 3
0000
0000
0000
0000
,  // measure 4
0000
0000
0000
0000
,  // measure 5
1000
0000
0100
0001
,  // measure 6
0100
0000
0010
1000
,  // measure 7
0001
0000
0100
1000
,  // measure 8
0001
0000
0100
0010
,  // measure 9
1000
0000
0001
0100
,  // measure 10
0010
0000
1000
0001
,  // measure 11
0100
0000
0001
1000
,  // measure 12
0001
0000
1000
0010
,  // measure 13
1000
0001
0010
0000
,  // measure 14
1000
0001
0100
0000
,  // measure 15
1001
0000
0010
1000
,  // measure 16
0100
0000
0001
0000
,  // measure 17
1001
0000
0010
0100
,  // measure 18
1000
0000
0100
0000
,  // measure 19
1001
0000
0010
1000
,  // measure 20
0100
0000
0001
0000
,  // measure 21
1010
0000
0200
0000
,  // measure 22
0320
0000
0032
0000
,  // measure 23
2003
0000
3200
0000
,  // measure 24
0320
0000
0031
0000
,  // measure 25
0000
0000
1000
0001
,  // measure 26
0100
0010
0001
1000
,  // measure 27
1000
0100
0010
0000
,  // measure 28
0001
1000
0100
0010
,  // measure 29
0001
1000
0010
0000
,  // measure 30
0100
0001
1000
0100
,  // measure 31
0010
0001
1000
1000
,  // measure 32
0100
0100
0010
0010
,  // measure 33
0001
0000
0001
0000
1000
0000
0000
1000
,  // measure 34
0000
0000
1000
0000
0000
0010
0000
0000
,  // measure 35
2000
0000
0000
0000
3001
0000
0000
0001
,  // measure 36
0000
0000
0001
0000
0000
0001
0000
0000
,  // measure 37
1000
0000
0001
0000
1000
0000
0000
1000
,  // measure 38
0000
0000
0001
0000
0000
0001
0000
0000
,  // measure 39
0120
0000
0000
0000
,  // measure 40
0000
0000
0000
0000
,  // measure 41
0000
0000
1030
0001
,  // measure 42
1001
0000
0010
0100
,  // measure 43
1010
0000
0001
0100
,  // measure 44
1010
0000
0001
0010
,  // measure 45
0100
1000
0001
0010
,  // measure 46
1001
0000
0100
0010
,  // measure 47
1001
0000
0100
0010
,  // measure 48
1001
0000
0100
0001
,  // measure 49
0010
0100
1000
0001
,  // measure 50
0100
0010
1000
0001
,  // measure 51
0010
0100
1000
0001
,  // measure 52
0010
0001
0100
0001
,  // measure 53
1000
0010
0100
0010
,  // measure 54
1000
0010
0100
0001
,  // measure 55
0010
0100
1000
0001
,  // measure 56
0010
0100
0001
1000
,  // measure 57
0010
0100
0002
0000
,  // measure 58
0000
0000
2003
0000
,  // measure 59
0000
0000
3020
0000
,  // measure 60
0000
0000
0230
0000
,  // measure 61
0000
0000
0302
0000
,  // measure 62
0000
0000
2003
0000
,  // measure 63
0000
0000
3002
0000
,  // measure 64
0000
0000
0023
0000
,  // measure 65
0000
0000
0230
0000
,  // measure 66
0000
0000
2300
0000
,  // measure 67
0000
0000
3002
0000
,  // measure 68
0000
0000
0203
0000
,  // measure 69
0000
0000
1300
0000
,  // measure 70
1001
0000
0001
0000
,  // measure 71
0110
0000
1000
0000
,  // measure 72
0110
0000
0002
0000
,  // measure 73
0000
0000
1003
0001
,  // measure 74
0101
0000
0010
1000
,  // measure 75
1001
0000
0100
0001
,  // measure 76
1001
0000
0100
0010
,  // measure 77
0101
0000
1000
0001
,  // measure 78
0101
0000
0001
1000
,  // measure 79
1001
0000
0100
0001
,  // measure 80
1000
0001
0010
0100
,  // measure 81
0001
1000
1001
0000
,  // measure 82
0010
0100
0101
0000
,  // measure 83
1000
0010
1001
0000
,  // measure 84
0100
0010
1001
0000
,  // measure 85
0001
0000
0000
0110
0000
0000
0000
0000
,  // measure 86
1000
0000
0000
0011
0000
0000
0000
0000
,  // measure 87
0100
0001
1001
0000
,  // measure 88
0001
0100
0001
0010
,  // measure 89
0100
0000
0000
1002
0000
0000
0000
0000
,  // measure 90
0000
0000
0000
2003
0000
0000
0000
0000
,  // measure 91
3001
0100
0010
0010
,  // measure 92
1000
0000
0000
0001
0000
0000
0010
0000
,  // measure 93
0100
0000
0000
0001
0000
0000
1000
0000
,  // measure 94
0010
0000
0000
0100
0000
0000
0010
0000
,  // measure 95
1000
0000
0000
0001
0000
0000
1000
0000
,  // measure 96
0001
0010
0100
1000
,  // measure 97
0001
0000
0000
1001
0000
0000
0010
0000
,  // measure 98
0100
0000
0000
0001
0000
0000
1000
0000
,  // measure 99
0010
0000
0000
0001
0000
0000
1000
0000
,  // measure 100
0010
1000
0001
0100
,  // measure 101
0001
1000
1020
0000
,  // measure 102
0000
0000
0000
0000
,  // measure 103
0000
0000
0000
0000
,  // measure 104
0000
0000
0000
0000
,  // measure 105
0000
0000
1030
0001
,  // measure 106
0000
1000
0001
0100
,  // measure 107
0000
0001
1000
0010
,  // measure 108
0000
1000
0001
0100
,  // measure 109
0000
1000
0001
0100
,  // measure 110
0000
0001
1000
0001
,  // measure 111
0000
0100
0001
1000
,  // measure 112
0000
0010
0100
0001
,  // measure 113
1000
0010
0120
0000
,  // measure 114
0000
0000
0000
0000
,  // measure 115
0000
0000
0000
0000
,  // measure 116
0000
0000
0000
0000
,  // measure 117
0000
0000
0000
0000
,  // measure 118
0000
0000
0000
0000
0000
0030
0000
0000
;
