#TITLE:-Can U Feel It;
#SUBTITLE:;
#ARTIST:siqlo;
#TITLETRANSLIT:;
#SUBTITLETRANSLIT:;
#ARTISTTRANSLIT:;
#GENRE:;
#CREDIT:;
#BANNER:AV.avi;
#BACKGROUND:bg.jpg;
#LYRICSPATH:;
#CDTITLE:;
#MUSIC:siqlo - Can U Feel It.mp3;
#OFFSET:-0.217000;
#SAMPLESTART:94.000000;
#SAMPLELENGTH:15.000000;
#SELECTABLE:YES;
#DISPLAYBPM:*;
#BPMS:0.000000=156.000000
;
#STOPS:
;
#BGCHANGES:;
#KEYSOUNDS:;
#ATTACKS:;

//---------------dance-single - ----------------
#NOTES:
     dance-single:
     :
     Hard:
     15:
     0.731012,0.992166,0.277388,0.708071,0.638723,701.000000,663.000000,38.000000,97.000000,0.000000,0.000000,0.731012,0.992166,0.277388,0.708071,0.638723,701.000000,663.000000,38.000000,97.000000,0.000000,0.000000:
// measure 0
0000
0000
0000
0000
,  // measure 1
0000
0000
0000
0000
,  // measure 2
0000
0000
0000
0000
,  // measure 3
0000
0000
0000
0000
,  // measure 4
0000
0000
0000
0000
,  // measure 5
1000
0000
1000
0000
1000
0000
0100
0010
,  // measure 6
0001
0000
0000
0000
0001
0000
0000
0000
0001
0000
0000
0010
1000
0010
1000
0001
,  // measure 7
0100
0000
0100
0000
0100
0000
0100
0010
,  // measure 8
1000
1000
1000
0000
,  // measure 9
0010
0000
0100
0000
0010
0000
0100
0000
0010
0000
0100
0000
0010
1000
0001
1000
,  // measure 10
0001
0100
0001
0100
0001
0100
0001
0000
,  // measure 11
1000
0100
1000
0100
0010
0001
0010
0001
1000
0010
1000
0010
0100
0001
1000
0100
,  // measure 12
0010
0000
0000
0000
,  // measure 13
1001
0000
0000
0000
,  // measure 14
0010
0000
0010
0000
0200
0300
0010
1000
0001
0100
0001
0000
1000
0010
1000
0010
,  // measure 15
0200
0000
0310
0000
0020
0000
1030
0001
1000
0000
0002
0003
0002
0000
0003
0000
,  // measure 16
0020
0000
1030
0001
1000
0000
0002
0000
0103
0010
0100
0010
2000
0000
3000
0000
,  // measure 17
1001
0000
0000
0000
0100
0000
0002
0000
1003
0010
1000
0010
1000
0010
1000
0010
,  // measure 18
1000
0000
0001
0000
0001
0010
0001
0010
0100
0010
0100
1000
0001
0000
0000
0000
,  // measure 19
0200
0000
0300
0000
0001
1000
0001
1000
0010
0000
0200
0000
0310
1000
0010
1000
,  // measure 20
0002
0003
0100
0002
1003
0100
0020
0030
0001
0000
1000
0010
0200
0000
0300
0000
,  // measure 21
0001
1000
0001
1000
0100
1000
0100
0010
0002
0000
0000
0000
1003
0100
1000
0100
,  // measure 22
0010
0001
0010
0100
1000
0001
1000
0001
0020
0000
0030
0000
0010
0001
0010
0001
,  // measure 23
1000
0100
1000
0100
0010
0001
0010
0100
2000
0000
3000
0000
0102
0000
0003
0000
,  // measure 24
1000
0000
0001
0000
1000
0000
0001
0000
0100
0010
0100
0000
0010
0000
1000
0000
0001
0000
0000
0000
0010
0000
0000
0000
0002
0000
0000
0000
0003
0000
0000
0000
,  // measure 25
0002
0003
1000
0100
2000
3000
0001
0000
1000
0100
0010
0100
2000
3000
0000
0000
,  // measure 26
2000
0000
3020
0000
0130
0000
0010
0000
1000
0001
1000
0001
0200
0000
0010
0000
,  // measure 27
0010
0000
0010
0000
0010
0000
0010
0000
0310
1000
0001
1000
0020
0030
0020
0030
,  // measure 28
0200
0301
0100
0010
1000
0001
1002
1000
,  // measure 29
1000
1000
1000
1000
1000
1000
1000
1000
,  // measure 30
1003
0100
0010
0001
1000
0001
1000
0010
0100
0001
0100
0010
0200
0000
0300
0000
,  // measure 31
1002
0003
0000
2010
3000
0000
0102
0000
,  // measure 32
1000
0000
0100
0100
2003
0000
0000
3000
,  // measure 33
0102
0100
0100
0100
0100
0100
0100
0100
,  // measure 34
0100
0000
0103
0001
1000
0000
0100
0000
1000
0001
0010
0001
0010
0100
1000
0000
,  // measure 35
2100
3000
0000
0201
0300
0000
1002
0003
,  // measure 36
1010
0000
1000
0000
1001
0000
0001
0100
0020
0000
0000
0000
0000
0000
0000
0000
,  // measure 37
0230
0000
0000
0000
,  // measure 38
0000
0000
0000
0000
0000
0000
0001
0010
,  // measure 39
0302
0000
0000
0000
,  // measure 40
0000
0000
0000
0000
0000
0000
1000
0010
,  // measure 41
2003
0000
0000
0000
,  // measure 42
0000
0000
0000
0000
0000
0010
0001
0010
,  // measure 43
3002
0000
0000
0000
0000
1000
0010
1000
,  // measure 44
0203
0000
0000
0000
0000
0000
0001
0010
,  // measure 45
0301
1000
0001
0010
0001
1000
0100
1000
,  // measure 46
0001
0010
0100
1000
0001
0100
0001
0100
,  // measure 47
0010
0100
0001
1000
0100
0010
0001
1000
,  // measure 48
0010
0100
0001
1000
0100
1000
0001
0100
,  // measure 49
0001
1000
0001
1000
0010
0100
0010
0100
0001
1000
0001
1000
0100
0010
0001
0010
,  // measure 50
0100
1000
0001
0100
0001
0100
0010
1000
0010
1000
0001
0010
0001
0010
0100
1000
,  // measure 51
0002
0000
0000
0000
,  // measure 52
1003
0000
1000
0000
0010
0000
0100
0001
0000
0001
0100
0000
0010
0000
0000
0000
,  // measure 53
1020
0030
1000
0001
1000
0001
0010
0100
1000
0000
0001
1000
0010
0000
0100
0000
,  // measure 54
0001
1000
0002
0003
0100
0001
2000
3000
0100
1000
0200
0310
0002
0003
0001
1000
,  // measure 55
0002
0003
0100
0000
0010
0000
1000
0010
2000
3000
0001
2000
3001
0100
0010
1000
,  // measure 56
0020
0030
0100
0001
0100
0000
0200
0300
0010
1000
0001
0010
0002
0000
1003
0000
,  // measure 57
1001
0000
0000
0000
0020
0000
0030
0000
1000
0010
1000
0001
1000
0010
1000
0001
,  // measure 58
1000
0100
1000
0100
0010
0001
0010
0001
1000
0100
0010
0001
2000
0000
3000
0000
,  // measure 59
0012
0000
0003
0000
0010
1000
0001
0010
0001
1000
0100
1000
0010
0100
0001
1000
,  // measure 60
0002
0023
0230
2300
,  // measure 61
3002
0000
0013
0100
1000
0001
0100
0010
1000
0000
2000
3000
0001
0000
0100
0000
,  // measure 62
0010
0000
2000
0000
3001
0010
0001
0010
0100
1000
0001
1000
0200
0000
1300
0000
,  // measure 63
0002
0000
0103
0000
0100
0010
2000
3000
0001
0000
0010
0000
0001
0010
0200
0300
,  // measure 64
1000
0000
0001
0100
0020
0030
2000
3001
2000
3000
0020
0030
0200
0000
0301
0000
,  // measure 65
1001
0000
0000
0000
0001
0100
0001
1000
0010
0000
0200
0300
0001
0000
0010
0000
,  // measure 66
0100
0000
2000
0000
3001
0100
0001
1000
0100
0010
0001
0100
0010
0000
1000
0001
,  // measure 67
2000
3000
0010
0000
0100
0001
0200
0000
0310
0000
1000
0100
0010
0100
2000
0000
,  // measure 68
3001
0010
0200
0310
0200
1300
0200
0310
,  // measure 69
0011
0001
1001
0000
0110
0000
1001
0001
,  // measure 70
0101
0000
1010
0000
0101
0000
1001
1000
,  // measure 71
1010
0000
0000
0000
0001
1000
0001
1000
0010
0100
0002
0003
1001
0000
1000
0000
,  // measure 72
2010
0000
3010
0000
0100
0000
0001
1000
0010
0000
0200
0300
0110
0000
0010
1000
,  // measure 73
0001
1000
1001
0001
0100
0010
1010
1000
,  // measure 74
0010
1000
1001
0001
0100
0010
1010
1000
,  // measure 75
1001
0000
0010
0000
0010
1000
0001
0100
0010
1000
0002
0003
0101
0000
0100
0000
,  // measure 76
0020
0000
1030
0000
1001
0000
0010
0100
0010
0000
1000
0000
1001
0000
0001
0100
,  // measure 77
0020
0000
0000
0000
2030
3000
1000
0100
0010
0000
0002
0003
0010
0100
1000
0001
,  // measure 78
1000
0010
0100
0001
0100
0000
0001
1000
0001
0000
0100
0000
0010
1000
0001
0000
,  // measure 79
2001
0000
0000
0000
3000
0000
0000
0000
0001
0000
0100
0010
0100
0000
0010
0000
1000
0000
0001
0000
0100
0000
0010
0000
1000
0000
0000
0000
0002
0000
0003
0000
,  // measure 80
1000
0100
0010
0001
0010
0100
1000
0001
2000
3000
0010
0100
0002
1003
0001
1000
,  // measure 81
0020
0100
0100
0100
1000
1000
0100
0100
,  // measure 82
0130
0001
1000
0010
0000
0000
0000
0000
;
