#TITLE:Boss B*tch;
#SUBTITLE:;
#ARTIST:Doja Cat;
#TITLETRANSLIT:;
#SUBTITLETRANSLIT:;
#ARTISTTRANSLIT:;
#GENRE:;
#CREDIT:;
#BANNER:AV.avi;
#BACKGROUND:BG.png;
#LYRICSPATH:;
#CDTITLE:cdtitle.png;
#MUSIC:audio.ogg;
#OFFSET:-0.100000;
#SAMPLESTART:37.889008;
#SAMPLELENGTH:15.000007;
#SELECTABLE:YES;
#BPMS:0.000000=125.999992
;
#STOPS:
;
#BGCHANGES:0.000=MV.avi=1.000=1=0=1===CrossFade==,
99999=-nosongbg-=1.000=0=0=0 // don't automatically add -songbackground-
;
#KEYSOUNDS:;
#ATTACKS:;

//---------------dance-single - ----------------
#NOTES:
     dance-single:
     :
     Hard:
     15:
     0.696216,0.675874,0.193452,0.096726,0.732887,655.000000,629.000000,26.000000,13.000000,0.000000,0.000000,0.696216,0.675874,0.193452,0.096726,0.732887,655.000000,629.000000,26.000000,13.000000,0.000000,0.000000:
// measure 0
0000
0000
0000
0000
,  // measure 1
0000
0000
0000
0000
,  // measure 2
0000
0000
0000
0000
,  // measure 3
0000
0000
0000
0000
,  // measure 4
0000
0000
0010
0000
1000
0001
0100
0000
0010
0000
1000
0000
0010
0000
0000
0000
,  // measure 5
1000
0001
0100
0001
1000
0000
0010
1000
0010
0000
1000
0000
0100
0000
0010
0000
,  // measure 6
0001
0000
0000
0100
0000
0000
0010
0000
0100
0000
0010
1000
0001
0000
0000
0000
,  // measure 7
1000
0000
0001
0100
0000
0100
0010
1000
0010
1000
0001
0000
0010
0000
0001
0000
,  // measure 8
1000
0010
0000
0100
0000
0001
0010
0100
1000
0000
1000
0000
0001
0100
0001
0100
,  // measure 9
0010
0000
0000
1000
0000
1000
0010
0000
0100
0000
0010
0000
1000
0001
1000
0001
,  // measure 10
0100
0000
0010
0000
1000
0000
0001
0010
0100
0010
0001
0000
0001
0000
1000
0000
,  // measure 11
0010
0100
0000
0100
0010
1000
0100
0010
0001
0000
0200
0000
0300
0000
0001
0000
,  // measure 12
1001
0000
0000
0000
0001
1000
0001
0010
0100
0000
0100
1000
0001
0000
1000
0000
,  // measure 13
0010
0100
0010
0100
0001
0000
1000
0100
0010
0000
0010
0001
1000
0000
0010
0000
,  // measure 14
0100
0010
1000
0010
0100
0000
0100
0000
0100
0000
0001
1000
0001
0000
0100
0000
,  // measure 15
0010
0000
1000
0100
0010
0000
0001
0000
0100
0000
0001
0000
0001
0010
0100
1000
,  // measure 16
0001
0000
0100
0000
0010
0000
0010
0000
0010
0000
1000
0001
0100
0000
0001
0000
,  // measure 17
0010
0000
0001
0010
0100
0000
0010
0100
1000
0000
0001
0000
1000
0000
0010
0000
,  // measure 18
0100
0001
0000
0001
0100
0000
0010
0100
0010
0000
1000
0000
0001
0000
1000
0000
,  // measure 19
0010
0000
0010
0000
0010
0000
0100
0010
1000
0000
0001
0000
1000
0000
0010
0100
,  // measure 20
0010
0000
0000
0000
1001
0000
1000
0010
0100
0000
0000
0000
1001
0000
0001
0100
,  // measure 21
0010
0000
1000
0010
0100
0000
0001
0100
0001
0000
0010
0000
0100
0000
1000
0001
,  // measure 22
1000
0000
0000
0000
0110
0000
0010
1000
0001
0000
0000
0000
0110
0000
0100
0001
,  // measure 23
1000
0000
0010
1000
0001
0000
0001
0010
0100
0000
1000
0000
0010
0000
0100
0001
,  // measure 24
0100
0000
0000
0000
1010
0000
0010
0100
0001
0000
0000
0000
0101
0000
0100
0010
,  // measure 25
1000
0000
0010
0100
0001
0000
1000
0001
1000
0000
0100
0000
0010
0000
0010
0001
,  // measure 26
0010
0000
0000
0000
1001
0000
1000
0010
0100
0000
0000
0000
1001
0000
0001
0010
,  // measure 27
0001
0000
1000
0100
1000
0000
0010
0100
0001
0000
1000
0000
0010
0000
0100
0000
,  // measure 28
0001
0000
0010
0000
0100
0000
1000
0010
0000
0010
0000
0010
0100
0000
0001
0000
,  // measure 29
0000
0000
1000
0000
0010
0000
1000
0001
0000
0001
0000
0001
0100
0000
0010
0000
,  // measure 30
0000
0000
0001
0000
1000
0000
0010
0100
0000
0100
0000
0100
0010
0000
1000
0000
,  // measure 31
0000
0000
0001
0000
1000
0001
0000
0001
0000
0001
0000
0001
0010
0100
1000
0000
,  // measure 32
0010
0000
0100
0010
0100
0000
0010
0000
1000
0000
0001
1000
0001
0000
1000
0000
,  // measure 33
0010
0000
1000
0010
1000
0000
0010
0100
0010
0100
0000
0100
0010
1000
0001
0000
,  // measure 34
0010
0000
0001
0010
0001
0000
0010
0000
0001
0000
0100
0001
0100
0000
0001
0000
,  // measure 35
1000
0000
0010
1000
0010
0000
1000
0000
0000
0000
0010
0000
0000
0000
0001
0000
,  // measure 36
2001
0000
0000
3100
0000
0100
0010
0001
0020
0000
0000
0031
0000
0000
1000
0000
,  // measure 37
0002
0000
0000
0103
0000
0100
0010
1000
0020
0000
0000
0130
0000
0000
0001
0000
,  // measure 38
0100
0010
1000
0010
0100
0000
0010
0100
0002
0000
0000
1003
0000
0000
1000
0000
,  // measure 39
0001
0000
0010
0100
1000
0001
1000
0100
0020
0000
0000
0031
0000
0000
0001
0000
,  // measure 40
0200
0000
0000
0310
0000
1000
0001
1000
0020
0000
0000
0130
0000
0000
1000
0000
,  // measure 41
0002
0000
0000
1003
0000
0001
0100
0010
0200
0000
0000
0301
0000
0000
1000
0000
,  // measure 42
0010
1000
0010
1000
0001
0000
0100
0010
2000
0000
0000
3001
0000
0000
0001
0000
,  // measure 43
0100
0000
0001
0010
0100
1000
0001
1000
0020
0000
0000
0130
0000
0000
0100
0010
,  // measure 44
0100
0000
0000
0000
1001
0000
0001
0100
0010
0000
0000
0000
1001
0000
1000
0010
,  // measure 45
0100
0000
0001
0100
0010
0000
1000
0010
1000
0000
0100
0000
0010
0000
0001
1000
,  // measure 46
0001
0000
0000
0000
0110
0000
0100
0001
1000
0000
0000
0000
0110
0000
0010
1000
,  // measure 47
0001
0000
0100
0001
1000
0000
1000
0100
0010
0000
0001
0000
0100
0000
0010
1000
,  // measure 48
0010
0000
0000
0000
0101
0000
0100
0010
1000
0000
0000
0000
1010
0000
0010
0100
,  // measure 49
0001
0000
0100
0010
1000
0000
0001
1000
0001
0000
0010
0000
0100
0000
0100
1000
,  // measure 50
0100
0000
0000
0000
1001
0000
0001
0100
0010
0000
0000
0000
1001
0000
1000
0100
,  // measure 51
1000
0000
0001
0010
0001
0000
0100
0010
1000
0000
0000
0001
0000
0000
0100
0000
,  // measure 52
0000
0000
0010
0000
0100
0000
0001
1000
0000
1000
0000
1000
0001
0000
0001
0000
,  // measure 53
0100
0000
0010
0000
1000
0000
0001
0100
0000
0100
0000
0100
0010
0000
0010
0000
,  // measure 54
0000
0000
1000
0000
0001
0000
0100
0001
0000
0001
0000
0001
0100
0000
0100
0000
,  // measure 55
0000
0000
0010
0000
0100
0010
0000
1000
0000
1000
0000
1000
0001
1000
0001
0000
,  // measure 56
0100
0000
0100
0010
1000
0000
0001
0000
0001
0000
0100
0010
0100
0000
0010
0000
,  // measure 57
1000
0000
0100
1000
0100
0000
1000
0000
0010
0100
0000
0100
0010
0100
0010
0000
,  // measure 58
0100
0000
0001
0010
0001
0000
0100
0000
0010
0000
0100
0010
0100
0000
0001
0010
,  // measure 59
0100
0000
1000
0100
0010
0000
0001
1000
0001
0000
1000
0000
0010
0000
0010
0100
,  // measure 60
0010
0000
0000
0000
1001
0000
1000
0010
0100
0000
0000
0000
1001
0000
0001
0100
,  // measure 61
0010
0000
1000
0010
0100
0000
0001
0100
0001
0000
0010
0000
0100
0000
1000
0001
,  // measure 62
1000
0000
0000
0000
0110
0000
0010
1000
0001
0000
0000
0000
0110
0000
0100
0001
,  // measure 63
1000
0000
0010
1000
0001
0000
0001
0010
0100
0000
1000
0000
0010
0000
0100
0001
,  // measure 64
0100
0000
0000
0000
1010
0000
0010
0100
0001
0000
0000
0000
0101
0000
0100
0010
,  // measure 65
1000
0000
0010
0100
0001
0000
1000
0001
1000
0000
0100
0000
0010
0000
0010
0001
,  // measure 66
0010
0000
0000
0000
1001
0000
1000
0010
0100
0000
0000
0000
1001
0000
0001
0010
,  // measure 67
0001
0000
1000
0100
1000
0000
0010
0100
0001
0000
0000
1000
0000
0000
0010
0000
,  // measure 68
0100
0000
0001
0100
0001
0000
1000
0010
1000
0000
0010
0100
0001
0000
0100
0010
,  // measure 69
1000
0000
0001
1000
0001
0000
0100
0010
0000
0010
0000
0010
0100
0000
0100
0000
;

//---------------dance-single - ----------------
#NOTES:
     dance-single:
     :
     Medium:
     8:
     0.322066,0.337937,0.319940,0.000000,0.000000,303.000000,260.000000,43.000000,0.000000,0.000000,0.000000,0.322066,0.337937,0.319940,0.000000,0.000000,303.000000,260.000000,43.000000,0.000000,0.000000,0.000000:
// measure 0
0000
0000
0000
0000
,  // measure 1
0000
0000
0000
0000
,  // measure 2
0000
0000
0000
0000
,  // measure 3
0000
0000
0000
0000
,  // measure 4
0010
0001
0100
0010
,  // measure 5
1000
0001
0100
0010
,  // measure 6
0001
0001
0100
0010
,  // measure 7
1000
0010
0100
0001
,  // measure 8
1000
0000
1001
0000
0001
0100
0010
0000
,  // measure 9
0010
0000
1000
0000
0010
0100
0001
0000
,  // measure 10
1000
1001
0001
0001
,  // measure 11
1000
0010
0001
0000
,  // measure 12
1100
0010
1000
0001
,  // measure 13
0010
0100
0001
0010
,  // measure 14
1000
0001
0001
0100
,  // measure 15
0100
0010
1000
0001
,  // measure 16
0010
0100
0010
1000
,  // measure 17
0001
0010
0100
0001
,  // measure 18
0010
1000
0001
0100
,  // measure 19
0010
0010
0100
1000
,  // measure 20
0001
1010
0100
0101
,  // measure 21
0010
0000
1000
0000
0001
0100
0010
0000
,  // measure 22
1000
0101
1000
0110
,  // measure 23
1000
0000
0001
0000
0010
0100
0010
0000
,  // measure 24
1000
0101
0010
1010
,  // measure 25
0001
0000
0100
0000
0010
1000
0001
0000
,  // measure 26
0100
0011
1000
1010
,  // measure 27
0010
0000
0100
0000
0001
1000
0010
0000
,  // measure 28
0000
0101
0000
1010
,  // measure 29
0000
1001
0000
0110
,  // measure 30
0000
1010
0000
0101
,  // measure 31
0000
1010
0000
0101
,  // measure 32
0001
0001
1000
1000
,  // measure 33
0010
0010
0010
0010
,  // measure 34
0100
0100
0001
0001
,  // measure 35
1000
1000
0010
0000
,  // measure 36
1001
0010
0100
0010
,  // measure 37
1001
0001
0100
1000
,  // measure 38
1010
0001
0100
0001
,  // measure 39
1001
0010
0100
1000
,  // measure 40
1001
0001
0010
0100
,  // measure 41
1001
0010
1000
0010
,  // measure 42
0101
0001
1000
0001
,  // measure 43
1100
0010
1000
0001
,  // measure 44
0100
1010
0001
0011
,  // measure 45
0100
0000
0010
0000
1000
0001
1000
0000
,  // measure 46
0001
0011
1000
1001
,  // measure 47
0100
0000
0001
0000
1000
0010
0100
0000
,  // measure 48
0001
1001
0100
0110
,  // measure 49
1000
0000
0001
0000
0010
0100
0010
0000
,  // measure 50
1000
1001
0010
0011
,  // measure 51
0100
0000
0010
0000
1000
0001
0100
0000
,  // measure 52
0010
1000
0000
0001
,  // measure 53
0000
0010
0000
0001
,  // measure 54
0000
0100
0000
0001
,  // measure 55
0000
1000
0000
0001
,  // measure 56
1000
1000
0010
0010
,  // measure 57
0001
0001
0100
0100
,  // measure 58
1000
1000
0010
0010
,  // measure 59
0001
0000
1000
0000
0001
1000
0001
0000
,  // measure 60
0010
1010
0100
0101
,  // measure 61
0010
0000
1000
0000
0001
0100
0010
0000
,  // measure 62
1000
0110
0001
0101
,  // measure 63
0010
0000
1000
0000
0001
0100
0010
0000
,  // measure 64
0001
1001
0100
1010
,  // measure 65
0100
0000
0001
0000
0010
1000
0010
0000
,  // measure 66
0100
0101
0001
1001
,  // measure 67
1000
0000
0010
0000
0100
0010
1000
0000
,  // measure 68
0010
0000
0100
0000
,  // measure 69
0010
0000
0000
0000
0001
0000
1000
1000
;

//---------------dance-single - ----------------
#NOTES:
     dance-single:
     :
     Easy:
     5:
     0.237032,0.252976,0.178571,0.007440,0.000000,223.000000,199.000000,24.000000,1.000000,0.000000,0.000000,0.237032,0.252976,0.178571,0.007440,0.000000,223.000000,199.000000,24.000000,1.000000,0.000000,0.000000:
// measure 0
0000
0000
0000
0000
,  // measure 1
0000
0000
0000
0000
,  // measure 2
0000
0000
0000
0000
,  // measure 3
0000
0000
0000
0000
,  // measure 4
0100
0010
1000
0001
,  // measure 5
0100
0010
1000
0100
,  // measure 6
0010
0001
1000
0100
,  // measure 7
0010
0001
0100
1000
,  // measure 8
0001
0100
0010
0000
,  // measure 9
1000
0010
0100
0000
,  // measure 10
0001
0010
0100
0000
,  // measure 11
1000
0010
0100
0001
,  // measure 12
1000
0001
0010
1000
,  // measure 13
0100
0010
0001
0100
,  // measure 14
1000
0001
0010
1000
,  // measure 15
0100
0010
0001
0010
,  // measure 16
0100
0001
1000
0001
,  // measure 17
0010
1000
0100
0010
,  // measure 18
0001
0100
1000
0001
,  // measure 19
0020
0000
0000
0030
,  // measure 20
1001
0000
1001
0000
,  // measure 21
0010
1000
0010
0100
,  // measure 22
0101
0000
0101
0000
,  // measure 23
0010
1000
0001
0100
,  // measure 24
1001
0000
1001
0000
,  // measure 25
0010
1000
0010
0100
,  // measure 26
1001
0000
1001
0000
,  // measure 27
0010
0100
0001
1000
,  // measure 28
0000
0010
0000
1000
,  // measure 29
0000
0010
0000
0010
,  // measure 30
0000
0100
0000
0100
,  // measure 31
0000
0001
0000
1000
,  // measure 32
0010
0000
0100
0000
,  // measure 33
0001
0000
1000
0000
,  // measure 34
0010
0000
0100
0000
,  // measure 35
0001
0000
0100
0000
,  // measure 36
0010
0001
1000
0100
,  // measure 37
0001
0010
0100
1000
,  // measure 38
0010
1000
0001
1000
,  // measure 39
0100
0010
1000
0001
,  // measure 40
0100
1000
0001
0010
,  // measure 41
1000
0010
0100
1000
,  // measure 42
0001
0010
0100
0001
,  // measure 43
1000
0010
0100
0001
,  // measure 44
1001
0000
1001
0000
,  // measure 45
0100
0001
1000
0010
,  // measure 46
0101
0000
0101
0000
,  // measure 47
0010
0100
0001
0010
,  // measure 48
1100
0000
1100
0000
,  // measure 49
0001
0010
0100
1000
,  // measure 50
0101
0000
0101
0000
,  // measure 51
0100
0010
1000
0001
,  // measure 52
0000
0100
0000
0000
,  // measure 53
0000
0010
0000
0000
,  // measure 54
0000
1000
0000
0000
,  // measure 55
0000
0001
0000
0000
,  // measure 56
0100
0100
0010
0010
,  // measure 57
0001
0001
1000
1000
,  // measure 58
0010
0010
0100
0100
,  // measure 59
0010
0100
1000
0001
,  // measure 60
0101
0000
0101
0000
,  // measure 61
0100
0010
1000
0001
,  // measure 62
0110
0000
0110
0000
,  // measure 63
0001
0010
0100
1000
,  // measure 64
1001
0000
1001
0000
,  // measure 65
0100
0010
1000
0001
,  // measure 66
0011
0000
0011
0000
,  // measure 67
0010
1000
0001
0100
,  // measure 68
0010
0000
0000
0000
;

//---------------dance-single - ----------------
#NOTES:
     dance-single:
     :
     Beginner:
     3:
     0.136054,0.175781,0.104167,0.000000,0.000000,128.000000,114.000000,14.000000,0.000000,0.000000,0.000000,0.136054,0.175781,0.104167,0.000000,0.000000,128.000000,114.000000,14.000000,0.000000,0.000000,0.000000:
// measure 0
0000
0000
0000
0000
,  // measure 1
0000
0000
0000
0000
,  // measure 2
0000
0000
0000
0000
,  // measure 3
0000
0000
0000
0000
,  // measure 4
0010
0000
0001
0000
,  // measure 5
0100
0000
0010
0000
,  // measure 6
1000
0000
0001
0000
,  // measure 7
0100
0000
0010
0000
,  // measure 8
1000
0000
0000
0000
,  // measure 9
0001
0000
0000
0000
,  // measure 10
0100
0000
0000
0000
,  // measure 11
0010
0000
0000
0000
,  // measure 12
1001
0000
0001
0000
,  // measure 13
0010
0000
0100
0000
,  // measure 14
0001
0000
1000
0000
,  // measure 15
0010
0000
0001
0000
,  // measure 16
1000
0000
0010
0000
,  // measure 17
0100
0000
0001
0000
,  // measure 18
0001
0000
0010
0000
,  // measure 19
1000
0000
0000
0000
,  // measure 20
1010
0000
1000
0000
,  // measure 21
0010
0000
0100
0000
,  // measure 22
1001
0000
1000
0000
,  // measure 23
0010
0000
0010
0000
,  // measure 24
0101
0000
0001
0000
,  // measure 25
1000
0000
0001
0000
,  // measure 26
0110
0000
0010
0000
,  // measure 27
1000
0000
0001
0000
,  // measure 28
0000
0100
0000
0000
,  // measure 29
0000
0001
0000
0000
,  // measure 30
0000
1000
0000
0000
,  // measure 31
0000
0010
0000
0000
,  // measure 32
0100
0000
0100
0000
,  // measure 33
0010
0000
0010
0000
,  // measure 34
0001
0000
0001
0000
,  // measure 35
1000
0000
0000
0000
,  // measure 36
1001
0000
0100
0000
,  // measure 37
0010
0000
1000
0000
,  // measure 38
0001
0000
0100
0000
,  // measure 39
0010
0000
1000
0000
,  // measure 40
0001
0000
1000
0000
,  // measure 41
0010
0000
0100
0000
,  // measure 42
0001
0000
1000
0000
,  // measure 43
0010
0000
0100
0000
,  // measure 44
1001
0000
0010
0000
,  // measure 45
1000
0000
0001
0000
,  // measure 46
1010
0000
0100
0000
,  // measure 47
0001
0000
1000
0000
,  // measure 48
1001
0000
0100
0000
,  // measure 49
0010
0000
1000
0000
,  // measure 50
0101
0000
0010
0000
,  // measure 51
1000
0000
0010
0000
,  // measure 52
0000
0100
0000
0000
,  // measure 53
0000
0001
0000
0000
,  // measure 54
0000
1000
0000
0000
,  // measure 55
0000
0010
0000
0000
,  // measure 56
0100
0000
0100
0000
,  // measure 57
0010
0000
0010
0000
,  // measure 58
1000
0000
1000
0000
,  // measure 59
0100
0000
0010
0000
,  // measure 60
1001
0000
1000
0000
,  // measure 61
0010
0000
0100
0000
,  // measure 62
1001
0000
0010
0000
,  // measure 63
0100
0000
1000
0000
,  // measure 64
0011
0000
1000
0000
,  // measure 65
0100
0000
0010
0000
,  // measure 66
1100
0000
0001
0000
,  // measure 67
0100
0000
0010
0000
;
