#TITLE:Blue & Black;
#SUBTITLE:;
#ARTIST:HYOJUNG, ARIN, JANGWONYOUNG, LEESEO, SERIM, JUNGMO;
#TITLETRANSLIT:;
#SUBTITLETRANSLIT:;
#ARTISTTRANSLIT:;
#GENRE:;
#CREDIT:;
#BANNER:AV.avi;
#BACKGROUND:bg.png;
#LYRICSPATH:;
#CDTITLE:;
#MUSIC:audio.ogg;
#OFFSET:-0.402000;
#SAMPLESTART:44.318001;
#SAMPLELENGTH:15.000000;
#SELECTABLE:YES;
#BPMS:0.000000=140.000000
;
#STOPS:
;
#BGCHANGES:0.000=MV.avi=1.400=1=1=1=StretchRewind==CrossFade==,
3.000=MV.avi=1.000=0=0=1=====,
99999=-nosongbg-=1.000=0=0=0 // don't automatically add -songbackground-
;
#KEYSOUNDS:;
#ATTACKS:;

//---------------dance-single - ----------------
#NOTES:
     dance-single:
     :
     Hard:
     13:
     0.562395,0.631523,0.297546,0.694275,0.717163,516.000000,477.000000,39.000000,91.000000,0.000000,0.000000,0.562395,0.631523,0.297546,0.694275,0.717163,516.000000,477.000000,39.000000,91.000000,0.000000,0.000000:
// measure 0
0000
0000
0000
0000
,  // measure 1
0000
0000
0000
0000
,  // measure 2
0000
0000
0000
0010
0100
0001
0200
0300
0000
0010
0100
0001
,  // measure 3
0020
0030
0000
0010
0100
1000
0002
0000
0000
0203
0000
0000
,  // measure 4
0301
0000
0000
0010
0100
0001
0020
0030
0000
0010
0100
1000
,  // measure 5
0020
0030
0000
1000
0010
1000
0200
0000
0000
0320
0000
0000
,  // measure 6
0031
0000
0001
1000
0000
1000
0100
0000
0100
1000
0000
1000
,  // measure 7
0200
0000
0000
2300
0000
0000
3002
0003
0001
2000
0000
0000
,  // measure 8
3001
0000
0001
0010
0000
0010
0001
0000
0001
0100
0000
0100
,  // measure 9
0002
0023
2030
3200
,  // measure 10
2300
0000
0000
3100
0000
1000
0020
0000
0000
1030
0000
0001
,  // measure 11
0020
0000
0000
0031
0000
1000
0010
0000
0100
0001
0000
1000
,  // measure 12
0020
0000
0000
1030
0000
0001
1000
0000
1000
0010
0000
0010
,  // measure 13
2000
0000
0000
3001
0000
0100
0002
0000
0000
0103
0000
0001
,  // measure 14
0200
0000
0000
0301
0000
0010
0002
0000
0000
1003
0000
0010
,  // measure 15
0200
0000
0000
0301
0000
1000
0200
0000
0000
1300
0000
0001
,  // measure 16
0020
0000
0000
0031
1000
0001
0200
0000
0000
0310
1000
0001
,  // measure 17
0020
0000
0000
0130
0000
1000
0020
0000
0000
1030
0100
0010
,  // measure 18
0001
0000
0001
0010
0100
1000
0010
0000
0010
0100
0001
0100
,  // measure 19
0010
1000
0100
0010
0001
1000
0100
0000
1000
0001
1000
0010
,  // measure 20
1000
0000
1000
0100
0010
0001
1000
0000
1000
0100
0010
0001
,  // measure 21
0100
0010
1000
0001
1000
0010
0200
0000
0000
0301
0000
0000
,  // measure 22
0001
0000
0001
0010
0100
1000
0010
0000
0010
1000
0001
0010
,  // measure 23
0100
1000
0010
0100
0001
1000
0100
0000
0001
1000
0001
0100
,  // measure 24
0001
0000
1000
0100
0010
0001
0100
0000
0010
1000
0100
1000
,  // measure 25
0010
0000
1000
0100
0010
0001
0010
0000
0000
0110
0000
0000
,  // measure 26
1001
0000
0000
1000
0000
1000
0200
0000
0300
0110
0000
0000
,  // measure 27
1010
0000
0000
0001
0000
0010
0002
0000
0003
0101
0000
0000
,  // measure 28
0011
0000
0000
0010
0000
0001
0020
0000
0030
0110
0000
0000
,  // measure 29
1001
0000
0000
1000
0000
0100
1000
0000
1000
0020
0000
0000
,  // measure 30
1030
0000
0000
0001
0000
0010
0002
0000
0003
0101
0000
0000
,  // measure 31
1010
0000
0000
1000
0000
0100
0020
0000
0030
0110
0000
0000
,  // measure 32
0101
0000
0000
0001
0000
0010
0200
0000
0300
0110
0000
0000
,  // measure 33
0011
0000
0000
0001
0000
0001
0010
0000
0010
0200
0000
0000
,  // measure 34
1000
0000
0000
0310
0000
0001
0010
0000
0010
0002
0000
0000
,  // measure 35
1000
0000
0000
0103
0000
0010
1000
0000
1000
0002
0000
0000
,  // measure 36
0013
0000
1000
0100
0000
0010
0001
0000
0001
0010
0000
0000
,  // measure 37
1100
1001
0110
0002
,  // measure 38
1000
0000
0000
0013
0000
1000
0100
0000
0100
0020
0000
0000
,  // measure 39
0031
0000
0010
0001
0000
0001
0100
0000
0100
0002
0000
0000
,  // measure 40
1003
0000
0000
0010
0000
1000
0001
0000
0001
0010
0000
0010
,  // measure 41
0001
0010
0100
1000
0010
0100
0001
1000
0100
0010
0000
0000
,  // measure 42
1002
0000
0000
2003
0000
0000
3020
0000
0000
1030
0000
1000
,  // measure 43
0020
0000
0000
2030
0000
0000
3002
0000
0000
0013
0000
0010
,  // measure 44
0002
0000
0000
2003
0000
0000
3200
0000
0000
1300
0000
1000
,  // measure 45
0010
0000
0000
2000
0000
0000
3020
0000
0000
1030
0000
0001
,  // measure 46
2000
0000
0000
3002
0000
0000
0203
0000
0000
0301
0000
0001
,  // measure 47
0200
0000
0000
0302
0000
0000
2003
0000
0000
3100
0000
0100
,  // measure 48
2000
0000
0000
3002
0000
0000
0023
0000
0000
0031
0000
0001
,  // measure 49
0100
0000
0000
0002
0000
0000
0203
0000
0000
0320
0000
0030
,  // measure 50
1001
0000
0000
1000
0100
1000
0020
0000
0000
1030
0001
0010
,  // measure 51
0002
0000
0000
0013
0100
1000
0020
0000
0000
0230
0000
0000
,  // measure 52
0302
0000
0000
0013
0100
1000
0020
0000
0000
1030
0001
0010
,  // measure 53
0200
0000
0000
1300
0001
0100
0020
0000
0000
1030
0000
0000
,  // measure 54
0001
0000
1000
0100
0000
0100
2000
0000
0000
3010
0000
0000
,  // measure 55
1000
0000
0001
0010
0000
0010
0200
0000
0000
1300
0000
0000
,  // measure 56
1002
1003
0012
0013
,  // measure 57
0110
1001
1010
1001
,  // measure 58
0110
0000
0000
0001
0000
0001
0020
0000
0130
0110
0000
0000
,  // measure 59
0101
0000
0000
1000
0000
0100
2000
0000
3010
1010
0000
0000
,  // measure 60
1100
0000
0000
0010
0000
0001
0200
0000
0301
0101
0000
0000
,  // measure 61
0012
0000
0000
1003
0000
0001
0100
0000
0100
0010
0000
1000
,  // measure 62
0100
1100
0011
0100
,  // measure 63
1001
0000
0010
1000
0000
1000
0010
0000
0100
0001
0000
1000
,  // measure 64
0010
1010
0101
0010
,  // measure 65
1100
0000
0000
1000
0000
1000
0100
0000
0100
0020
0000
0000
,  // measure 66
0001
0000
0000
0130
0000
1000
0100
0000
0100
2000
0000
0000
,  // measure 67
0001
0000
0000
3010
0000
0100
0001
0000
0001
2000
0000
0000
,  // measure 68
3100
0000
0001
0010
0000
0100
1000
0000
1000
0100
0000
1000
,  // measure 69
0000
0000
1000
0000
0000
1000
0000
0000
0001
2000
0000
0000
,  // measure 70
3001
0000
0010
0100
0000
0001
0010
0000
0010
0200
0000
0000
,  // measure 71
1300
0000
0100
1000
0000
1000
0010
0000
0010
2000
0000
0000
,  // measure 72
3001
0000
0000
0100
0000
0001
1000
0000
1000
0100
0000
0100
,  // measure 73
1000
0100
0010
0001
0100
0010
1000
0001
0010
0100
0000
0000
,  // measure 74
0001
0010
0100
1000
0001
0010
0100
0010
0100
0010
0000
0000
,  // measure 75
0220
0330
0000
0000
;

//---------------dance-single - ----------------
#NOTES:
     dance-single:
     :
     Medium:
     9:
     0.390189,0.400543,0.076294,0.740051,0.263214,358.000000,348.000000,10.000000,97.000000,0.000000,0.000000,0.390189,0.400543,0.076294,0.740051,0.263214,358.000000,348.000000,10.000000,97.000000,0.000000,0.000000:
// measure 0
0000
0000
0000
0000
,  // measure 1
0000
0000
0000
0000
,  // measure 2
0000
0000
0000
1000
0100
0010
0001
0000
0000
0001
0010
0100
,  // measure 3
2000
3020
2030
3020
,  // measure 4
1030
0000
0000
0001
0010
0100
1000
0000
0000
1000
0100
0010
,  // measure 5
0002
0023
0230
2300
,  // measure 6
3100
0000
0001
1000
0000
0000
1000
0000
0001
0010
0000
0000
,  // measure 7
0200
2300
3020
2030
,  // measure 8
3001
0000
0001
0010
0000
0000
0100
0000
0100
1000
0000
0000
,  // measure 9
0002
2003
3020
0230
,  // measure 10
0310
0000
0010
1000
0000
0000
0001
0000
0001
0010
0000
0000
,  // measure 11
0100
0000
1000
0010
0000
0010
1000
0000
1000
0001
0000
0000
,  // measure 12
1000
0000
1000
0100
0000
0000
1000
0000
1000
0010
0000
0000
,  // measure 13
2000
3002
0023
0230
,  // measure 14
1300
0000
1000
0010
0000
0000
1000
0000
0001
0010
0000
0000
,  // measure 15
0200
2300
3020
2030
,  // measure 16
3002
0000
0000
0013
0000
0001
0010
0000
0000
0010
0000
0010
,  // measure 17
0100
2000
3002
2003
,  // measure 18
3001
0001
0001
1000
,  // measure 19
0001
0000
1000
0001
0000
0001
1000
0000
0000
0010
0000
0000
,  // measure 20
1000
1000
1000
1000
,  // measure 21
0100
0000
1000
0001
0000
0001
0010
0000
0000
0001
0000
0000
,  // measure 22
1000
0000
1000
0001
0000
0001
1000
0000
0000
0001
0000
0000
,  // measure 23
0010
0000
0001
0010
0000
0010
0001
0000
0000
0010
0000
0000
,  // measure 24
0200
2300
3020
2030
,  // measure 25
3002
0000
1003
1001
,  // measure 26
1000
0000
0000
0010
0000
1000
0001
0000
0001
0010
0000
0000
,  // measure 27
0002
0023
0230
2300
,  // measure 28
3010
0000
0000
0010
0000
1000
0001
0000
0001
1000
0000
0000
,  // measure 29
0002
0023
0230
2300
,  // measure 30
3010
0000
0000
0010
0000
1000
0001
0000
0001
1000
0000
0000
,  // measure 31
2000
3020
2030
3002
,  // measure 32
1003
0000
0000
1000
0000
0100
0010
0000
0010
0001
0000
0000
,  // measure 33
2000
3020
2030
3002
,  // measure 34
2003
0000
0000
3001
0000
0001
0010
0000
0010
0002
0000
0000
,  // measure 35
0023
0000
0000
0130
0000
0100
0010
0000
0010
0002
0000
0000
,  // measure 36
1003
0010
0100
0001
,  // measure 37
1000
1000
1000
2000
,  // measure 38
3002
0000
0000
1003
0000
0000
0001
0000
0001
0020
0000
0000
,  // measure 39
0230
0000
0000
1300
0000
0000
0001
0000
0001
2000
0000
0000
,  // measure 40
3010
1000
0100
0010
,  // measure 41
0001
0010
0100
0110
,  // measure 42
1002
0000
2003
0000
,  // measure 43
3020
0000
2030
0000
,  // measure 44
3002
0000
0023
0000
,  // measure 45
0230
0000
0310
0000
,  // measure 46
1000
1000
0002
0000
,  // measure 47
0013
0010
0200
0000
,  // measure 48
1300
1000
0002
0000
,  // measure 49
1003
0010
1000
1010
,  // measure 50
0001
0000
0000
0001
0000
1000
0001
0000
0000
0001
0000
0010
,  // measure 51
0001
0100
1000
1010
,  // measure 52
1000
0000
0000
1000
0000
1000
0010
0000
0000
0010
0000
0010
,  // measure 53
1000
1000
0100
1100
,  // measure 54
0010
0000
0010
0100
0000
0000
1000
0000
1000
0001
0000
0000
,  // measure 55
0100
0000
0100
0001
0000
0000
0010
0000
0010
0001
0000
0000
,  // measure 56
1000
0100
0010
0001
,  // measure 57
0200
0302
0203
0301
,  // measure 58
1000
0000
0000
1001
0000
0001
1000
0000
1000
0100
0000
0000
,  // measure 59
2000
3200
0320
0032
,  // measure 60
0103
0000
0000
0100
0000
0001
1000
0000
1000
0001
0000
0000
,  // measure 61
2000
3200
0320
0032
,  // measure 62
0103
0000
0000
0100
0000
0001
1000
0000
1000
0001
0000
0000
,  // measure 63
0002
0203
0302
2003
,  // measure 64
3001
0000
0000
0001
0000
0010
0100
0000
0100
1000
0000
0000
,  // measure 65
0002
0203
0302
2003
,  // measure 66
3002
0000
0000
1003
0000
1000
0100
0000
0100
2000
0000
0000
,  // measure 67
3200
0000
0000
0310
0000
0010
0100
0000
0100
2000
0000
0000
,  // measure 68
3001
0100
0010
1000
,  // measure 69
0001
0001
0001
0002
,  // measure 70
2003
0000
0000
3001
0000
0000
1000
0000
1000
0200
0000
0000
,  // measure 71
0320
0000
0000
0031
0000
0000
1000
0000
1000
0002
0000
0000
,  // measure 72
0103
0001
0010
0100
,  // measure 73
1000
0100
0010
0110
,  // measure 74
1002
0000
0000
0003
0000
0000
1000
0001
1000
0001
0000
0000
,  // measure 75
1001
0000
0000
0000
;

//---------------dance-single - ----------------
#NOTES:
     dance-single:
     :
     Easy:
     4:
     0.233241,0.257492,0.038147,0.213623,0.000000,214.000000,209.000000,5.000000,28.000000,0.000000,0.000000,0.233241,0.257492,0.038147,0.213623,0.000000,214.000000,209.000000,5.000000,28.000000,0.000000,0.000000:
// measure 0
0000
0000
0000
0000
,  // measure 1
0000
0000
0000
0000
,  // measure 2
1000
0001
1000
0000
,  // measure 3
0020
0000
1030
0000
,  // measure 4
1000
0001
1000
0000
,  // measure 5
0200
0000
0301
0000
,  // measure 6
1000
0010
1000
0000
,  // measure 7
0001
0010
0001
0000
,  // measure 8
1000
0100
1000
0000
,  // measure 9
0010
1000
0001
0000
,  // measure 10
0010
0000
0110
0000
,  // measure 11
0001
0000
1001
0000
,  // measure 12
1000
0100
1000
0000
,  // measure 13
0010
1000
0010
0000
,  // measure 14
1000
0000
1001
0000
,  // measure 15
0001
0000
1001
0000
,  // measure 16
0001
0010
0100
0000
,  // measure 17
0100
0010
0001
0000
,  // measure 18
1000
0001
1000
0000
,  // measure 19
0020
0000
1030
0000
,  // measure 20
1000
0100
1000
0000
,  // measure 21
0002
0000
1003
0000
,  // measure 22
0010
0001
0010
0100
,  // measure 23
1000
0010
1000
0000
,  // measure 24
0001
1000
0001
0000
,  // measure 25
2000
0000
3001
0000
,  // measure 26
0001
1000
0001
0001
,  // measure 27
0010
0100
1000
1000
,  // measure 28
0001
1000
0010
1000
,  // measure 29
0002
0000
0013
0000
,  // measure 30
1000
0100
1000
0010
,  // measure 31
1000
1000
0001
0001
,  // measure 32
0010
0100
0010
0001
,  // measure 33
2000
0000
3001
0000
,  // measure 34
1000
0001
0020
0000
,  // measure 35
0031
1000
0020
0000
,  // measure 36
1030
0001
1000
0000
,  // measure 37
0010
1000
0010
0000
,  // measure 38
1000
0001
0020
0000
,  // measure 39
0031
1000
0020
0000
,  // measure 40
1030
0100
1000
0000
,  // measure 41
0010
1000
0001
0000
,  // measure 42
0020
0000
0031
0000
,  // measure 43
2000
0000
3100
0000
,  // measure 44
0002
0000
0013
0000
,  // measure 45
0200
0000
1300
0000
,  // measure 46
0020
0000
1030
0000
,  // measure 47
2000
0000
3001
0000
,  // measure 48
0002
0000
1003
0000
,  // measure 49
1000
0000
0010
0000
,  // measure 50
1000
0001
1000
0100
,  // measure 51
0020
0000
0031
0000
,  // measure 52
1000
0100
0010
0001
,  // measure 53
2000
0000
3010
0000
,  // measure 54
1000
0001
1000
0000
,  // measure 55
0010
1000
0001
0000
,  // measure 56
0100
1000
0010
1000
,  // measure 57
0100
0010
0001
0000
,  // measure 58
1000
0010
2000
0000
,  // measure 59
3010
1000
0020
0000
,  // measure 60
1030
0001
0010
0100
,  // measure 61
2000
0000
3010
0000
,  // measure 62
0001
0010
0100
0000
,  // measure 63
0001
1000
0010
0000
,  // measure 64
1000
0100
0010
0001
,  // measure 65
2000
0000
3010
0000
,  // measure 66
0001
0010
0200
0000
,  // measure 67
1300
0010
2000
0000
,  // measure 68
3001
0010
0100
0000
,  // measure 69
0010
1000
0010
0000
,  // measure 70
1000
0001
0020
0000
,  // measure 71
0031
1000
0020
0000
,  // measure 72
1030
0100
0010
0000
,  // measure 73
0001
1000
0001
0000
,  // measure 74
1000
0010
1000
0000
,  // measure 75
1010
0000
0000
0000
;

//---------------dance-single - ----------------
#NOTES:
     dance-single:
     :
     Beginner:
     2:
     0.176566,0.200272,0.015259,0.053406,0.000000,162.000000,160.000000,2.000000,7.000000,0.000000,0.000000,0.176566,0.200272,0.015259,0.053406,0.000000,162.000000,160.000000,2.000000,7.000000,0.000000,0.000000:
// measure 0
0000
0000
0000
0000
,  // measure 1
0000
0000
0000
0000
,  // measure 2
1000
0001
1000
0000
,  // measure 3
0010
0000
1000
0000
,  // measure 4
0010
1000
0010
0000
,  // measure 5
1000
0000
0001
0000
,  // measure 6
0010
0000
0100
0000
,  // measure 7
1000
0000
0010
0000
,  // measure 8
1000
0000
0001
0000
,  // measure 9
0010
0000
0100
0000
,  // measure 10
1000
0000
0001
0000
,  // measure 11
1000
0000
0010
0000
,  // measure 12
1000
0000
0001
0000
,  // measure 13
0010
0000
0100
0000
,  // measure 14
1000
0000
0001
0000
,  // measure 15
1000
0000
0010
0000
,  // measure 16
1000
0001
0010
0000
,  // measure 17
0010
0001
1000
0000
,  // measure 18
0010
0000
1000
0000
,  // measure 19
0001
1000
0001
0000
,  // measure 20
0010
0000
0001
0000
,  // measure 21
0010
0100
1000
0000
,  // measure 22
0001
0000
1000
0000
,  // measure 23
0001
1000
0001
0000
,  // measure 24
0010
0000
0001
0000
,  // measure 25
2000
0000
0000
0000
,  // measure 26
3001
0000
0010
0000
,  // measure 27
1000
0001
0010
0000
,  // measure 28
0100
0000
1000
0000
,  // measure 29
0002
0000
1003
0000
,  // measure 30
0100
0000
0001
0000
,  // measure 31
1000
0010
1000
0000
,  // measure 32
0001
0000
0010
0000
,  // measure 33
0002
0000
1003
0000
,  // measure 34
1000
0010
1000
0000
,  // measure 35
0001
0010
0001
0000
,  // measure 36
0010
0000
1000
0000
,  // measure 37
0100
0000
0100
0000
,  // measure 38
1000
0001
1000
0000
,  // measure 39
0001
1000
0001
0000
,  // measure 40
0010
0000
0001
0000
,  // measure 41
2000
0000
3010
0000
,  // measure 42
0001
0000
0001
0000
,  // measure 43
1000
0000
1000
0000
,  // measure 44
0010
0000
0010
0000
,  // measure 45
1000
0000
1000
0000
,  // measure 46
0001
0000
0000
0000
,  // measure 47
0001
0000
0000
0000
,  // measure 48
1000
0000
0000
0000
,  // measure 49
1000
0000
0000
0000
,  // measure 50
0010
0000
0010
0000
,  // measure 51
1000
0000
1000
0000
,  // measure 52
0001
0000
0001
0000
,  // measure 53
1000
0000
1000
0000
,  // measure 54
0100
0000
1000
0000
,  // measure 55
0010
0000
1000
0000
,  // measure 56
0001
0000
0001
0000
,  // measure 57
0010
0000
0000
0000
,  // measure 58
1001
0000
0100
0000
,  // measure 59
0001
1000
0100
0000
,  // measure 60
0010
0000
0001
0000
,  // measure 61
2000
0000
3001
0000
,  // measure 62
0010
0000
1000
0000
,  // measure 63
0001
0100
0001
0000
,  // measure 64
1000
0000
0100
0000
,  // measure 65
2000
0000
3001
0000
,  // measure 66
0001
0100
0001
0000
,  // measure 67
1000
0100
1000
0000
,  // measure 68
0100
0000
0001
0000
,  // measure 69
0010
0000
0010
0000
,  // measure 70
0001
1000
0001
0000
,  // measure 71
1000
0001
1000
0000
,  // measure 72
0100
0000
1000
0000
,  // measure 73
0002
0000
0103
0000
,  // measure 74
1000
0000
1000
0000
,  // measure 75
1001
0000
0000
0000
;
