#TITLE:Back to the City;
#SUBTITLE:;
#ARTIST:Kep1er;
#TITLETRANSLIT:;
#SUBTITLETRANSLIT:;
#ARTISTTRANSLIT:;
#GENRE:;
#CREDIT:;
#BANNER:Back to the City.png;
#BACKGROUND:Back to the City-bg.png;
#LYRICSPATH:;
#CDTITLE:;
#MUSIC:Back to the City.ogg;
#OFFSET:-0.191000;
#SAMPLESTART:54.829292;
#SAMPLELENGTH:14.999998;
#SELECTABLE:YES;
#BPMS:0.000000=177.000000
;
#STOPS:
;
#BGCHANGES:;
#KEYSOUNDS:;
#ATTACKS:;

//---------------dance-single - ----------------
#NOTES:
     dance-single:
     :
     Hard:
     13:
     0.576977,0.613454,0.356570,0.918853,0.017143,589.000000,537.000000,52.000000,134.000000,0.000000,0.000000,0.576977,0.613454,0.356570,0.918853,0.017143,589.000000,537.000000,52.000000,134.000000,0.000000,0.000000:
// measure 0
0000
0000
0000
0000
,  // measure 1
0000
0000
0000
0000
,  // measure 2
0000
0000
0000
0000
,  // measure 3
0000
0000
0000
0000
,  // measure 4
0000
0000
0000
0000
,  // measure 5
0000
0000
0000
0000
,  // measure 6
0000
0000
0000
0000
,  // measure 7
0000
0000
0000
0000
,  // measure 8
0000
2000
3001
0020
,  // measure 9
0130
0000
0001
0010
0100
1000
0000
1000
,  // measure 10
0001
0100
0010
0000
0100
0001
2000
0000
,  // measure 11
3010
0000
0100
0000
0010
0100
2000
0000
,  // measure 12
3100
0000
0001
0000
1000
0100
1000
0010
,  // measure 13
0100
0002
0010
0003
0010
0001
0100
0010
,  // measure 14
1000
0200
1000
0300
1001
0000
0010
0000
,  // measure 15
1000
0100
0010
0000
0011
0000
1000
0000
,  // measure 16
1000
0010
0200
0000
0301
0000
2000
0000
,  // measure 17
3100
0000
0001
0010
0001
1000
0000
1000
,  // measure 18
0010
0100
0001
0000
1000
0100
2000
0000
,  // measure 19
3100
0000
0001
0010
1000
0010
0200
0000
,  // measure 20
1300
0000
0001
0100
1000
0100
0001
1000
,  // measure 21
0010
0000
1000
0100
1000
0010
0100
0001
,  // measure 22
0100
0001
0010
0000
2000
0000
3002
0000
,  // measure 23
0013
0100
1000
0000
1001
0000
0100
0010
,  // measure 24
1000
0001
0010
1000
0010
0001
1000
0100
,  // measure 25
2000
0000
0001
0000
3010
0000
0001
1000
,  // measure 26
0100
1000
0010
0100
1000
0100
0010
1000
,  // measure 27
0002
1000
0103
0010
,  // measure 28
1000
0000
1001
0000
0010
0000
0100
0001
,  // measure 29
1000
0200
0000
0310
0001
0200
0000
0310
,  // measure 30
1000
0001
2000
0000
3001
0000
0100
0010
,  // measure 31
0100
0002
1000
0003
1001
0000
0001
1000
,  // measure 32
0010
0100
0001
0100
1000
0001
0010
1000
,  // measure 33
0002
0000
1000
0000
0103
0000
1000
0001
,  // measure 34
0010
0001
1000
0100
0001
1000
0010
0001
,  // measure 35
2000
0000
0100
0000
3010
0100
0001
0000
,  // measure 36
0010
0000
2200
0000
3300
1000
0001
0000
,  // measure 37
0100
2002
3003
0010
,  // measure 38
0100
0000
0002
0000
0000
2003
0000
3200
,  // measure 39
0000
0000
2300
0000
0000
3002
0000
0000
,  // measure 40
0203
0300
0110
1001
,  // measure 41
0010
0100
0000
0100
0001
1000
0010
0100
,  // measure 42
0001
0010
0001
0000
1001
0000
1010
0000
,  // measure 43
0001
1000
0000
0001
0010
0100
0010
0000
,  // measure 44
0011
1002
0023
0230
,  // measure 45
1300
0010
0000
1000
0001
0010
0001
0200
,  // measure 46
0010
0300
2010
0000
3200
0000
0320
0000
,  // measure 47
0031
2000
0000
3200
0000
0310
0001
1000
,  // measure 48
0001
1000
0100
0000
1100
0000
1001
0000
,  // measure 49
0010
1000
0000
1000
0001
0010
0100
0010
,  // measure 50
0001
1000
0010
0000
0101
0000
1010
0000
,  // measure 51
0001
1000
0000
0010
1000
0001
0100
0000
,  // measure 52
0101
2001
3200
0320
,  // measure 53
0031
1000
0100
1000
0001
0010
2000
0000
,  // measure 54
3010
0012
2003
3002
,  // measure 55
1003
0200
0000
0320
0000
0031
1000
0010
,  // measure 56
0100
0000
2002
3003
0000
0220
0330
0000
,  // measure 57
2002
3003
0000
2020
3030
0000
0100
0001
,  // measure 58
1000
0000
2002
3003
0000
0220
0330
0000
,  // measure 59
2200
3300
0000
0022
0033
0000
0100
0001
,  // measure 60
1000
0000
2020
3030
0000
0202
0303
0000
,  // measure 61
2002
3003
0000
2200
3300
0000
2002
3003
,  // measure 62
2020
3030
0202
0303
0010
0000
1000
0001
,  // measure 63
1000
0200
0000
0320
0000
0130
1000
0001
,  // measure 64
1000
0000
0002
0000
1003
0200
0000
0310
,  // measure 65
0002
0000
0000
0000
1003
0000
1000
0001
,  // measure 66
0020
0000
0031
0000
1000
0010
2000
0000
,  // measure 67
3100
0010
0001
0010
0200
0000
1300
0010
,  // measure 68
0001
0010
0200
0000
0301
1000
0000
2000
,  // measure 69
0000
0000
3002
0000
0103
0010
0000
0200
,  // measure 70
0000
0000
0302
0000
1003
0010
0000
0100
,  // measure 71
0000
2000
0000
0000
3001
0000
0010
0000
,  // measure 72
0100
0000
1200
0000
1300
0001
0100
0000
,  // measure 73
0010
0000
0102
0000
1003
0000
0010
1000
,  // measure 74
0100
0010
0200
0000
1300
0002
0000
2003
,  // measure 75
0000
3002
0000
0003
0001
1000
0001
0010
,  // measure 76
0100
1000
0001
0000
1000
0100
0001
0100
,  // measure 77
1000
0001
0010
0000
0001
0100
0001
1000
,  // measure 78
0010
1000
0100
0000
0100
0000
1000
0000
,  // measure 79
1000
0100
0010
0000
0010
0001
0100
0000
,  // measure 80
0100
0010
0010
0010
,  // measure 81
0010
1010
1000
1000
,  // measure 82
1000
0000
0000
0000
1000
0000
0000
0000
0001
0010
0001
0010
0001
0000
1000
0000
,  // measure 83
0010
1000
0010
0000
2001
0000
3001
0010
,  // measure 84
0100
0000
1010
0000
0001
1000
0010
1000
,  // measure 85
0001
0010
0002
0000
0023
0000
0230
0000
,  // measure 86
1300
0010
1000
0001
1000
0100
0010
0002
,  // measure 87
1000
0003
2010
0000
3200
0000
0320
0000
,  // measure 88
0031
0000
2000
0000
3010
0000
0200
0000
0310
0000
1000
0000
0100
0000
0010
0001
,  // measure 89
1000
0001
0010
0000
2001
0000
3001
0010
,  // measure 90
0100
0000
1001
0000
0100
0001
1000
0100
,  // measure 91
0010
0100
1000
0000
1002
0000
0103
0010
,  // measure 92
0100
0000
1001
0000
1000
0001
0010
0100
,  // measure 93
1000
1020
2030
3002
,  // measure 94
0103
0010
1000
0100
1000
0010
0200
0300
,  // measure 95
1001
0000
0102
0000
2003
0000
3010
0100
,  // measure 96
0010
0000
2000
0000
3001
0000
0200
0000
0301
0000
1000
0000
0010
0000
0100
0010
,  // measure 97
0100
0001
0200
0300
0001
2000
3100
0010
,  // measure 98
0002
0003
1000
0020
0130
0000
0001
1000
,  // measure 99
0100
0000
1200
0300
0001
0020
0031
1000
,  // measure 100
0020
0030
1000
0200
0310
0001
1000
0001
,  // measure 101
0100
0000
2001
3000
1000
0020
0130
0001
,  // measure 102
0020
0030
0010
0001
0100
0001
0010
0100
,  // measure 103
1000
0210
0302
2003
,  // measure 104
3010
0000
0200
0000
0310
0000
2000
0000
3001
0000
1000
0000
0010
0000
0100
0001
,  // measure 105
1000
0010
1000
0000
0000
0000
0000
0000
;

//---------------dance-single - ----------------
#NOTES:
     dance-single:
     :
     Medium:
     10:
     0.420243,0.505798,0.123428,0.562283,0.000000,429.000000,411.000000,18.000000,82.000000,0.000000,0.000000,0.420243,0.505798,0.123428,0.562283,0.000000,429.000000,411.000000,18.000000,82.000000,0.000000,0.000000:
// measure 0
0000
0000
0000
0000
,  // measure 1
0000
0000
0000
0000
,  // measure 2
0000
0000
0000
0000
,  // measure 3
0000
0000
0000
0000
,  // measure 4
0000
0000
0000
0000
,  // measure 5
0000
0000
0000
0000
,  // measure 6
0000
0000
0000
0000
,  // measure 7
0000
0000
0000
0000
,  // measure 8
0000
2000
3001
0002
,  // measure 9
0013
0000
0001
0100
0001
0000
1000
0000
,  // measure 10
0010
0000
1000
0010
0001
0000
0010
0000
,  // measure 11
0010
0000
0001
0010
1000
0000
0010
0000
,  // measure 12
0010
1000
0100
0010
,  // measure 13
0001
0010
0001
0100
,  // measure 14
0010
1000
1000
0100
,  // measure 15
0100
1000
0010
0000
0100
0000
0100
0000
,  // measure 16
0001
0010
0002
0000
0103
0000
2000
0000
,  // measure 17
3010
0000
1000
0100
1000
0000
0001
0000
,  // measure 18
0010
0000
0001
0010
0100
0010
0001
0000
,  // measure 19
0100
0000
0001
0100
1000
0100
0001
0000
,  // measure 20
1000
0100
0010
0100
,  // measure 21
1000
0000
0010
0000
0100
0000
0010
1000
,  // measure 22
0010
1000
0100
0000
1000
0000
0001
0000
,  // measure 23
0100
0001
0010
0000
0100
0000
0010
0100
,  // measure 24
1000
0100
0020
0000
0031
0100
0000
0001
,  // measure 25
2000
0001
3100
0010
,  // measure 26
1000
0001
2000
0000
3010
0100
0000
0001
,  // measure 27
0200
0001
0301
1000
,  // measure 28
0010
0000
0210
0000
0000
0300
0001
0000
,  // measure 29
1000
0000
0100
0000
0100
0000
0010
0001
,  // measure 30
1000
0000
0020
0000
1030
0000
0001
0100
,  // measure 31
0001
2000
3100
1000
,  // measure 32
0010
0000
0020
0000
1030
0002
0000
1003
,  // measure 33
0200
0010
0310
0001
,  // measure 34
0100
0000
0200
0000
0301
2000
0000
3001
,  // measure 35
0020
0100
0130
1000
,  // measure 36
0001
1002
0000
0103
,  // measure 37
0010
0210
0000
0310
,  // measure 38
0000
1000
0000
1000
,  // measure 39
0000
0001
0000
0001
,  // measure 40
0000
0000
0101
0000
1000
0000
0001
1000
,  // measure 41
0001
0000
0010
0000
0100
0000
1000
0100
,  // measure 42
0010
0001
1000
0000
0001
0000
0100
0001
,  // measure 43
0010
0000
0001
0000
0100
0000
0001
0100
,  // measure 44
1000
0100
0002
0000
0023
0000
0230
0000
,  // measure 45
1300
0000
0100
0000
0010
0000
0001
0010
,  // measure 46
0100
0010
0002
0000
2003
0000
3002
0000
,  // measure 47
0103
0010
0000
1000
0000
0001
0100
0002
,  // measure 48
0000
0003
0101
0000
1000
0000
0010
1000
,  // measure 49
0010
0000
1000
0000
0001
0000
0010
0001
,  // measure 50
1000
0001
0010
0000
0100
0000
1000
0100
,  // measure 51
1000
0000
0010
0000
0100
0000
0010
0100
,  // measure 52
0001
1000
0020
0000
0230
0000
0302
0000
,  // measure 53
0013
0000
0001
0000
1000
0000
0100
1000
,  // measure 54
0001
1000
0200
0000
2300
0000
3002
0000
,  // measure 55
0103
0010
0000
1000
0000
1000
0001
0200
,  // measure 56
0000
0300
0002
0000
0013
0000
1000
0001
,  // measure 57
1000
0000
0020
0000
0130
0000
0001
0100
,  // measure 58
0001
0000
0020
0000
0031
0000
1000
0001
,  // measure 59
1000
0000
0020
0000
0130
0000
0001
0100
,  // measure 60
0001
0000
2000
0000
3100
0000
0001
1000
,  // measure 61
0001
0000
2000
0000
3010
0000
0100
0001
,  // measure 62
0100
2000
3010
0002
,  // measure 63
0103
0000
0001
0000
1000
0000
0100
0010
,  // measure 64
0100
0010
0002
0000
0000
0000
0000
0000
,  // measure 65
0000
2003
0000
0000
,  // measure 66
0000
3020
0000
0230
,  // measure 67
0000
0302
0000
0000
,  // measure 68
0000
2003
0000
0000
,  // measure 69
0000
3002
0000
0000
,  // measure 70
0000
0203
0000
0000
,  // measure 71
0000
0301
2000
3020
,  // measure 72
2030
3002
0000
0023
,  // measure 73
0032
0203
0000
0310
,  // measure 74
1000
0002
0000
0013
,  // measure 75
0001
0200
0000
0310
,  // measure 76
0000
2010
0000
3010
,  // measure 77
0000
0102
0000
0103
,  // measure 78
0000
0220
0000
0000
,  // measure 79
0000
0000
0000
0330
,  // measure 80
0000
0100
0001
0100
,  // measure 81
0001
0000
2002
0000
0000
3003
0000
0000
,  // measure 82
0000
0000
0000
0000
,  // measure 83
0110
0000
0210
0000
0310
0000
0100
0010
,  // measure 84
0100
0000
0001
0000
0010
0000
0100
0010
,  // measure 85
0001
0010
0200
0000
2300
0000
3002
0000
,  // measure 86
1003
0000
0100
1000
0001
1000
0100
0000
,  // measure 87
0010
0200
2300
3020
,  // measure 88
1030
0001
0000
0100
0000
0100
0001
2000
,  // measure 89
0000
3000
1001
0000
0100
0000
0001
0100
,  // measure 90
0001
0000
0010
0000
0100
0000
1000
0100
,  // measure 91
0010
0100
1000
0000
0010
0000
1000
0001
,  // measure 92
1000
0000
0010
0000
1000
0000
0010
1000
,  // measure 93
0010
0001
0020
0000
2030
0000
3200
0000
,  // measure 94
1300
0000
0100
1000
0001
0010
0100
0000
,  // measure 95
1000
0002
0203
0320
,  // measure 96
1030
0001
0000
0001
0000
0100
0010
1000
,  // measure 97
0001
0000
1001
0000
1000
0000
0010
1000
,  // measure 98
0001
0000
0100
0000
1010
0000
0001
0010
,  // measure 99
0100
0000
1000
0000
1010
0000
0001
0100
,  // measure 100
0001
0000
1000
0000
0110
0000
1000
0100
,  // measure 101
0010
0000
0001
0000
1001
0000
1000
0010
,  // measure 102
0100
0000
0001
0000
1001
0000
0100
0010
,  // measure 103
0100
0002
0023
0230
,  // measure 104
1300
0001
0000
1000
0100
0010
0001
0100
,  // measure 105
0020
0000
0000
0030
0000
0000
0000
0000
;

//---------------dance-single - ----------------
#NOTES:
     dance-single:
     :
     Easy:
     5:
     0.260570,0.323999,0.034286,0.315427,0.000000,266.000000,261.000000,5.000000,46.000000,0.000000,0.000000,0.260570,0.323999,0.034286,0.315427,0.000000,266.000000,261.000000,5.000000,46.000000,0.000000,0.000000:
// measure 0
0000
0000
0000
0000
,  // measure 1
0000
0000
0000
0000
,  // measure 2
0000
0000
0000
0000
,  // measure 3
0000
0000
0000
0000
,  // measure 4
0000
0000
0000
0000
,  // measure 5
0000
0000
0000
0000
,  // measure 6
0000
0000
0000
0000
,  // measure 7
0000
0000
0000
0000
,  // measure 8
0000
1000
0001
1000
,  // measure 9
0000
0001
0010
0100
,  // measure 10
0000
1000
0001
1000
,  // measure 11
0010
1000
0001
0010
,  // measure 12
0000
0001
1000
0010
,  // measure 13
0000
1000
0100
1000
,  // measure 14
0000
0001
0000
0010
,  // measure 15
0000
0001
0000
0100
,  // measure 16
0000
0010
1000
0001
,  // measure 17
0000
0001
0010
0100
,  // measure 18
0000
0100
1000
0001
,  // measure 19
0000
1000
0010
1000
,  // measure 20
0000
0001
0010
0100
,  // measure 21
0000
0001
1000
0010
,  // measure 22
0000
0000
1000
2000
0000
0000
3100
0000
,  // measure 23
0000
0002
0000
0013
,  // measure 24
0000
0100
0010
0001
,  // measure 25
0010
0000
0100
0200
0000
0000
1300
0000
,  // measure 26
0000
0001
1000
0010
,  // measure 27
1000
0002
0000
0103
,  // measure 28
0000
2000
0000
3010
,  // measure 29
0000
1000
0100
0010
,  // measure 30
0001
0020
0000
0031
,  // measure 31
0000
0020
0000
1030
,  // measure 32
0000
1000
0100
1000
,  // measure 33
0100
0020
0000
0031
,  // measure 34
0000
0001
0010
0001
,  // measure 35
0010
0002
0000
0103
,  // measure 36
0000
2001
0000
3001
,  // measure 37
0000
0102
0000
0103
,  // measure 38
0000
0120
0000
0130
,  // measure 39
0000
2200
0000
0000
,  // measure 40
3300
0001
1000
0010
,  // measure 41
1000
0100
0100
1000
,  // measure 42
0000
0001
0010
0100
,  // measure 43
0010
0001
1000
0010
,  // measure 44
0000
2000
0000
3001
,  // measure 45
0000
0100
0001
0100
,  // measure 46
0000
0002
0000
0013
,  // measure 47
0000
0001
1000
0100
,  // measure 48
1000
0002
0000
0013
,  // measure 49
0000
0001
0100
0010
,  // measure 50
0100
0002
0000
0013
,  // measure 51
0000
0100
1000
0001
,  // measure 52
1000
0020
0000
1030
,  // measure 53
0000
0100
1000
0001
,  // measure 54
1000
0200
0000
0310
,  // measure 55
0000
0001
0100
0010
,  // measure 56
0100
0002
0000
2003
,  // measure 57
0000
3020
0000
1030
,  // measure 58
0001
2000
0000
3002
,  // measure 59
0000
0023
0000
0031
,  // measure 60
0100
0002
0000
0023
,  // measure 61
0000
0230
0000
1300
,  // measure 62
0001
2000
0000
3010
,  // measure 63
0000
1000
0100
1000
,  // measure 64
0001
0020
0000
0000
,  // measure 65
0000
0032
0000
0000
,  // measure 66
0000
2003
0000
0000
,  // measure 67
0000
3002
0000
0000
,  // measure 68
0000
0203
0000
0000
,  // measure 69
0000
0302
0000
0000
,  // measure 70
0000
0023
0000
0000
,  // measure 71
0000
0032
0000
0000
,  // measure 72
0000
1003
0000
0001
,  // measure 73
0000
1000
0000
1000
,  // measure 74
0000
0010
0000
0100
,  // measure 75
0000
0010
0000
0010
,  // measure 76
0000
1000
0000
1000
,  // measure 77
0000
0001
0000
0001
,  // measure 78
0000
0020
0000
0000
,  // measure 79
0000
0032
0000
0000
,  // measure 80
0000
0000
0000
0000
,  // measure 81
1003
0002
0000
0003
,  // measure 82
0000
0000
0000
0000
,  // measure 83
0100
0210
0000
0310
,  // measure 84
0000
1000
0100
0010
,  // measure 85
0001
2000
0000
3010
,  // measure 86
0000
1000
0001
1000
,  // measure 87
0001
0020
0000
0031
,  // measure 88
0000
0100
0001
0010
,  // measure 89
0100
1000
0001
0010
,  // measure 90
0001
0010
0100
1000
,  // measure 91
0100
0010
0001
0100
,  // measure 92
0001
1000
0100
0010
,  // measure 93
0100
2000
0000
3001
,  // measure 94
0000
0010
0001
0100
,  // measure 95
0001
2000
0000
3100
,  // measure 96
0000
0010
0001
1000
,  // measure 97
0001
0100
0100
0001
,  // measure 98
0001
0010
0010
0001
,  // measure 99
1000
0001
0001
0100
,  // measure 100
0100
0001
0001
1000
,  // measure 101
0100
0010
0010
0100
,  // measure 102
0100
1000
1000
0001
,  // measure 103
0100
0001
0001
1000
,  // measure 104
1000
0001
0100
0001
,  // measure 105
0001
0000
0000
0000
;

//---------------dance-single - ----------------
#NOTES:
     dance-single:
     :
     Beginner:
     3:
     0.181224,0.215485,0.041143,0.370284,0.000000,185.000000,179.000000,6.000000,54.000000,0.000000,0.000000,0.181224,0.215485,0.041143,0.370284,0.000000,185.000000,179.000000,6.000000,54.000000,0.000000,0.000000:
// measure 0
0000
0000
0000
0000
,  // measure 1
0000
0000
0000
0000
,  // measure 2
0000
0000
0000
0000
,  // measure 3
0000
0000
0000
0000
,  // measure 4
0000
0000
0000
0000
,  // measure 5
0000
0000
0000
0000
,  // measure 6
0000
0000
0000
0000
,  // measure 7
0000
0000
0000
0000
,  // measure 8
0000
1000
0000
0001
,  // measure 9
0000
0100
0000
0100
,  // measure 10
0000
0010
0000
0020
,  // measure 11
0000
0130
0000
0200
,  // measure 12
0000
0301
0000
0001
,  // measure 13
0000
1000
0000
1000
,  // measure 14
0000
0010
0000
0010
,  // measure 15
0000
0020
0000
0130
,  // measure 16
0000
2000
0000
3001
,  // measure 17
0000
0002
0000
1003
,  // measure 18
0000
0010
0000
0100
,  // measure 19
0000
1000
0000
1000
,  // measure 20
0000
0001
0000
0100
,  // measure 21
0000
0001
0000
0001
,  // measure 22
0000
1000
0000
1000
,  // measure 23
0000
0020
0000
1030
,  // measure 24
0000
1000
0000
0001
,  // measure 25
0000
0020
0000
0031
,  // measure 26
0000
0100
0000
0001
,  // measure 27
0000
2000
0000
3010
,  // measure 28
0000
2020
3030
0000
,  // measure 29
0000
0001
0000
0001
,  // measure 30
0000
2002
0000
3003
,  // measure 31
0000
0010
0000
0010
,  // measure 32
0000
1000
0000
1000
,  // measure 33
0000
0002
0000
0013
,  // measure 34
0000
0100
0000
0100
,  // measure 35
0000
0020
0000
0130
,  // measure 36
0000
2020
0000
3030
,  // measure 37
0000
0202
0000
0303
,  // measure 38
0000
0010
0000
0010
,  // measure 39
0000
2000
0000
0000
,  // measure 40
0000
3001
0000
0001
,  // measure 41
0000
0010
0000
0001
,  // measure 42
0000
0010
0000
0010
,  // measure 43
0000
0100
0000
0100
,  // measure 44
0000
2000
0000
3001
,  // measure 45
0000
0100
0000
0100
,  // measure 46
0000
0020
0000
0100
,  // measure 47
0000
0130
0000
0001
,  // measure 48
0000
1000
0000
1000
,  // measure 49
0000
0001
1000
0001
,  // measure 50
0000
0010
0000
0010
,  // measure 51
0000
0001
0100
0001
,  // measure 52
0000
2000
0000
3010
,  // measure 53
0000
1000
0100
1000
,  // measure 54
0000
0002
0000
0013
,  // measure 55
0000
0100
0000
0100
,  // measure 56
0000
0002
0000
1003
,  // measure 57
0000
2000
0000
3001
,  // measure 58
0000
0020
0000
1030
,  // measure 59
0000
2000
0000
3100
,  // measure 60
0000
0002
0000
0013
,  // measure 61
0000
0200
0000
0301
,  // measure 62
0000
0010
0000
0010
,  // measure 63
0000
2000
0000
3100
,  // measure 64
0000
0002
0000
0000
,  // measure 65
0000
2003
0000
0000
,  // measure 66
0000
3020
0000
0000
,  // measure 67
0000
0230
0000
0000
,  // measure 68
0000
0302
0000
0000
,  // measure 69
0000
0023
0000
0000
,  // measure 70
0000
0230
0000
0000
,  // measure 71
0000
2300
0000
0000
,  // measure 72
0000
3001
0000
0001
,  // measure 73
0000
0002
0000
0000
,  // measure 74
0000
0103
0000
0100
,  // measure 75
0000
0200
0000
0000
,  // measure 76
0000
0310
0000
0010
,  // measure 77
0000
1000
0000
1000
,  // measure 78
0000
0002
0000
0000
,  // measure 79
0000
0203
0000
0000
,  // measure 80
0000
0301
0000
0001
,  // measure 81
0000
1001
0000
0000
,  // measure 82
0000
0000
0000
0000
,  // measure 83
0000
1010
0000
0010
,  // measure 84
0000
0100
0000
0100
,  // measure 85
0000
0002
0000
0013
,  // measure 86
0000
2000
0000
3100
,  // measure 87
0000
0020
0000
1030
,  // measure 88
0000
1000
0000
0001
,  // measure 89
1000
0001
0000
0010
,  // measure 90
0000
0100
0000
0010
,  // measure 91
0000
0001
0000
1000
,  // measure 92
0000
0010
0000
1000
,  // measure 93
0000
2000
0000
3001
,  // measure 94
0000
0100
0001
0100
,  // measure 95
0000
0020
0000
1030
,  // measure 96
0000
1000
0000
0001
,  // measure 97
0000
0020
0000
0130
,  // measure 98
0000
0002
0000
0013
,  // measure 99
0000
2000
0000
3100
,  // measure 100
0000
0020
0000
1030
,  // measure 101
0000
0200
0000
0301
,  // measure 102
0000
0002
0000
1003
,  // measure 103
0000
0200
0000
1300
,  // measure 104
0000
1000
0000
0010
;
