#TITLE:-BPM = BPM + 1;
#SUBTITLE:;
#ARTIST:Trina Lydia;
#TITLETRANSLIT:;
#SUBTITLETRANSLIT:;
#ARTISTTRANSLIT:;
#GENRE:;
#CREDIT:;
#BANNER:AV.avi;
#BACKGROUND:bg.png;
#LYRICSPATH:;
#CDTITLE:;
#MUSIC:audio.ogg;
#OFFSET:0.000000;
#SAMPLESTART:56.002880;
#SAMPLELENGTH:14.999989;
#SELECTABLE:YES;
#DISPLAYBPM:*;
#BPMS:0.000000=100.000000
,6.000000=101.000000
,8.000000=102.000000
,10.000000=103.000000
,12.000000=104.000000
,14.000000=105.000000
,16.000000=106.000000
,18.000000=107.000000
,20.000000=108.000000
,22.000000=109.000000
,24.000000=110.000000
,26.000000=111.000000
,28.000000=112.000000
,30.000000=113.000000
,32.000000=114.000000
,34.000000=115.000000
,36.000000=116.000000
,38.000000=117.000000
,40.000000=118.000000
,42.000000=119.000000
,44.000000=120.000000
,46.000000=121.000000
,48.000000=122.000000
,50.000000=123.000000
,52.000000=124.000000
,54.000000=124.999992
,56.000000=125.999992
,58.000000=126.999992
,60.000000=128.000000
,62.000000=129.000000
,64.000000=130.000000
,66.000000=131.000000
,68.000000=132.000000
,70.000000=133.000000
,72.000000=134.000000
,74.000000=135.000000
,76.000000=136.000000
,78.000000=137.000000
,80.000000=138.000000
,82.000000=139.000000
,84.000000=140.000000
,86.000000=141.000000
,88.000000=142.000000
,90.000000=143.000000
,92.000000=144.000000
,94.000000=145.000000
,96.000000=146.000000
,98.000000=147.000000
,100.000000=148.000000
,102.000000=149.000000
,104.000000=150.000000
,106.000000=151.000000
,108.000000=152.000000
,110.000000=153.000000
,112.000000=154.000000
,114.000000=155.000000
,116.000000=156.000000
,118.000000=157.000000
,120.000000=158.000000
,122.000000=159.000000
,124.000000=160.000000
,126.000000=161.000000
,128.000000=162.000000
,130.000000=163.000000
,132.000000=164.000000
,134.000000=165.000000
,136.000000=166.000000
,138.000000=167.000000
,140.000000=168.000000
,142.000000=169.000000
,144.000000=170.000000
,146.000000=171.000000
,148.000000=172.000000
,150.000000=173.000000
,152.000000=174.000000
,154.000000=175.000000
,156.000000=176.000000
,158.000000=177.000000
,160.000000=178.000000
,162.000000=179.000000
,164.000000=180.000000
,166.000000=181.000000
,168.000000=182.000000
,170.000000=183.000000
,172.000000=184.000000
,174.000000=185.000000
,176.000000=186.000000
,178.000000=187.000000
,180.000000=188.000000
,182.000000=189.000000
,184.000000=190.000000
,186.000000=191.000000
,188.000000=192.000000
,190.000000=193.000000
,192.000000=194.000000
,194.000000=195.000000
,196.000000=196.000000
,198.000000=197.000000
,200.000000=198.000000
,202.000000=199.000000
,204.000000=200.000000
,206.000000=201.000000
,208.000000=202.000000
,210.000000=203.000000
,212.000000=204.000000
,214.000000=205.000000
,216.000000=206.000000
,218.000000=207.000000
,220.000000=208.000000
,222.000000=209.000000
,224.000000=210.000000
,226.000000=211.000000
,228.000000=212.000000
,230.000000=213.000000
,232.000000=214.000000
,234.000000=215.000000
,236.000000=216.000000
,238.000000=217.000000
,240.000000=218.000000
,242.000000=219.000000
,244.000000=220.000000
,246.000000=221.000000
,248.000000=222.000000
,250.000000=223.000000
,252.000000=224.000000
,254.000000=225.000000
,256.000000=226.000000
,258.000000=227.000000
,260.000000=228.000000
,262.000000=229.000000
,264.000000=230.000000
,266.000000=231.000000
,268.000000=232.000000
,270.000000=233.000000
,272.000000=234.000000
,274.000000=235.000000
,276.000000=236.000000
,278.000000=237.000000
,280.000000=238.000000
,282.000000=239.000000
,284.000000=240.000000
,286.000000=241.000015
,288.000000=242.000000
,290.000000=243.000015
,292.000000=244.000000
,294.000000=245.000015
,296.000000=246.000000
,298.000000=247.000000
,300.000000=248.000000
,302.000000=249.000000
,304.000000=249.999985
,306.000000=251.000000
,308.000000=251.999985
,310.000000=253.000000
,312.000000=253.999985
,314.000000=255.000000
,316.000000=256.000000
,318.000000=257.000000
,320.000000=258.000000
,322.000000=259.000000
,324.000000=260.000000
,326.000000=261.000000
,328.000000=262.000000
,330.000000=263.000000
,332.000000=264.000000
,334.000000=265.000000
,336.000000=266.000000
,338.000000=267.000000
,340.000000=268.000000
,342.000000=269.000000
,344.000000=270.000000
,346.000000=271.000000
,348.000000=272.000000
,350.000000=273.000000
,352.000000=274.000000
,354.000000=275.000000
,356.000000=276.000000
,358.000000=277.000000
,360.000000=278.000000
,362.000000=279.000000
,364.000000=280.000000
,366.000000=281.000000
,368.000000=282.000000
,370.000000=283.000000
,372.000000=284.000000
,374.000000=285.000000
,376.000000=286.000000
,378.000000=287.000000
,380.000000=288.000000
,382.000000=289.000000
,384.000000=290.000000
,386.000000=291.000000
,388.000000=292.000000
,390.000000=293.000000
,392.000000=294.000000
,394.000000=295.000000
,396.000000=296.000000
,398.000000=297.000000
,400.000000=298.000000
,402.000000=299.000000
,404.000000=300.000000
;
#STOPS:
;
#BGCHANGES:0.000=MV.avi=1.000=1=0=1===CrossFade==,
99999=-nosongbg-=1.000=0=0=0 // don't automatically add -songbackground-
;
#KEYSOUNDS:;
#ATTACKS:;

//---------------dance-single - ----------------
#NOTES:
     dance-single:
     :
     Challenge:
     17:
     0.703076,0.923244,0.212072,0.248636,0.464365,673.000000,644.000000,29.000000,34.000000,0.000000,0.000000,0.703076,0.923244,0.212072,0.248636,0.464365,673.000000,644.000000,29.000000,34.000000,0.000000,0.000000:
// measure 0
0000
0000
0000
0000
,  // measure 1
0000
0000
0000
0000
,  // measure 2
0000
0000
0000
0000
,  // measure 3
0000
0000
0000
0000
,  // measure 4
0000
0000
0000
0000
,  // measure 5
1000
0001
0100
0010
0110
0000
0001
1000
,  // measure 6
0010
1000
0100
0010
1001
0000
1000
0010
,  // measure 7
1000
0001
0010
0100
1001
0000
0010
0100
,  // measure 8
0020
0000
1030
0001
2000
0000
3010
0100
,  // measure 9
0001
1000
0010
0000
0100
0000
1000
0000
0100
0000
0001
0000
0100
0001
0000
0001
,  // measure 10
1000
0100
0010
0000
0001
0000
1000
0000
0001
0010
0100
0000
0010
0000
0001
0000
,  // measure 11
1000
0100
0010
0000
0001
0000
0100
0000
0001
0000
1000
0000
0010
0000
0100
0000
,  // measure 12
0010
0100
0001
0000
1000
0010
1000
0000
0001
0100
0001
0000
1000
0000
0010
0000
,  // measure 13
0010
1000
0001
1000
0100
0000
1000
0000
0001
0000
1000
0000
0001
0010
0000
0010
,  // measure 14
0001
1000
0001
0010
0001
0000
1000
0000
0001
0100
0001
0000
1000
0000
1000
0000
,  // measure 15
0001
0010
0100
1000
0001
0000
0010
0000
0100
1000
0100
0000
0010
0000
0001
0000
,  // measure 16
1000
0100
1000
0000
0001
0010
0001
0000
1000
0010
1000
0000
0001
0000
0100
0000
,  // measure 17
0001
0010
0000
0001
0010
0000
0001
0010
0000
0001
0010
0000
0100
0000
0100
0000
,  // measure 18
1000
0001
0000
1000
0001
0000
1000
0001
0000
1000
0001
0000
0100
0000
0100
0000
,  // measure 19
0010
1000
0000
0010
1000
0000
0010
1000
0000
0010
1000
0000
0001
0000
0001
0000
,  // measure 20
1000
0100
0000
1000
0100
0000
1000
0100
2000
0000
0000
0000
3200
0000
0000
0000
,  // measure 21
0310
0001
0010
0000
0001
0000
1000
0001
1000
0000
0010
0000
0100
0000
0100
0000
,  // measure 22
0001
0010
0100
0000
1000
0000
0100
0010
0001
0000
1000
0000
0010
0000
0010
0000
,  // measure 23
1000
0100
0001
0000
0100
0000
0010
0100
1000
0000
0001
0000
0010
0000
0010
0000
,  // measure 24
0001
0100
1000
0000
0100
0000
0010
0100
0002
0000
0000
0000
2003
0000
0000
0000
,  // measure 25
3001
0100
1000
0100
0001
0000
0001
0100
1000
0100
0001
0000
1000
0000
1000
0000
,  // measure 26
0010
0100
1000
0100
0010
0000
0010
0100
1000
0100
0010
0000
0100
0000
0100
0000
,  // measure 27
0001
1000
0010
1000
0001
0000
0001
1000
0010
1000
0001
0000
1000
0000
1000
0000
,  // measure 28
0001
0100
0010
0100
0001
0000
0001
0100
0010
0000
0000
0010
0000
0000
0010
0000
,  // measure 29
1000
0100
0000
1000
0010
0000
1000
0100
0000
1000
0010
0000
1000
0000
1000
0000
,  // measure 30
0001
0010
0000
0001
0100
0000
0001
0010
0000
0001
0100
0000
0001
0000
0001
0000
,  // measure 31
0100
0010
0000
1000
0001
0000
0100
0010
0000
1000
0001
0000
1000
0000
1000
0000
,  // measure 32
0001
0000
0100
0000
0001
0000
0100
0000
0001
1000
0001
1000
0001
0000
1000
0000
,  // measure 33
0010
0100
1000
0000
0100
0000
0001
0000
0100
0000
0010
1000
0001
0000
1000
0000
,  // measure 34
0100
0000
1000
0001
0010
0000
0001
0000
0100
0000
0010
1000
0000
1000
0001
0000
,  // measure 35
0100
0000
1000
0000
0100
0000
0010
0000
2000
0000
0000
0000
3001
0100
0001
0000
,  // measure 36
1000
0000
0001
0000
0010
0000
0001
0000
0100
0000
0010
0000
1000
0001
1000
0000
,  // measure 37
0002
0000
0000
0000
1003
0000
0010
0000
1000
0000
0010
0100
0000
0100
0010
0000
,  // measure 38
1000
0000
0001
0100
0000
0100
0001
0100
0010
0000
1000
0000
0001
1000
0001
0000
,  // measure 39
0200
0000
0000
0000
0310
1000
0010
0000
0100
0000
0001
0000
1000
0000
0100
0000
,  // measure 40
1001
0000
0000
0001
0000
0000
0001
0000
1000
0000
0001
0000
0100
0010
1000
0000
,  // measure 41
0001
0100
0001
1000
0100
0010
0001
1000
,  // measure 42
0001
1000
0001
0000
0100
0000
0010
1000
0001
0000
0100
0000
0010
1000
0001
1000
,  // measure 43
0010
0000
1000
0000
0100
0000
0010
0000
0001
0000
0100
0000
0001
1000
0001
0000
,  // measure 44
0100
0000
0000
0100
0000
0000
0100
0000
0101
0000
0000
0000
0010
0000
0100
0000
,  // measure 45
0010
1000
0100
0010
0001
1000
0010
1000
,  // measure 46
0001
0010
0000
0001
0010
0000
0001
0010
0001
0000
1000
0000
0010
0000
0100
0000
,  // measure 47
0001
1000
0001
0000
0100
0000
0010
0000
1000
0001
0100
0000
0010
0000
0100
0000
,  // measure 48
0001
1000
0001
1000
0001
0000
0100
0000
0010
0100
0000
0010
0100
0000
0010
0000
,  // measure 49
2010
0000
0000
0000
,  // measure 50
3002
0000
0000
0000
,  // measure 51
0023
0000
0000
0000
,  // measure 52
0230
0000
2300
0000
,  // measure 53
3002
0000
0000
0000
,  // measure 54
0203
0000
0320
0000
,  // measure 55
2030
0000
3002
0000
,  // measure 56
2003
0000
3020
0000
,  // measure 57
1030
1000
1000
1000
,  // measure 58
0001
0001
0001
0001
,  // measure 59
0100
0100
0100
0100
,  // measure 60
0010
0000
0000
0000
0010
0000
0000
0000
0010
0000
0100
0000
0001
1000
0001
1000
,  // measure 61
0002
0000
0000
0000
0000
0000
0000
0000
0000
0000
0000
0000
0000
0000
0000
0000
0000
0000
0000
0000
0000
0000
0000
0000
0000
0000
0000
0000
0000
0000
0000
0000
0000
0000
0000
0000
0000
0000
0000
0000
0000
0000
0000
0000
0000
0000
0000
0003
0011
0000
0000
0000
0000
0000
0000
0000
0000
0000
0000
0000
0000
0000
0000
0000
0000
0000
0000
0000
0000
0000
0000
0000
0000
0000
0000
0000
0000
0000
0000
0000
0000
0000
0000
0000
0000
0000
0000
0000
0000
0000
0000
0000
0000
0000
0000
0000
2000
0000
0000
0000
0000
0000
0000
0000
0000
0000
0000
0000
0000
0000
0000
0000
0000
0000
0000
0000
0000
0000
0000
0000
0000
0000
0000
0000
0000
0000
0000
0000
0000
0000
0000
0000
0000
0000
0000
0000
0000
0000
0000
0000
0000
0000
0000
3000
1010
0000
0000
0000
0000
0000
0000
0000
0000
0000
0000
0000
0000
0000
0000
0000
0000
0000
0000
0000
0000
0000
0000
0000
0000
0000
0000
0000
0000
0000
0000
0000
0000
0000
0000
0000
0000
0000
0000
0000
0000
0000
0000
0000
0000
0000
0000
0000
,  // measure 62
0002
0000
0000
0000
0000
0000
0000
0000
0000
0000
0000
0000
0000
0000
0000
0000
0000
0000
0000
0000
0000
0000
0000
0000
0000
0000
0000
0000
0000
0000
0000
0000
0000
0000
0000
0000
0000
0000
0000
0000
0000
0000
0000
0000
0000
0000
0000
0003
0101
0000
0000
0000
0000
0000
0000
0000
0000
0000
0000
0000
0000
0000
0000
0000
0000
0000
0000
0000
0000
0000
0000
0000
0000
0000
0000
0000
0000
0000
0000
0000
0000
0000
0000
0000
0000
0000
0000
0000
0000
0000
0000
0000
0000
0000
0000
0000
2000
0000
0000
0000
0000
0000
0000
0000
0000
0000
0000
0000
0000
0000
0000
0000
0000
0000
0000
0000
0000
0000
0000
0000
0000
0000
0000
0000
0000
0000
0000
0000
0000
0000
0000
0000
0000
0000
0000
0000
0000
0000
0000
0000
0000
0000
0000
3000
1100
0000
0000
0000
0000
0000
0000
0000
0000
0000
0000
0000
0000
0000
0000
0000
0000
0000
0000
0000
0000
0000
0000
0000
0000
0000
0000
0000
0000
0000
0000
0000
0000
0000
0000
0000
0000
0000
0000
0000
0000
0000
0000
0000
0000
0000
0000
0000
,  // measure 63
0020
0000
0000
0000
0000
0000
0000
0000
0000
0000
0000
0000
0000
0000
0000
0000
0000
0000
0000
0000
0000
0000
0000
0000
0000
0000
0000
0000
0000
0000
0000
0000
0000
0000
0000
0000
0000
0000
0000
0000
0000
0000
0000
0000
0000
0000
0000
0030
0110
0000
0000
0000
0000
0000
0000
0000
0000
0000
0000
0000
0000
0000
0000
0000
0000
0000
0000
0000
0000
0000
0000
0000
0000
0000
0000
0000
0000
0000
0000
0000
0000
0000
0000
0000
0000
0000
0000
0000
0000
0000
0000
0000
0000
0000
0000
0000
2000
0000
0000
0000
0000
0000
0000
0000
0000
0000
0000
0000
0000
0000
0000
0000
0000
0000
0000
0000
0000
0000
0000
0000
0000
0000
0000
0000
0000
0000
0000
0000
0000
0000
0000
0000
0000
0000
0000
0000
0000
0000
0000
0000
0000
0000
0000
3000
1001
0000
0000
0000
0000
0000
0000
0000
0000
0000
0000
0000
0000
0000
0000
0000
0000
0000
0000
0000
0000
0000
0000
0000
0000
0000
0000
0000
0000
0000
0000
0000
0000
0000
0000
0000
0000
0000
0000
0000
0000
0000
0000
0000
0000
0000
0000
0000
,  // measure 64
0200
0000
0000
0000
0000
0000
0000
0000
0000
0000
0000
0000
0000
0000
0000
0000
0000
0000
0000
0000
0000
0000
0000
0000
0000
0000
0000
0000
0000
0000
0000
0000
0000
0000
0000
0000
0000
0000
0000
0000
0000
0000
0000
0000
0000
0000
0000
0300
0110
0000
0000
0000
0000
0000
0000
0000
0000
0000
0000
0000
0000
0000
0000
0000
0000
0000
0000
0000
0000
0000
0000
0000
0000
0000
0000
0000
0000
0000
0000
0000
0000
0000
0000
0000
0000
0000
0000
0000
0000
0000
0000
0000
0000
0000
0000
0000
0001
0000
0000
0000
0000
0000
0000
0000
0000
0000
0000
0000
0000
0000
0000
0000
0000
0000
0000
0000
0000
0000
0000
0000
1000
0000
0000
0000
0000
0000
0000
0000
0000
0000
0000
0000
0000
0000
0000
0000
0000
0000
0000
0000
0000
0000
0000
0000
0010
0000
0000
0000
0000
0000
0000
0000
0000
0000
0000
0000
0000
0000
0000
0000
0000
0000
0000
0000
0000
0000
0000
0000
0100
0000
0000
0000
0000
0000
0000
0000
0000
0000
0000
0000
0000
0000
0000
0000
0000
0000
0000
0000
0000
0000
0000
0000
,  // measure 65
0101
0000
0000
1000
0000
0000
0101
0000
0001
0000
0000
0000
1010
0000
0000
0000
,  // measure 66
1001
0000
0000
0100
0000
0000
1001
0000
0001
0000
0010
0000
0100
0000
0000
0000
,  // measure 67
0011
0000
0000
0001
0000
0000
0011
0000
0010
0000
0000
0000
1001
0000
0000
0000
,  // measure 68
0100
0000
0000
0010
0000
0000
0100
0000
0101
0000
0000
0000
1001
0000
0000
0000
,  // measure 69
1000
0010
1000
0100
1000
0010
1000
0100
,  // measure 70
0010
0001
0010
1000
0010
0001
0010
0100
,  // measure 71
1000
0100
1000
0000
0001
0100
0001
0000
1000
0010
1000
0000
0001
0010
0001
0000
,  // measure 72
4000
0000
0000
0000
,  // measure 73
3001
0000
0101
0000
0010
0000
1000
0010
,  // measure 74
1000
0000
1001
0000
0010
0000
1000
0010
,  // measure 75
1000
0001
0010
1000
0010
0001
1000
0001
,  // measure 76
1000
0000
0011
0000
0100
0001
0100
0001
,  // measure 77
1000
0010
1000
0000
0101
0000
0010
0000
,  // measure 78
1000
0001
1000
0000
1010
0000
0001
0000
,  // measure 79
1000
0100
0010
0100
0010
0001
0010
0100
,  // measure 80
1000
0000
1001
0000
0100
0010
2000
0000
,  // measure 81
3001
0000
0010
0000
0100
0000
0010
0000
0001
0000
1000
0000
0010
0000
1000
0001
,  // measure 82
1000
0010
1000
0100
1000
0001
0010
0001
,  // measure 83
1000
0000
0100
0000
0001
0000
1000
0000
0010
0000
0001
0000
1000
0000
0010
0100
,  // measure 84
0010
1000
0001
0010
0001
1000
0010
0100
,  // measure 85
0001
0000
1000
0000
0001
0000
1000
0000
0100
0000
1000
0000
0001
1000
0001
0000
,  // measure 86
0100
0010
0100
0010
1000
0001
0010
0100
,  // measure 87
1000
0001
1000
0001
1000
0000
0000
0000
0010
0100
0010
0100
0010
0000
0000
0000
,  // measure 88
1000
0000
0001
0000
0100
0000
0001
0000
0100
0010
0100
0010
1000
0001
1000
0001
,  // measure 89
2000
0000
0000
0000
,  // measure 90
0000
0000
0000
0000
,  // measure 91
3200
0000
0000
0000
,  // measure 92
0000
0000
0000
0000
,  // measure 93
0320
0000
0000
0000
,  // measure 94
0000
0000
0000
0000
,  // measure 95
0032
0000
0000
0000
,  // measure 96
0000
0000
0000
0000
,  // measure 97
2003
0000
0000
0000
,  // measure 98
0000
0000
0000
0000
,  // measure 99
0000
0000
0000
0000
,  // measure 100
0000
0000
0000
0000
,  // measure 101
3000
0000
0000
0000
;

//---------------dance-single - ----------------
#NOTES:
     dance-single:
     :
     Hard:
     13:
     0.541149,0.738596,0.175508,0.468021,0.179164,518.000000,494.000000,24.000000,64.000000,0.000000,0.000000,0.541149,0.738596,0.175508,0.468021,0.179164,518.000000,494.000000,24.000000,64.000000,0.000000,0.000000:
// measure 0
0000
0000
0000
0000
,  // measure 1
0000
0000
0000
0000
,  // measure 2
0000
0000
0000
0000
,  // measure 3
0000
0000
0000
0000
,  // measure 4
0000
0000
0000
0000
,  // measure 5
1000
0100
0010
0000
1001
0000
0200
0000
,  // measure 6
0310
1000
0001
0000
1001
0000
0200
0000
,  // measure 7
0301
1000
0100
0000
1100
0000
0001
0010
,  // measure 8
0001
0000
1000
0001
1000
0100
0020
0000
,  // measure 9
0031
0100
1000
0000
1001
0000
0010
0100
,  // measure 10
0001
0010
0001
0000
1001
0000
0010
1000
,  // measure 11
0001
1000
0100
0000
1100
0000
0010
1000
,  // measure 12
0002
0010
0023
0100
0230
1000
2300
0000
,  // measure 13
3001
0100
0001
0000
1000
0000
0000
0000
1001
0000
0000
0000
0010
0000
0100
0000
,  // measure 14
0001
1000
0001
0000
0100
0000
0000
0000
1001
0000
0000
0000
0100
0000
0010
0000
,  // measure 15
1000
0001
1000
0000
0010
0000
0000
0000
1100
0000
0000
0000
0001
0000
1000
0000
,  // measure 16
0002
0010
0023
0100
0230
1000
2300
0000
,  // measure 17
3001
0010
0000
0001
0010
0000
0001
0010
0000
0001
0010
0000
0002
0000
0000
0000
,  // measure 18
1003
0100
0000
1000
0100
0000
1000
0100
0000
1000
0100
0000
2000
0000
0000
0000
,  // measure 19
3010
0100
0000
0010
0100
0000
0010
0100
0000
0010
0100
0000
0002
0000
0000
0000
,  // measure 20
1003
0010
0000
1000
0010
0000
1000
0000
0020
0000
0000
0000
0230
0000
0000
0000
,  // measure 21
0301
0010
1000
0001
0100
1000
0002
0000
,  // measure 22
1003
0100
0001
1000
0010
0001
2000
0000
,  // measure 23
3001
0010
0100
0010
0100
1000
0020
0000
,  // measure 24
1030
0100
0010
0100
0020
0000
0032
0000
,  // measure 25
1003
0100
1000
0000
0010
0000
0100
0001
0100
0000
0010
0000
0200
0000
0000
0000
,  // measure 26
0301
0010
0001
0000
0100
0000
0010
1000
0010
0000
0100
0000
0002
0000
0000
0000
,  // measure 27
1003
0100
0010
0000
0001
0000
0010
0100
1000
0000
0001
0000
0200
0000
0000
0000
,  // measure 28
0301
1000
0010
0000
0100
0000
0010
1000
0002
0000
0000
0000
0203
0000
0000
0000
,  // measure 29
0310
0000
0000
0010
0000
0000
1000
0000
0000
1000
0000
0000
0001
0000
0001
0000
,  // measure 30
0100
0000
0000
0100
0000
0000
0010
0000
0000
0010
0000
0000
1000
0000
1000
0000
,  // measure 31
0001
0000
0000
0001
0000
0000
0010
0000
0000
0010
0000
0000
0001
0000
0001
0000
,  // measure 32
1000
0000
0100
0000
1000
0000
0100
0000
1000
0001
1000
0000
0010
0000
0100
0000
,  // measure 33
0102
0000
1003
0100
0020
0000
0031
1000
,  // measure 34
0020
0000
0000
0000
1030
0000
0001
0000
1000
0000
0010
0100
0000
0100
0010
0000
,  // measure 35
2000
0000
3001
0010
0002
0000
1003
0100
,  // measure 36
0010
0000
0100
0000
1000
0000
0001
0000
0010
0000
0001
0000
0100
0010
0100
0000
,  // measure 37
0002
0000
0000
0000
1003
0000
0010
0000
1000
0000
0001
0100
0000
0100
0001
0000
,  // measure 38
1000
0000
0010
1000
0000
1000
0010
0000
0100
0000
0001
0000
0010
0000
0001
0000
,  // measure 39
1000
0000
0000
0000
0001
0100
0001
0000
1000
0000
0100
0000
0010
0000
0001
0000
,  // measure 40
1000
0000
0000
1000
0000
0000
1000
0000
0010
0000
0100
0000
0001
1000
0001
0000
,  // measure 41
1000
0100
0001
0100
1000
0010
0100
0001
,  // measure 42
1000
0100
0010
0001
1000
0001
0100
0010
,  // measure 43
1000
0100
0010
0100
0001
0100
0010
0100
,  // measure 44
1000
0000
0000
1000
0000
0000
1000
0000
0002
0000
0000
0000
0203
0000
0000
0000
,  // measure 45
0301
1000
0001
0010
0100
1000
0100
0010
,  // measure 46
0001
0000
0000
0001
0000
0000
0001
0000
1000
0000
0010
0000
0100
0000
0001
0000
,  // measure 47
0100
0010
0100
0000
0001
0000
1000
0000
0010
0100
0010
0000
1000
0000
0010
0000
,  // measure 48
0100
0000
0001
0000
0100
0000
0001
0000
1000
0000
0001
1000
0000
0001
1000
0000
,  // measure 49
0020
0000
0000
0000
,  // measure 50
2030
0000
0000
0000
,  // measure 51
3200
0000
0000
0000
,  // measure 52
2300
0000
3002
0000
,  // measure 53
0203
0000
0000
0000
,  // measure 54
0302
0000
2003
0000
,  // measure 55
3020
0000
0230
0000
,  // measure 56
0302
0000
0023
0000
,  // measure 57
0032
0000
0000
0000
,  // measure 58
0203
0000
0000
0000
,  // measure 59
0302
0000
0000
0000
,  // measure 60
2003
0000
0000
0000
0000
0000
0000
0000
0000
0000
0000
0000
0000
0000
0000
0000
0000
0000
0000
0000
0000
0000
0000
0000
0000
0000
0000
0000
0000
0000
0000
0000
0000
0000
0000
0000
0000
0000
0000
0000
0000
0000
0000
0000
0000
0000
0000
0000
0000
0000
0000
0000
0000
0000
0000
0000
0000
0000
0000
0000
0000
0000
0000
0000
0000
0000
0000
0000
0000
0000
0000
0000
0000
0000
0000
0000
0000
0000
0000
0000
0000
0000
0000
0000
0000
0000
0000
0000
0000
0000
0000
0000
0000
0000
0000
0000
3020
0000
0000
0000
0000
0000
0000
0000
0000
0000
0000
0000
0000
0000
0000
0000
0000
0000
0000
0000
0000
0000
0000
0000
0000
0000
0000
0000
0000
0000
0000
0000
0000
0000
0000
0000
0000
0000
0000
0000
0000
0000
0000
0000
0000
0000
0000
0000
0000
0000
0000
0000
0000
0000
0000
0000
0000
0000
0000
0000
0000
0000
0000
0000
0000
0000
0000
0000
0000
0000
0000
0000
0000
0000
0000
0000
0000
0000
0000
0000
0000
0000
0000
0000
0000
0000
0000
0000
0000
0000
0000
0000
0000
0000
0000
0030
,  // measure 61
0110
1000
1001
0001
,  // measure 62
0101
0100
0110
0010
,  // measure 63
1010
1000
1100
0100
,  // measure 64
0110
0000
0001
1000
0001
0000
1100
0000
,  // measure 65
1001
0000
0000
1001
0000
0000
0100
0000
,  // measure 66
1010
0000
0000
1010
0000
0100
0001
0000
,  // measure 67
1001
0000
0000
1001
0000
0000
0100
0000
,  // measure 68
0010
0000
0000
0010
0000
0000
0010
0000
2000
0000
0000
0000
3002
0000
0000
0000
,  // measure 69
1003
0100
0001
0100
1000
0001
0020
0000
,  // measure 70
0031
0100
1000
0100
0001
1000
0200
0000
,  // measure 71
1300
0100
1000
0010
0100
0001
0010
0001
,  // measure 72
2000
0000
0000
0000
,  // measure 73
3001
0100
0001
0000
1000
0000
0100
0000
,  // measure 74
0010
1000
0001
0000
1000
0000
0010
0000
,  // measure 75
0100
0001
0100
0000
0001
1000
0001
0000
,  // measure 76
1000
0000
0010
0000
1000
0001
1000
0000
,  // measure 77
0001
0100
0001
0000
1000
0000
0010
0000
,  // measure 78
0100
0010
1000
0000
0001
0000
0010
0000
,  // measure 79
0001
1000
0001
0000
1000
0100
1000
0000
,  // measure 80
0010
0000
0100
0000
0001
1000
0002
0000
,  // measure 81
1003
0100
0010
0001
2000
0000
3010
0000
,  // measure 82
0100
0010
0100
0001
0020
0000
0031
0000
,  // measure 83
1000
0100
1000
0001
0100
0001
1000
0100
,  // measure 84
0010
0000
1000
0000
0001
0010
0100
1000
,  // measure 85
0001
0100
0001
0000
1000
0000
0010
0100
,  // measure 86
0001
0000
1000
0000
0001
0010
0100
1000
,  // measure 87
0010
0100
0001
0000
0001
0100
0010
0000
,  // measure 88
1000
0001
1000
0001
0010
0001
0100
0010
,  // measure 89
2000
0000
0000
0000
,  // measure 90
0000
0000
0000
0000
,  // measure 91
3200
0000
0000
0000
,  // measure 92
0000
0000
0000
0000
,  // measure 93
0320
0000
0000
0000
,  // measure 94
0000
0000
0000
0000
,  // measure 95
0032
0000
0000
0000
,  // measure 96
0000
0000
0000
0000
,  // measure 97
2003
0000
0000
0000
,  // measure 98
0000
0000
0000
0000
,  // measure 99
0000
0000
0000
0000
,  // measure 100
0000
0000
0000
0000
,  // measure 101
3000
0000
0000
0000
;

//---------------dance-single - ----------------
#NOTES:
     dance-single:
     :
     Medium:
     9:
     0.366686,0.553947,0.226698,0.073128,0.000000,351.000000,320.000000,31.000000,10.000000,0.000000,0.000000,0.366686,0.553947,0.226698,0.073128,0.000000,351.000000,320.000000,31.000000,10.000000,0.000000,0.000000:
// measure 0
0000
0000
0000
0000
,  // measure 1
0000
0000
0000
0000
,  // measure 2
0000
0000
0000
0000
,  // measure 3
0000
0000
0000
0000
,  // measure 4
0000
0000
0000
0000
,  // measure 5
1000
0000
1001
0000
,  // measure 6
0100
0000
1010
0000
,  // measure 7
0001
0000
0101
0000
,  // measure 8
0010
0000
1010
0000
,  // measure 9
1000
1000
0110
0001
,  // measure 10
0100
0100
1001
0010
,  // measure 11
0001
0001
1100
0001
,  // measure 12
0010
0010
1001
0100
,  // measure 13
1000
0100
0011
1000
,  // measure 14
0100
0001
1001
0100
,  // measure 15
0010
1000
1001
0010
,  // measure 16
0001
0100
1010
1000
,  // measure 17
0001
0000
0000
0001
0000
0000
0001
0000
,  // measure 18
0100
0000
0000
0100
0000
0000
0100
0000
,  // measure 19
0010
0000
0000
0010
0000
0000
0010
0000
,  // measure 20
1000
0000
0000
1000
0002
0000
0203
0000
,  // measure 21
0310
0000
0000
1000
0010
0000
0110
0000
,  // measure 22
0001
0000
0000
0001
1000
0000
0101
0000
,  // measure 23
1000
0000
0000
0100
0010
0000
1001
0000
,  // measure 24
0001
0000
0000
1000
0010
0000
1010
0000
,  // measure 25
1001
0000
0010
0100
0010
0000
1000
0000
,  // measure 26
0100
0000
1000
0100
1000
0000
0010
0000
,  // measure 27
0100
0000
0001
0010
0001
0000
1000
0000
,  // measure 28
0001
0000
0100
0010
0200
0000
0302
0000
,  // measure 29
1003
0000
1000
0000
1010
0000
0100
0001
,  // measure 30
0100
0000
0001
0000
1001
0000
0100
0010
,  // measure 31
0100
0001
0001
1000
,  // measure 32
0100
0000
1000
0000
0001
1000
0001
0100
,  // measure 33
0010
1000
0001
0010
,  // measure 34
0001
0000
0100
0000
0010
1000
0001
1000
,  // measure 35
0010
0100
0001
1000
,  // measure 36
0010
0000
0100
0001
1000
0000
0010
0000
,  // measure 37
0100
0000
0001
0000
1000
0000
0010
0100
,  // measure 38
0001
0000
1000
0010
0100
0000
0001
0000
,  // measure 39
0101
0000
1000
0001
1000
0000
0010
0000
,  // measure 40
0100
0000
0001
0000
1000
0001
1000
0001
,  // measure 41
1000
0100
0010
0001
,  // measure 42
1000
0000
0001
0000
0100
0000
0010
1000
,  // measure 43
0010
0100
0001
1000
,  // measure 44
0100
0000
0010
0000
1001
0000
0001
1000
,  // measure 45
0010
0100
0001
0100
,  // measure 46
0001
1000
0100
0010
,  // measure 47
0001
1000
0001
0000
0100
0010
0100
0000
,  // measure 48
0001
1000
0100
0010
0001
1000
0010
0000
,  // measure 49
0110
0000
0000
0000
,  // measure 50
1000
0000
0000
0000
,  // measure 51
1000
0000
0000
0000
,  // measure 52
0100
0000
0000
0000
,  // measure 53
0010
0000
0000
0000
,  // measure 54
0001
0000
0000
0000
,  // measure 55
1000
0000
0000
0000
,  // measure 56
0001
0000
0000
0000
,  // measure 57
0100
0000
0100
0000
,  // measure 58
0100
0000
0010
0000
,  // measure 59
1000
0000
0001
0000
,  // measure 60
1000
0000
0010
0000
,  // measure 61
1000
1000
0001
0001
,  // measure 62
0100
0100
0010
0010
,  // measure 63
1000
0001
0100
0010
,  // measure 64
1000
0001
0010
0001
,  // measure 65
0101
0000
0000
0101
0000
0000
0000
0000
,  // measure 66
1010
0000
0000
1010
0000
0000
0000
0000
,  // measure 67
0110
0000
0000
0110
0000
0000
0000
0000
,  // measure 68
1000
0000
1000
0000
,  // measure 69
0001
0100
0010
0001
,  // measure 70
1000
0100
0001
1000
,  // measure 71
0010
0100
0010
0100
0001
1000
0001
1000
,  // measure 72
0002
0000
0000
0000
,  // measure 73
1003
0100
0010
0001
,  // measure 74
1000
0001
0100
0010
,  // measure 75
1000
0001
0010
0100
,  // measure 76
0001
0100
1000
0001
,  // measure 77
0100
0001
1000
0010
,  // measure 78
1000
0001
0100
1000
,  // measure 79
0100
0001
1000
0100
,  // measure 80
0010
0001
0100
0010
,  // measure 81
1001
0100
0010
0100
,  // measure 82
1001
0100
0010
0001
,  // measure 83
1000
0000
0001
0000
0100
0000
0001
1000
,  // measure 84
0001
0000
0100
0000
0010
1000
0001
0000
,  // measure 85
1000
0100
0010
0001
,  // measure 86
1001
1000
0010
0100
,  // measure 87
0001
1000
0001
0000
1000
0010
0100
0000
,  // measure 88
0001
0000
1000
0000
0010
0100
0010
0100
,  // measure 89
0020
0000
0000
0000
,  // measure 90
0000
0000
0000
0000
,  // measure 91
2030
0000
0000
0000
,  // measure 92
0000
0000
0000
0000
,  // measure 93
3002
0000
0000
0000
,  // measure 94
0000
0000
0000
0000
,  // measure 95
0023
0000
0000
0000
,  // measure 96
0000
0000
0000
0000
,  // measure 97
0032
0000
0000
0000
,  // measure 98
0000
0000
0000
0000
,  // measure 99
0000
0000
0000
0000
,  // measure 100
0000
0000
0000
0000
,  // measure 101
0003
0000
0000
0000
;

//---------------dance-single - ----------------
#NOTES:
     dance-single:
     :
     Easy:
     5:
     0.178642,0.258508,0.000000,0.138944,0.000000,171.000000,171.000000,0.000000,19.000000,0.000000,0.000000,0.178642,0.258508,0.000000,0.138944,0.000000,171.000000,171.000000,0.000000,19.000000,0.000000,0.000000:
// measure 0
0000
0000
0000
0000
,  // measure 1
0000
0000
0000
0000
,  // measure 2
0000
0000
0000
0000
,  // measure 3
0000
0000
0000
0000
,  // measure 4
0000
0000
0000
0000
,  // measure 5
1000
0000
0100
0000
,  // measure 6
0010
0000
0100
0000
,  // measure 7
0010
0000
0001
0000
,  // measure 8
0010
0000
0100
0000
,  // measure 9
0001
0000
0001
0000
,  // measure 10
1000
0000
1000
0000
,  // measure 11
0100
0000
0100
0000
,  // measure 12
0010
0000
0010
0000
,  // measure 13
0100
0000
0001
0000
,  // measure 14
0100
0000
0010
0000
,  // measure 15
0100
0000
1000
0000
,  // measure 16
0100
0000
0010
0000
,  // measure 17
0002
0000
1003
0000
,  // measure 18
2000
0000
3010
0000
,  // measure 19
0200
0000
0301
0000
,  // measure 20
0002
0000
1003
0000
,  // measure 21
0010
0010
0010
0000
,  // measure 22
0100
0100
0100
0000
,  // measure 23
0001
0001
0001
0000
,  // measure 24
1000
1000
1000
0000
,  // measure 25
0020
0000
1030
0000
,  // measure 26
2000
0000
3001
0000
,  // measure 27
0002
0000
0103
0000
,  // measure 28
0020
0000
1030
0000
,  // measure 29
0001
0100
0001
0000
,  // measure 30
1000
0010
1000
0000
,  // measure 31
0100
0001
0010
0000
,  // measure 32
0001
0010
0100
0000
,  // measure 33
1000
0000
1000
0000
,  // measure 34
0001
0000
0001
0000
,  // measure 35
0010
0000
0010
0000
,  // measure 36
0100
0000
0100
0000
,  // measure 37
0001
0000
0001
0000
,  // measure 38
1000
0000
1000
0000
,  // measure 39
0010
0000
0010
0000
,  // measure 40
0100
0000
0100
0000
,  // measure 41
1000
0000
1000
0000
,  // measure 42
0001
0000
0001
0000
,  // measure 43
0010
0000
0100
0000
,  // measure 44
0010
0000
0100
0000
,  // measure 45
1000
0000
0001
0000
,  // measure 46
1000
0000
0010
0000
,  // measure 47
1000
0000
0100
0000
,  // measure 48
1000
0000
0001
0000
,  // measure 49
2000
0000
0000
0000
,  // measure 50
0000
0000
0000
0000
,  // measure 51
0000
0000
0000
0000
,  // measure 52
0000
0000
0000
0000
,  // measure 53
3002
0000
0000
0000
,  // measure 54
0000
0000
0000
0000
,  // measure 55
0000
0000
0000
0000
,  // measure 56
0000
0000
0000
0000
,  // measure 57
0023
0000
0000
0000
,  // measure 58
2030
0000
0000
0000
,  // measure 59
3002
0000
0000
0000
,  // measure 60
0203
0000
0000
0000
,  // measure 61
0302
0000
0000
0000
,  // measure 62
0023
0000
0000
0000
,  // measure 63
2030
0000
0000
0000
,  // measure 64
3002
0000
0000
0000
,  // measure 65
1003
0000
1000
0000
,  // measure 66
0001
0000
0001
0000
,  // measure 67
0010
0000
0010
0000
,  // measure 68
1000
0000
1000
0000
,  // measure 69
0001
0000
0001
0000
,  // measure 70
0100
0000
0100
0000
,  // measure 71
1000
0000
1000
0000
,  // measure 72
0010
0000
0010
0000
,  // measure 73
1000
0000
0001
0000
,  // measure 74
1000
0000
1000
0000
,  // measure 75
0001
0000
1000
0000
,  // measure 76
0001
0000
0001
0000
,  // measure 77
0010
0000
0001
0000
,  // measure 78
0010
0000
0010
0000
,  // measure 79
0100
0000
0010
0000
,  // measure 80
0100
0000
0100
0000
,  // measure 81
0001
0000
0001
0000
,  // measure 82
1000
0000
1000
0000
,  // measure 83
0010
0000
0010
0000
,  // measure 84
1000
0000
1000
0000
,  // measure 85
0001
0000
0001
0000
,  // measure 86
0100
0000
0100
0000
,  // measure 87
0010
0000
0010
0000
,  // measure 88
0100
0000
0100
0000
,  // measure 89
0001
0000
1000
0000
,  // measure 90
1000
0000
0001
0000
,  // measure 91
1000
0000
0010
0000
,  // measure 92
1000
0000
0001
0000
,  // measure 93
0100
0000
0001
0000
,  // measure 94
0010
0000
0001
0000
,  // measure 95
0100
0000
0010
0000
,  // measure 96
0100
0000
0001
0000
,  // measure 97
2000
0000
0000
0000
,  // measure 98
0000
0000
0000
0000
,  // measure 99
0000
0000
0000
0000
,  // measure 100
0000
0000
0000
0000
,  // measure 101
3000
0000
0000
0000
;

//---------------dance-single - ----------------
#NOTES:
     dance-single:
     :
     Beginner:
     3:
     0.084620,0.184649,0.000000,0.212072,0.000000,81.000000,81.000000,0.000000,29.000000,0.000000,0.000000,0.084620,0.184649,0.000000,0.212072,0.000000,81.000000,81.000000,0.000000,29.000000,0.000000,0.000000:
// measure 0
0000
0000
0000
0000
,  // measure 1
0000
0000
0000
0000
,  // measure 2
0000
0000
0000
0000
,  // measure 3
0000
0000
0000
0000
,  // measure 4
0000
0000
0000
0000
,  // measure 5
0100
0000
0000
0000
,  // measure 6
0010
0000
0000
0000
,  // measure 7
0100
0000
0000
0000
,  // measure 8
0001
0000
0000
0000
,  // measure 9
0010
0000
0000
0000
,  // measure 10
0100
0000
0000
0000
,  // measure 11
1000
0000
0000
0000
,  // measure 12
0001
0000
0000
0000
,  // measure 13
0100
0000
0000
0000
,  // measure 14
0010
0000
0000
0000
,  // measure 15
1000
0000
0000
0000
,  // measure 16
0010
0000
0000
0000
,  // measure 17
0100
0000
0000
0000
,  // measure 18
0100
0000
0000
0000
,  // measure 19
0010
0000
0000
0000
,  // measure 20
0010
0000
0000
0000
,  // measure 21
0100
0000
0000
0000
,  // measure 22
0001
0000
0000
0000
,  // measure 23
0100
0000
0000
0000
,  // measure 24
0001
0000
0000
0000
,  // measure 25
0010
0000
0010
0000
,  // measure 26
0010
0000
0000
0000
,  // measure 27
1000
0000
1000
0000
,  // measure 28
1000
0000
0000
0000
,  // measure 29
0001
0000
0000
0000
,  // measure 30
0001
0000
0000
0000
,  // measure 31
1000
0000
0000
0000
,  // measure 32
1000
0000
0000
0000
,  // measure 33
0020
0000
0000
0000
,  // measure 34
2030
0000
0000
0000
,  // measure 35
3002
0000
0000
0000
,  // measure 36
0203
0000
0000
0000
,  // measure 37
0302
0000
0000
0000
,  // measure 38
0023
0000
0000
0000
,  // measure 39
0032
0000
0000
0000
,  // measure 40
2003
0000
0000
0000
,  // measure 41
3001
0000
0001
0000
,  // measure 42
1000
0000
1000
0000
,  // measure 43
0010
0000
0000
0000
,  // measure 44
0010
0000
0000
0000
,  // measure 45
0100
0000
0000
0000
,  // measure 46
0100
0000
0000
0000
,  // measure 47
0001
0000
0000
0000
,  // measure 48
0001
0000
0000
0000
,  // measure 49
2000
0000
0000
0000
,  // measure 50
0000
0000
0000
0000
,  // measure 51
3002
0000
0000
0000
,  // measure 52
0000
0000
0000
0000
,  // measure 53
0023
0000
0000
0000
,  // measure 54
0000
0000
0000
0000
,  // measure 55
0032
0000
0000
0000
,  // measure 56
0000
0000
0000
0000
,  // measure 57
2003
0000
0000
0000
,  // measure 58
0000
0000
0000
0000
,  // measure 59
3002
0000
0000
0000
,  // measure 60
0000
0000
0000
0000
,  // measure 61
0023
0000
0000
0000
,  // measure 62
0000
0000
0000
0000
,  // measure 63
0032
0000
0000
0000
,  // measure 64
0000
0000
0000
0000
,  // measure 65
0103
0000
0100
0000
,  // measure 66
0100
0000
0000
0000
,  // measure 67
1000
0000
1000
0000
,  // measure 68
1000
0000
0000
0000
,  // measure 69
0001
0000
0001
0000
,  // measure 70
0001
0000
0000
0000
,  // measure 71
0010
0000
0010
0000
,  // measure 72
0010
0000
0000
0000
,  // measure 73
0200
0000
0000
0000
,  // measure 74
0000
0000
0000
0000
,  // measure 75
0302
0000
0000
0000
,  // measure 76
0000
0000
0000
0000
,  // measure 77
2003
0000
0000
0000
,  // measure 78
0000
0000
0000
0000
,  // measure 79
3020
0000
0000
0000
,  // measure 80
0000
0000
0000
0000
,  // measure 81
2030
0000
0000
0000
,  // measure 82
0000
0000
0000
0000
,  // measure 83
3002
0000
0000
0000
,  // measure 84
0000
0000
0000
0000
,  // measure 85
0203
0000
0000
0000
,  // measure 86
0000
0000
0000
0000
,  // measure 87
0302
0000
0000
0000
,  // measure 88
0000
0000
0000
0000
,  // measure 89
2003
0000
0000
0000
,  // measure 90
0000
0000
0000
0000
,  // measure 91
3020
0000
0000
0000
,  // measure 92
0000
0000
0000
0000
,  // measure 93
2030
0000
0000
0000
,  // measure 94
0000
0000
0000
0000
,  // measure 95
3200
0000
0000
0000
,  // measure 96
0000
0000
0000
0000
,  // measure 97
0302
0000
0000
0000
,  // measure 98
0000
0000
0000
0000
,  // measure 99
0000
0000
0000
0000
,  // measure 100
0000
0000
0000
0000
,  // measure 101
0003
0000
0000
0000
;
