#TITLE:Attention;
#SUBTITLE:;
#ARTIST:New Jeans;
#TITLETRANSLIT:;
#SUBTITLETRANSLIT:;
#ARTISTTRANSLIT:;
#GENRE:;
#CREDIT:;
#BANNER:AV.avi;
#BACKGROUND:BG.png;
#LYRICSPATH:;
#CDTITLE:;
#MUSIC:audio.ogg;
#OFFSET:-0.451000;
#SAMPLESTART:62.909000;
#SAMPLELENGTH:15.000000;
#SELECTABLE:YES;
#BPMS:0.000000=105.029999
;
#STOPS:
;
#BGCHANGES:0.000=MV.avi=1.200=1=0=1===CrossFade==,
3.000=MV.avi=1.000=0=0=1=====,
99999=-nosongbg-=1.000=0=0=0 // don't automatically add -songbackground-
;
#KEYSOUNDS:;
#ATTACKS:;

//---------------dance-single - ----------------
#NOTES:
     dance-single:
     :
     Hard:
     11:
     0.415319,0.521644,0.055908,0.519149,0.347430,364.000000,357.000000,7.000000,65.000000,0.000000,1.000000,0.415319,0.521644,0.055908,0.519149,0.347430,364.000000,357.000000,7.000000,65.000000,0.000000,1.000000:
// measure 0
0000
0000
0000
0000
,  // measure 1
0000
0000
0000
0000
,  // measure 2
0000
0000
0000
0000
,  // measure 3
0000
0000
0000
0000
0000
0000
0000
0001
,  // measure 4
0002
0000
1003
0010
0020
0000
0130
0001
,  // measure 5
0002
0000
0013
0100
0200
0000
1300
0000
,  // measure 6
2000
0000
3001
0100
0200
0000
0310
1000
,  // measure 7
2000
0000
3010
0000
0020
0000
1030
0001
,  // measure 8
1002
0000
0000
0000
1003
0000
1000
0100
1000
0000
0010
0100
0010
0000
0100
0000
,  // measure 9
0002
0000
0000
0000
1003
0000
1000
0001
1000
0000
0010
0001
0010
0000
0001
0000
,  // measure 10
0020
0031
0002
1003
,  // measure 11
1000
0010
1000
1010
,  // measure 12
1001
0000
0000
0001
1000
0000
0000
1000
0010
0100
0001
0000
1000
0000
0000
1000
,  // measure 13
0001
0010
0001
0010
0001
0000
1000
0001
1000
0000
1000
0010
1000
0000
0002
0000
,  // measure 14
2003
0000
0010
3000
0100
0000
1001
2000
,  // measure 15
3002
0000
0100
0013
0010
0010
0010
0000
,  // measure 16
0011
0000
0000
1000
0001
0000
0000
1000
0010
0100
0001
1000
0001
0000
0010
0001
,  // measure 17
0010
0100
1000
0100
1000
0000
0001
1000
0001
0000
0001
0100
0001
0000
2000
0000
,  // measure 18
3002
0000
0100
0003
0010
0000
1001
0002
,  // measure 19
2003
0000
0000
0000
0010
0000
3001
1000
0002
0000
0203
0000
0302
0000
0003
0000
,  // measure 20
1000
0100
0010
0001
0010
0001
1000
0010
0100
0000
0001
0000
0100
0000
0000
0000
,  // measure 21
0001
0010
0100
1000
0100
1000
0001
0100
0010
0000
1000
0000
0010
0000
2000
0000
,  // measure 22
3001
0000
0000
0001
0000
1000
0001
0000
0000
1000
0000
0000
0001
0000
1000
0001
0000
1000
0002
0000
0000
0103
0000
0000
,  // measure 23
0001
0000
0000
1000
0000
0001
1000
0000
0000
0001
0000
0000
1000
0000
0001
1000
0000
0001
2000
0000
0000
3010
0000
0000
,  // measure 24
1000
0000
0002
0000
0203
0000
0302
0000
1003
0100
0000
0010
0000
0010
0100
0000
,  // measure 25
1000
0000
2000
0000
3020
0000
2030
0000
3001
0010
0000
0100
0000
0100
0010
0000
,  // measure 26
0001
2000
3200
0320
0032
0023
0230
2300
,  // measure 27
3020
0000
0000
0000
0030
0100
0010
0100
0001
0100
0010
0100
0002
0000
0000
2003
,  // measure 28
0000
0000
0000
0000
0010
0000
0002
0003
0002
0000
0000
0003
0000
0000
0020
0030
,  // measure 29
0020
0000
3030
0000
0000
0001
0010
0100
1000
0100
0010
0001
0020
0000
0000
0032
,  // measure 30
0000
0000
0000
0000
1000
0000
0020
0030
0020
0000
0000
0030
0000
0000
2000
3000
,  // measure 31
2000
0000
0000
3000
0000
0000
2000
0000
3200
0000
0303
0000
0000
0000
0000
0000
,  // measure 32
1000
0010
0000
0010
1000
0000
0010
0000
0100
0001
0000
0001
0100
0000
0001
0000
,  // measure 33
0010
0001
0000
0001
0010
0000
0100
1000
0001
0100
0001
0010
0200
0000
0000
2300
,  // measure 34
0000
0010
0000
0001
,  // measure 35
3000
0000
0000
0000
0000
1000
0100
0010
0001
0100
0010
0100
0002
0000
0000
2003
,  // measure 36
0000
0010
0000
0001
,  // measure 37
3000
0000
0000
0000
0000
0100
1000
0100
1000
0100
1000
0001
2000
0000
0000
3200
,  // measure 38
0000
0010
0000
0001
,  // measure 39
0000
0010
0000
1300
,  // measure 40
0001
0100
0000
0100
0001
0000
0100
0000
0010
1000
0000
1000
0010
0000
1000
0000
,  // measure 41
0001
1000
0000
0100
0001
0000
0010
0001
1000
0001
1000
0100
0020
0000
0000
0032
,  // measure 42
0000
1000
0000
0010
,  // measure 43
0000
1000
1003
1000
0010
0000
1010
0000
,  // measure 44
0010
1000
1000
0010
0100
0001
0001
0010
,  // measure 45
0100
0010
0001
0010
0100
1000
0001
0000
,  // measure 46
0100
0001
0001
0100
0010
1000
1000
0100
,  // measure 47
0010
0100
1000
0100
0010
0001
0100
0000
,  // measure 48
0010
1000
1000
0010
0100
0001
0001
0010
,  // measure 49
0100
0010
0001
0010
0100
1000
0010
0000
,  // measure 50
0010
1000
1000
0010
0100
0001
0001
0200
,  // measure 51
0300
0000
0000
0000
0000
0001
0010
0100
1000
0100
0010
0001
0020
0000
0000
0032
,  // measure 52
0000
0003
0000
0000
;

//---------------dance-single - ----------------
#NOTES:
     dance-single:
     :
     Medium:
     7:
     0.338873,0.375584,0.111817,0.287528,0.000000,297.000000,283.000000,14.000000,36.000000,0.000000,0.000000,0.338873,0.375584,0.111817,0.287528,0.000000,297.000000,283.000000,14.000000,36.000000,0.000000,0.000000:
// measure 0
0000
0000
0000
0000
,  // measure 1
0000
0000
0000
0000
,  // measure 2
0000
0000
0000
0000
,  // measure 3
0000
0000
0000
0000
0000
0000
0000
1000
,  // measure 4
2000
0000
3001
0100
0200
0000
0301
0010
,  // measure 5
0020
0000
0031
1000
0020
0000
1030
0001
,  // measure 6
0002
0000
0013
0100
0200
0000
1300
0010
,  // measure 7
0020
0000
1030
0001
0020
0000
0031
0010
,  // measure 8
0002
0000
1003
0010
0100
0001
1000
0100
,  // measure 9
0020
0000
0031
0010
0100
1000
0010
0100
,  // measure 10
0001
0011
0001
1001
,  // measure 11
1000
0010
2000
3010
,  // measure 12
1001
0000
0011
0000
0001
0010
0100
0000
,  // measure 13
1000
0010
1000
0100
1000
0001
0010
0100
,  // measure 14
2000
0000
3010
1000
0002
0000
0013
0100
,  // measure 15
2000
0000
3010
1000
1000
1000
1000
0000
,  // measure 16
0101
0000
1001
0000
0001
0010
0001
0010
,  // measure 17
0100
1000
0010
0100
0010
0100
0001
0010
,  // measure 18
0200
0000
1300
0001
0200
0000
0310
1000
,  // measure 19
0002
0000
0013
0001
0010
0001
0010
0000
,  // measure 20
0100
1000
0100
0001
0100
1000
0100
0000
,  // measure 21
0010
1000
0010
0001
0010
1000
0010
0000
,  // measure 22
1000
0100
2000
0000
3010
1000
0020
0000
,  // measure 23
1030
0001
0010
0001
0020
0000
0031
0000
,  // measure 24
0100
0110
0010
1001
,  // measure 25
0010
1000
0100
1000
0020
0000
1030
0000
,  // measure 26
0001
0010
0100
1000
0010
0100
0001
1000
,  // measure 27
0020
0000
0000
0000
1000
0000
1030
0001
,  // measure 28
0002
0000
0013
0100
0200
0000
1300
0001
,  // measure 29
0002
0000
1003
0010
2000
0000
3010
1000
,  // measure 30
2000
0000
3010
0100
0200
0000
0301
0010
,  // measure 31
0020
0000
0031
1000
0020
0000
1030
0000
,  // measure 32
0001
0010
0011
0000
0100
0010
0110
0000
,  // measure 33
0001
1000
1001
0010
1000
0001
0010
0100
,  // measure 34
2000
0010
0000
0001
,  // measure 35
0000
0000
3100
0010
0001
1000
0010
0100
,  // measure 36
0002
0010
0000
1000
,  // measure 37
0000
0000
0103
1000
0100
0010
0100
1000
,  // measure 38
0020
1000
0000
0100
,  // measure 39
0000
0001
0000
0130
,  // measure 40
1000
0001
1001
0000
0001
0010
0011
0000
,  // measure 41
0100
0010
0110
0001
1000
0010
0100
0001
,  // measure 42
0020
0001
0000
0100
,  // measure 43
0000
1000
0000
0031
,  // measure 44
0001
1000
1000
0100
1000
1000
0010
0100
,  // measure 45
0001
0010
0100
1000
0010
0100
0010
0000
,  // measure 46
1000
0001
0001
0010
0001
0001
0100
0010
,  // measure 47
1000
0100
0010
0001
0100
0010
0100
0000
,  // measure 48
0001
1000
1000
0100
1000
1000
0010
0100
,  // measure 49
0001
0010
0100
1000
0010
0100
0010
0000
,  // measure 50
1000
0001
0001
0010
0001
0001
0100
0002
,  // measure 51
0000
0003
1000
0001
1000
0001
2000
0000
,  // measure 52
0000
3000
0000
0000
;

//---------------dance-single - ----------------
#NOTES:
     dance-single:
     :
     Easy:
     3:
     0.171148,0.185995,0.000000,0.207659,0.000000,150.000000,150.000000,0.000000,26.000000,0.000000,0.000000,0.171148,0.185995,0.000000,0.207659,0.000000,150.000000,150.000000,0.000000,26.000000,0.000000,0.000000:
// measure 0
0000
0000
0000
0000
,  // measure 1
0000
0000
0000
0000
,  // measure 2
0000
0000
0000
0000
,  // measure 3
0000
0000
0000
0000
,  // measure 4
2000
0000
3002
0000
,  // measure 5
2003
0000
3200
0000
,  // measure 6
2300
0000
3002
0000
,  // measure 7
2003
0000
3200
0000
,  // measure 8
1300
1000
0010
0010
,  // measure 9
1000
1000
0001
0001
,  // measure 10
0010
0010
0001
0001
,  // measure 11
1000
0001
1000
0001
,  // measure 12
1000
1000
0100
0100
,  // measure 13
1000
0010
1000
0001
,  // measure 14
2000
0000
3001
0000
,  // measure 15
0002
0000
1003
0000
,  // measure 16
1000
0100
0010
0001
,  // measure 17
0010
0100
1000
0010
,  // measure 18
2000
0000
3001
0000
,  // measure 19
0002
0000
1003
0000
,  // measure 20
1000
0010
2000
0000
,  // measure 21
3001
0010
0002
0000
,  // measure 22
0013
0010
0001
0001
,  // measure 23
0010
0100
1000
1000
,  // measure 24
0010
1000
0002
0000
,  // measure 25
1003
0001
2000
0000
,  // measure 26
3010
1000
0100
0010
,  // measure 27
0001
0000
1000
1000
,  // measure 28
0002
0000
1000
0000
,  // measure 29
1000
0000
1003
1000
,  // measure 30
2000
0000
0010
0000
,  // measure 31
0100
0000
0001
3001
,  // measure 32
1000
1000
0001
0001
,  // measure 33
0010
0010
0100
1000
,  // measure 34
0002
0100
0000
1000
,  // measure 35
0000
0013
1000
1000
,  // measure 36
2000
0010
0000
0001
,  // measure 37
0000
0010
3010
0010
,  // measure 38
0020
1000
0000
0100
,  // measure 39
0000
1000
0000
1030
,  // measure 40
0001
0010
0100
1000
,  // measure 41
0010
1000
0001
0010
,  // measure 42
0200
0000
1000
0000
,  // measure 43
0010
0000
1000
0300
,  // measure 44
1000
0001
1000
1000
,  // measure 45
0100
1000
0200
0300
,  // measure 46
0001
1000
0001
0001
,  // measure 47
0010
0001
0020
0030
,  // measure 48
1000
0001
1000
1000
,  // measure 49
0100
1000
0200
0300
,  // measure 50
0001
1000
0001
0001
,  // measure 51
0010
0001
0020
0030
;

//---------------dance-single - ----------------
#NOTES:
     dance-single:
     :
     Beginner:
     1:
     0.084433,0.123398,0.000000,0.111817,0.000000,74.000000,74.000000,0.000000,14.000000,0.000000,0.000000,0.084433,0.123398,0.000000,0.111817,0.000000,74.000000,74.000000,0.000000,14.000000,0.000000,0.000000:
// measure 0
0000
0000
0000
0000
,  // measure 1
0000
0000
0000
0000
,  // measure 2
0000
0000
0000
0000
,  // measure 3
0000
0000
0000
0000
,  // measure 4
0002
0000
0000
0000
,  // measure 5
2003
0000
0000
0000
,  // measure 6
3020
0000
0000
0000
,  // measure 7
2030
0000
0000
0000
,  // measure 8
3001
0000
0001
0000
,  // measure 9
1000
0000
1000
0000
,  // measure 10
0100
0000
0100
0000
,  // measure 11
1000
0000
1000
0000
,  // measure 12
0010
0000
0010
0000
,  // measure 13
1000
0000
1000
0000
,  // measure 14
0002
0000
1003
0000
,  // measure 15
2000
0000
3001
0000
,  // measure 16
0010
0000
0001
0000
,  // measure 17
0010
0000
0100
0000
,  // measure 18
2000
0000
3001
0000
,  // measure 19
0002
0000
1003
0000
,  // measure 20
0010
0000
1000
0000
,  // measure 21
0001
0000
0010
0000
,  // measure 22
0100
0000
0100
0000
,  // measure 23
1000
0000
1000
0000
,  // measure 24
0001
0000
0010
0000
,  // measure 25
0001
0000
0010
0000
,  // measure 26
0100
0000
1000
0000
,  // measure 27
0001
0000
0000
0000
,  // measure 28
2000
0000
0000
0000
,  // measure 29
0000
0000
0000
0000
,  // measure 30
3002
0000
0000
0000
,  // measure 31
0000
0000
0000
0003
,  // measure 32
1000
0000
1000
0000
,  // measure 33
0010
0000
0010
0000
,  // measure 34
0020
0000
0000
0000
,  // measure 35
0000
0000
0000
0000
,  // measure 36
2030
0000
0000
0000
,  // measure 37
0000
0000
0000
0000
,  // measure 38
3002
0000
0000
0000
,  // measure 39
0000
0000
0003
0000
,  // measure 40
1000
0000
1000
0000
,  // measure 41
0010
0000
1000
0000
,  // measure 42
0002
0000
0000
0000
,  // measure 43
0000
0000
0000
0003
,  // measure 44
1000
0000
0100
0000
,  // measure 45
0010
0000
0010
0000
,  // measure 46
0010
0000
0100
0000
,  // measure 47
1000
0000
1000
0000
,  // measure 48
1000
0000
0100
0000
,  // measure 49
0010
0000
0010
0000
,  // measure 50
0100
0000
1000
0000
,  // measure 51
0010
0010
0010
0000
;
