#VERSION:0.83;
#TITLE:+Ambition;
#SUBTITLE:;
#ARTIST:Really Slow Motion & Giant Apes;
#TITLETRANSLIT:;
#SUBTITLETRANSLIT:;
#ARTISTTRANSLIT:;
#GENRE:;
#ORIGIN:;
#CREDIT:;
#BANNER:Ambition.png;
#BACKGROUND:Ambition-bg.png;
#PREVIEWVID:;
#JACKET:Ambition-jacket.png;
#CDIMAGE:;
#DISCIMAGE:;
#LYRICSPATH:;
#CDTITLE:;
#MUSIC:Ambition.ogg;
#OFFSET:-0.241000;
#SAMPLESTART:61.961098;
#SAMPLELENGTH:15.000007;
#SELECTABLE:YES;
#BPMS:0.000=160.000;
#STOPS:;
#DELAYS:;
#WARPS:161.000=20.000,
245.000=20.000;
#TIMESIGNATURES:0.000=4=4;
#TICKCOUNTS:0.000=4;
#COMBOS:0.000=1;
#SPEEDS:0.000=1.000=0.000=0;
#SCROLLS:0.000=1.000,
181.000=0.500,
185.000=1.000,
265.000=0.500,
267.000=1.000;
#FAKES:;
#LABELS:0.000=Song Start;
#BGCHANGES:;
#KEYSOUNDS:;
#ATTACKS:
;

//---------------dance-single - ----------------
#NOTEDATA:;
#CHARTNAME:;
#STEPSTYPE:dance-single;
#DESCRIPTION:;
#CHARTSTYLE:;
#DIFFICULTY:Hard;
#METER:16;
#RADARVALUES:0.737377,0.914445,0.209570,0.085381,1.354446,665.000000,638.000000,27.000000,11.000000,0.000000,0.000000,0.000000,0.000000,2.000000,0.737377,0.914445,0.209570,0.085381,1.354446,665.000000,638.000000,27.000000,11.000000,0.000000,0.000000,0.000000,0.000000,2.000000;
#CREDIT:Rajeious's Chart;
#NOTES:
// measure 0
0000
0000
0000
0000
,  // measure 1
0000
0000
0000
0000
,  // measure 2
0000
0000
0000
0000
,  // measure 3
0000
0000
0000
0000
,  // measure 4
0000
0002
0000
0013
,  // measure 5
0000
2000
0000
3100
,  // measure 6
0000
0020
0000
0130
,  // measure 7
0000
0002
0000
1003
,  // measure 8
0000
1020
0100
1030
,  // measure 9
0100
0210
0001
0310
,  // measure 10
0001
0012
1000
0103
,  // measure 11
0010
2100
0001
3010
,  // measure 12
0001
0000
0000
1000
0001
0100
0001
0000
0000
1000
0000
0000
,  // measure 13
0001
0000
0000
0001
1000
0010
1000
0000
0000
0001
0000
0000
,  // measure 14
0100
0000
0000
0010
0100
0001
0100
0000
0000
0010
0000
0000
,  // measure 15
1000
0000
1000
0010
0000
0010
0100
0000
0001
0010
0001
1000
,  // measure 16
0100
1000
0001
0010
0100
0010
0001
0000
0000
0001
1000
0010
,  // measure 17
0100
0000
0000
0100
0001
1000
0001
0000
0000
0001
1000
0010
,  // measure 18
0100
0001
0010
0001
1000
0010
1000
0000
0000
1000
0100
0010
,  // measure 19
0001
0000
0000
0001
0100
0010
0100
0000
0000
0100
0001
1000
,  // measure 20
0010
1000
0001
0010
0100
0010
0001
0000
0000
0001
1000
0010
,  // measure 21
0100
0000
0000
0100
0001
1000
0001
0000
0000
0001
0100
1000
,  // measure 22
0100
0010
1000
0001
0100
0001
1000
0000
0000
1000
0001
0100
,  // measure 23
0001
0000
0000
0000
0000
0000
0000
0000
0000
0100
1000
0001
,  // measure 24
0010
0001
1000
0100
0000
0000
0100
1000
0010
1000
0000
0000
,  // measure 25
1000
0010
0100
0001
0000
0000
0001
0010
0100
0010
0000
0000
,  // measure 26
0010
0100
1000
0100
0000
0000
0100
0010
0001
0010
0000
0000
,  // measure 27
0010
0100
1000
0100
0000
0000
0100
1000
0100
0010
0000
0000
,  // measure 28
0010
0001
1000
0001
0000
0000
0001
1000
0010
0100
0000
0000
,  // measure 29
0100
0010
1000
0010
0000
0000
0010
0100
0001
1000
0000
0000
,  // measure 30
1000
0100
0010
0001
1000
0001
0010
0100
0010
0001
1000
0001
,  // measure 31
0100
0010
0100
0002
0000
0000
0000
0000
0000
0000
0000
0000
,  // measure 32
0000
0000
0000
0003
,  // measure 33
0000
0000
0000
0001
1000
0100
0001
0100
1000
0001
0010
0100
,  // measure 34
1000
0100
0010
0001
1000
0010
1000
0001
0100
0010
1000
0100
,  // measure 35
0010
0001
0100
0001
0010
0100
0010
0100
1000
0001
0000
0001
,  // measure 36
1000
0000
1000
0001
0010
0001
0010
0100
0010
0100
1000
0100
,  // measure 37
0010
0001
1000
0010
0100
0001
0100
0010
1000
0010
0100
0001
,  // measure 38
0100
0010
1000
0010
0100
0001
0100
0010
1000
0010
0100
0001
,  // measure 39
0100
0010
1000
0010
0100
0010
1000
0001
1000
0100
0010
0100
,  // measure 40
1000
0001
1000
000F
0000
0000
0000
0000
0000
0000
0000
0000
,  // measure 41
0000
0000
0000
0000
,  // measure 42
0000
0000
0000
0000
,  // measure 43
0000
0000
0000
0000
,  // measure 44
0000
0000
0000
0000
,  // measure 45
0000
0000
0000
0000
,  // measure 46
0000
0000
0000
0001
0100
0001
1000
0100
1000
0001
0010
0001
,  // measure 47
1000
0010
1000
0001
0100
0001
1000
0100
1000
0001
0100
0010
,  // measure 48
0100
0001
1000
0001
0010
1000
0010
0001
1000
0001
0100
1000
,  // measure 49
0100
0001
1000
0001
0010
1000
0010
0001
1000
0001
0100
0010
,  // measure 50
0100
0010
1000
0001
0100
0001
1000
0100
1000
0001
0010
0001
,  // measure 51
1000
0010
1000
0001
0100
0001
1000
0100
1000
0001
0010
0100
,  // measure 52
1000
0010
0100
0001
0010
0001
1000
0010
1000
0001
0100
0001
,  // measure 53
1000
0100
1000
0001
0010
0001
1000
0010
1000
0001
0100
0010
,  // measure 54
1000
0100
0010
0001
0000
0000
0001
0010
0100
1000
0000
0000
,  // measure 55
1000
0010
0100
0001
0000
0000
0001
0010
0001
0100
0010
1000
,  // measure 56
0100
1000
0001
1000
0000
0000
1000
0001
0010
0001
0000
0000
,  // measure 57
0001
0100
0010
0100
0000
0000
0100
0010
1000
0010
0100
0001
,  // measure 58
0010
0001
1000
0100
0000
0000
0100
1000
0001
1000
0000
0000
,  // measure 59
1000
0010
0100
0010
0000
0000
0010
0100
0001
0100
0010
1000
,  // measure 60
0100
1000
0001
0010
0001
1000
0001
0010
0100
1000
0001
0100
,  // measure 61
0010
0100
0001
F000
0000
0000
0000
0000
0000
0000
0000
0000
,  // measure 62
0000
0000
0000
0000
,  // measure 63
0000
0000
0000
0000
,  // measure 64
0000
0000
0000
0000
,  // measure 65
0000
0000
0000
0000
,  // measure 66
0000
0000
0000
0000
0000
0000
0000
0000
0000
1000
0010
0100
,  // measure 67
0001
0100
0010
1000
0000
1000
0001
0000
0001
0100
0000
0100
,  // measure 68
0010
0000
0010
1000
0000
1000
0001
0000
0010
0001
1000
0100
,  // measure 69
1000
0001
0010
0001
0000
0001
1000
0000
1000
0100
0000
0100
,  // measure 70
0010
0000
0010
0001
0000
0001
1000
0000
1000
0001
1000
0100
,  // measure 71
1000
0100
0010
0001
0000
0001
1000
0000
0001
0010
0000
0100
,  // measure 72
1000
0000
0001
0100
0000
1000
0010
0000
1000
0001
0010
0001
,  // measure 73
1000
0100
1000
0001
0000
0001
0100
0000
0100
0010
0000
0010
,  // measure 74
1000
0000
0001
0100
0000
0100
0001
0000
0001
1000
0001
0010
,  // measure 75
0100
0010
0001
1000
0000
0000
1001
0000
0000
0010
0100
0001
,  // measure 76
1000
0001
0100
0010
0000
0000
1001
0000
0000
1000
0010
0100
,  // measure 77
0010
1000
0001
0010
0000
0000
0011
0000
0000
0001
0100
0001
,  // measure 78
1000
0100
0010
0001
0000
0000
1001
0000
0000
1000
0001
0100
,  // measure 79
0010
0100
0001
1000
0000
0000
0110
0000
0000
0001
0010
0100
,  // measure 80
1000
0100
0010
0001
0000
0000
1100
0000
0000
0010
0100
0001
,  // measure 81
1000
0001
0100
0010
0000
0000
1001
0000
0000
1000
0001
0100
,  // measure 82
0001
1000
0010
0100
0000
0000
0101
0000
0000
0001
0010
0100
,  // measure 83
1000
0100
0010
0001
0000
1000
0010
0100
0000
1010
0000
0001
,  // measure 84
0100
0010
0000
1001
0000
0100
0010
0100
0000
1001
0000
0010
,  // measure 85
0100
0010
0000
1001
0000
0110
0000
1001
0000
0110
0000
1001
,  // measure 86
0000
0110
0000
0202
0000
0000
0000
0000
0000
0000
0000
0000
,  // measure 87
0000
0000
0000
0303
,  // measure 88
0000
0000
0000
1001
0000
0000
1001
0000
0000
0010
0100
0010
,  // measure 89
0100
0010
1000
0001
0000
0000
1001
0000
1000
0001
0000
0001
,  // measure 90
0100
0000
0000
1100
0000
0000
1100
0000
0000
0010
0100
0010
,  // measure 91
0100
0001
0010
0001
0000
0000
0001
0000
0000
0001
0000
0000
,  // measure 92
0001
0000
0000
0100
0001
0100
0001
0000
0000
0010
1000
0010
,  // measure 93
1000
0000
0000
0100
0001
0100
0001
0010
0100
1000
0100
0010
,  // measure 94
0001
1000
0001
0100
0000
0000
0000
0000
0000
0000
0000
0000
;

//---------------dance-single - ----------------
#NOTEDATA:;
#CHARTNAME:;
#STEPSTYPE:dance-single;
#DESCRIPTION:;
#CHARTSTYLE:;
#DIFFICULTY:Medium;
#METER:10;
#RADARVALUES:0.429120,0.585245,0.116428,0.116428,0.372570,387.000000,372.000000,15.000000,15.000000,0.000000,0.000000,0.000000,0.000000,2.000000,0.429120,0.585245,0.116428,0.116428,0.372570,387.000000,372.000000,15.000000,15.000000,0.000000,0.000000,0.000000,0.000000,2.000000;
#CREDIT:Rajeious's Chart;
#NOTES:
// measure 0
0000
0000
0000
0000
,  // measure 1
0000
0000
0000
0000
,  // measure 2
0000
0000
0000
0000
,  // measure 3
0000
0000
0000
0000
,  // measure 4
0000
2000
0000
3000
,  // measure 5
0000
0200
0000
0300
,  // measure 6
0000
0020
0000
0030
,  // measure 7
0000
0002
0000
0003
,  // measure 8
0000
0020
0000
1030
,  // measure 9
0000
2000
0000
3001
,  // measure 10
0000
0200
0000
0310
,  // measure 11
0000
0020
0000
1030
,  // measure 12
0000
0001
0001
0100
,  // measure 13
0010
1000
1000
0001
,  // measure 14
0100
0010
0010
1000
,  // measure 15
0001
0100
0100
0010
,  // measure 16
1000
0001
0100
0010
,  // measure 17
1000
0000
0000
0100
0000
0000
0010
0000
0000
0010
0000
0100
,  // measure 18
0001
0000
0001
0100
0000
0000
0010
0000
0000
1000
0000
0000
,  // measure 19
0001
0000
0000
0100
0000
0000
0001
0000
0000
0100
0000
0001
,  // measure 20
1000
0000
0001
1000
0000
0000
0010
0000
0000
1000
0000
0000
,  // measure 21
0100
0000
0000
0010
0000
0000
0001
0000
0000
0001
0000
1000
,  // measure 22
0010
0000
1000
0010
0000
0000
1000
0000
0000
0100
0000
0000
,  // measure 23
0010
0002
0000
1003
,  // measure 24
0010
0100
0010
1000
0000
0000
0100
0000
0000
0001
0000
0000
,  // measure 25
0100
0010
0001
0001
,  // measure 26
1000
0001
1000
0001
0000
0000
1000
0000
0000
0010
0000
0000
,  // measure 27
0100
0001
1000
0001
,  // measure 28
0001
0100
0001
2000
0000
0000
3200
0000
0000
0320
0000
0000
,  // measure 29
0032
2003
3002
1003
,  // measure 30
1000
0000
1000
0010
0000
0010
1000
0000
1000
0001
0000
1000
,  // measure 31
0001
1000
0001
1000
0000
0000
0000
0000
0000
0000
0000
0000
,  // measure 32
0000
0000
0000
0000
,  // measure 33
0000
1000
1000
0001
,  // measure 34
0100
0000
0010
1000
0000
0010
1000
0000
0001
0100
0000
0001
,  // measure 35
0100
1000
0100
0010
,  // measure 36
0001
0000
0000
1000
0000
0000
0010
0100
0010
0100
0000
0000
,  // measure 37
0001
1000
0001
1000
0000
0000
0010
0000
0000
0100
0000
0000
,  // measure 38
0001
1000
0001
0100
,  // measure 39
0010
0000
0000
1000
0000
0000
0001
0000
0000
1000
0001
1000
,  // measure 40
0001
1000
0000
0000
,  // measure 41
0000
0000
0000
0000
,  // measure 42
0000
0000
0000
0000
,  // measure 43
0000
0000
0000
0000
,  // measure 44
0000
0000
0000
0000
,  // measure 45
0000
0000
0000
0000
,  // measure 46
0000
1000
1000
0001
,  // measure 47
0001
0100
0100
0001
,  // measure 48
1000
0001
1000
0001
0000
0000
0100
0000
0000
0010
0000
0000
,  // measure 49
0010
1000
1000
0001
,  // measure 50
0001
0100
0001
0100
0000
0000
0100
0000
0000
0010
0000
0000
,  // measure 51
0010
0100
0100
0001
,  // measure 52
0001
0100
0001
1000
0000
0000
1000
0000
0000
0001
0000
0000
,  // measure 53
0001
1000
1000
0001
,  // measure 54
0100
0010
0100
0001
0000
0000
0100
0000
0000
0010
0000
0000
,  // measure 55
0100
0001
1000
0001
,  // measure 56
0100
0001
1000
0001
0000
0000
0100
0000
0000
0010
0000
0000
,  // measure 57
1000
0001
0100
0100
,  // measure 58
0001
0010
0100
1000
0000
0000
1000
0000
0000
0010
0000
0000
,  // measure 59
0100
0001
1000
0001
0000
0000
0100
0000
0000
0100
0000
0000
,  // measure 60
0001
1000
0001
0100
0000
0000
0010
0000
0000
0010
0000
0000
,  // measure 61
1000
0100
1000
0001
0000
0000
0000
0000
0000
0000
0000
0000
,  // measure 62
0000
0000
0000
0000
,  // measure 63
0000
0000
0000
0000
,  // measure 64
0000
0000
0000
0000
,  // measure 65
0000
0000
0000
0000
,  // measure 66
0000
0000
0000
0000
,  // measure 67
0000
0000
1000
0100
0000
0100
0010
0000
0010
0001
0000
0001
,  // measure 68
1000
0000
1000
0010
0000
0010
0100
0000
0000
0001
0000
0000
,  // measure 69
1000
0001
1000
0001
0000
0001
0100
0000
0100
0010
0000
0010
,  // measure 70
1000
0000
1000
0001
0000
0001
0100
0000
0000
0010
0000
0000
,  // measure 71
0001
1000
0001
1000
0000
1000
0010
0000
0010
0100
0000
0100
,  // measure 72
0001
0000
0001
1000
0000
1000
0001
0000
0000
0100
0000
0000
,  // measure 73
0001
1000
0001
1000
0000
1000
0100
0000
0100
0010
0000
0010
,  // measure 74
0001
0000
0001
1000
0000
1000
0001
0000
0000
0100
0000
0000
,  // measure 75
0001
1000
0001
1000
0000
0000
1000
0000
0000
0001
0000
0000
,  // measure 76
0010
0100
0001
1000
,  // measure 77
0001
0010
0100
1000
0000
0000
1000
0000
0000
0001
0000
0000
,  // measure 78
1000
0001
0100
0001
,  // measure 79
0100
0010
0100
0001
0000
0000
1000
0000
0000
0010
0000
0000
,  // measure 80
0100
0001
1000
1000
,  // measure 81
0001
0100
0001
0100
0000
0000
0010
0000
0000
0010
0000
0000
,  // measure 82
1000
0001
1000
0001
0000
0000
0100
0000
0000
0100
0000
0000
,  // measure 83
0010
0100
0010
0100
0000
0000
0010
0000
0000
1001
0000
0000
,  // measure 84
0100
1001
0010
1001
,  // measure 85
0100
0000
0000
0010
0000
0010
0000
0010
0000
1000
0000
1000
,  // measure 86
0000
1000
0000
1001
0000
0000
0000
0000
0000
0000
0000
0000
,  // measure 87
0000
0000
0000
0000
,  // measure 88
0000
0000
0000
1001
0000
0000
1001
0000
0100
0010
0000
0100
,  // measure 89
0010
1001
1001
0010
,  // measure 90
0100
0000
0000
1010
0000
0000
1010
0000
1000
0001
0000
1000
,  // measure 91
0001
0110
0110
1000
,  // measure 92
0001
1001
0100
1001
,  // measure 93
0010
0000
0000
1000
0000
1000
0100
0000
0100
0010
0000
0010
,  // measure 94
0001
1001
0000
0000
;

//---------------dance-single - ----------------
#NOTEDATA:;
#CHARTNAME:;
#STEPSTYPE:dance-single;
#DESCRIPTION:;
#CHARTSTYLE:;
#DIFFICULTY:Easy;
#METER:5;
#RADARVALUES:0.281645,0.438933,0.162999,0.000000,0.000000,254.000000,233.000000,21.000000,0.000000,0.000000,0.000000,0.000000,0.000000,0.000000,0.281645,0.438933,0.162999,0.000000,0.000000,254.000000,233.000000,21.000000,0.000000,0.000000,0.000000,0.000000,0.000000,0.000000;
#CREDIT:Rajeious's Chart;
#NOTES:
// measure 0
0000
0000
0000
0000
,  // measure 1
0000
0000
0000
0000
,  // measure 2
0000
0000
0000
0000
,  // measure 3
0000
0000
0000
0000
,  // measure 4
0000
1000
0000
0000
,  // measure 5
0000
1000
0000
0000
,  // measure 6
0000
1000
0000
0000
,  // measure 7
0000
0100
0000
0000
,  // measure 8
0000
0001
0000
0000
,  // measure 9
0000
0100
0000
0000
,  // measure 10
0000
0010
0000
0000
,  // measure 11
0000
1000
0000
0000
,  // measure 12
0000
0001
0000
0000
,  // measure 13
0000
0001
0000
0000
,  // measure 14
0000
0100
0000
0000
,  // measure 15
0000
0100
0000
0000
,  // measure 16
0000
1000
0000
1000
,  // measure 17
0000
0100
0000
0010
,  // measure 18
1000
0001
0000
0001
,  // measure 19
0000
0001
0000
1000
,  // measure 20
0100
0010
0000
1000
,  // measure 21
0000
0001
0000
1000
,  // measure 22
0100
0010
0000
1000
,  // measure 23
0000
0001
0000
0000
,  // measure 24
0000
1000
0000
0001
,  // measure 25
0000
1000
0000
0001
,  // measure 26
1000
0010
0000
0100
,  // measure 27
0000
0001
0000
1000
,  // measure 28
0001
0100
0000
1000
,  // measure 29
0000
0010
0000
1000
,  // measure 30
0000
0001
0100
0010
,  // measure 31
0001
1000
0000
0000
,  // measure 32
0000
0000
0000
0000
,  // measure 33
0000
1000
0000
0001
,  // measure 34
0000
0010
0010
0100
,  // measure 35
0100
0001
0000
1000
,  // measure 36
0000
0010
0010
1000
,  // measure 37
1000
0001
1000
0001
,  // measure 38
1000
0010
0100
0010
,  // measure 39
0100
0001
0100
0010
,  // measure 40
1000
0000
0000
0000
,  // measure 41
0000
0000
0000
0000
,  // measure 42
0000
0000
0000
0000
,  // measure 43
0000
0000
0000
0000
,  // measure 44
0000
0000
0000
0000
,  // measure 45
0000
0000
0000
0000
,  // measure 46
0000
1000
1000
0100
,  // measure 47
0100
0010
0010
0001
,  // measure 48
1000
0001
0001
0100
,  // measure 49
0100
0010
0010
1000
,  // measure 50
0010
1000
1000
0001
,  // measure 51
0001
0100
0100
0001
,  // measure 52
0010
0100
0100
1000
,  // measure 53
1000
0001
0001
0010
,  // measure 54
0001
0100
0001
0010
,  // measure 55
0100
0100
1000
1000
,  // measure 56
0001
1000
0010
0100
,  // measure 57
0001
1000
0001
0010
,  // measure 58
1000
0010
0100
0001
,  // measure 59
1000
0100
1000
0001
,  // measure 60
1000
0010
0100
0001
,  // measure 61
1000
0000
0000
0000
,  // measure 62
0000
0000
0000
0000
,  // measure 63
0000
0000
0000
0000
,  // measure 64
0000
0000
0000
0000
,  // measure 65
0000
0000
0000
0000
,  // measure 66
0000
0000
0000
0000
,  // measure 67
0000
1001
0100
0010
,  // measure 68
1000
0100
0100
0010
,  // measure 69
0100
0101
0001
1000
,  // measure 70
0010
0100
0001
1000
,  // measure 71
0010
0110
0100
0001
,  // measure 72
0001
1000
0010
0100
,  // measure 73
0001
1001
1000
0001
,  // measure 74
0001
0100
0100
0001
,  // measure 75
1000
1001
0001
0100
,  // measure 76
0010
1000
0100
0010
,  // measure 77
0001
1001
1000
0100
,  // measure 78
0010
0001
0001
1000
,  // measure 79
0010
1010
1000
0010
,  // measure 80
0001
0001
0100
0100
,  // measure 81
0001
1001
1000
0010
,  // measure 82
0100
0101
0001
1000
,  // measure 83
0001
1001
0100
0010
,  // measure 84
0100
0010
0100
0001
,  // measure 85
1000
1001
0010
0110
,  // measure 86
0100
1001
0000
0000
,  // measure 87
0000
0000
0000
0000
,  // measure 88
0000
1001
0001
0100
,  // measure 89
0001
1010
0010
0100
,  // measure 90
0001
1001
1000
0001
,  // measure 91
0100
1001
1000
0100
,  // measure 92
0001
1001
0000
0110
,  // measure 93
0000
1001
0100
0001
,  // measure 94
1000
1010
0000
0000
;
