#VERSION:0.83;
#TITLE:After Like;
#SUBTITLE:;
#ARTIST:IVE;
#TITLETRANSLIT:;
#SUBTITLETRANSLIT:;
#ARTISTTRANSLIT:;
#GENRE:;
#ORIGIN:;
#CREDIT:;
#BANNER:AV.avi;
#BACKGROUND:bg.png;
#PREVIEWVID:;
#JACKET:cover.png;
#CDIMAGE:;
#DISCIMAGE:;
#LYRICSPATH:;
#CDTITLE:;
#MUSIC:audio.ogg;
#OFFSET:-0.407000;
#SAMPLESTART:48.392998;
#SAMPLELENGTH:15.000000;
#SELECTABLE:YES;
#BPMS:0.000=125.000,
160.000=62.500,
162.000=125.000;
#STOPS:;
#DELAYS:;
#WARPS:;
#TIMESIGNATURES:0.000=4=4;
#TICKCOUNTS:0.000=4;
#COMBOS:0.000=1;
#SPEEDS:0.000=1.000=0.000=0;
#SCROLLS:0.000=1.000;
#FAKES:;
#LABELS:0.000=Song Start;
#BGCHANGES:0.000=MV.avi=1.200=1=0=0=StretchNoLoop==CrossFade==,
4.000=MV.avi=1.000=0=0=1=====,
99999=-nosongbg-=1.000=0=0=0 // don't automatically add -songbackground-
;
#KEYSOUNDS:;
#ATTACKS:
;

//---------------dance-single - ----------------
#NOTEDATA:;
#CHARTNAME:;
#STEPSTYPE:dance-single;
#DESCRIPTION:;
#CHARTSTYLE:;
#DIFFICULTY:Beginner;
#METER:2;
#RADARVALUES:0.158262,0.221999,0.008655,0.000000,0.000000,128.000000,127.000000,1.000000,0.000000,0.000000,0.000000,0.000000,0.000000,0.000000,0.158262,0.221999,0.008655,0.000000,0.000000,128.000000,127.000000,1.000000,0.000000,0.000000,0.000000,0.000000,0.000000,0.000000;
#CREDIT:Musey's Chart;
#NOTES:
// measure 0
0000
0000
0000
0000
,  // measure 1
0000
0000
0000
0000
,  // measure 2
0010
0000
1000
0000
,  // measure 3
0001
0000
1000
0000
,  // measure 4
0010
0000
0100
0000
,  // measure 5
0100
0000
0000
0000
,  // measure 6
1000
0000
0010
0000
,  // measure 7
1000
0000
0001
0000
,  // measure 8
0100
0000
1000
0000
,  // measure 9
0010
0000
0000
0000
,  // measure 10
1000
0000
1000
0000
,  // measure 11
0001
0000
0001
0000
,  // measure 12
0010
0000
0010
0000
,  // measure 13
0100
0000
0100
0000
,  // measure 14
1000
0000
0010
0000
,  // measure 15
1000
0000
0001
0000
,  // measure 16
0100
0000
1000
0000
,  // measure 17
0010
0000
0000
0000
,  // measure 18
0100
0000
0010
0000
,  // measure 19
0001
0000
1000
0000
,  // measure 20
0010
0000
0100
0000
,  // measure 21
1000
0000
0001
0000
,  // measure 22
1000
0000
0010
0000
,  // measure 23
0100
0000
1000
0000
,  // measure 24
0001
0000
0001
0000
,  // measure 25
1000
0000
0010
0000
,  // measure 26
1000
1000
0001
0000
,  // measure 27
1000
0010
1000
0000
,  // measure 28
0100
1000
0100
0000
,  // measure 29
1000
0100
0001
0000
,  // measure 30
0010
1000
0010
0000
,  // measure 31
0100
1000
0010
0000
,  // measure 32
1000
0100
1000
0000
,  // measure 33
0001
0010
0001
0000
,  // measure 34
0100
0000
0100
0000
,  // measure 35
1000
0000
1000
0000
,  // measure 36
0010
0000
0010
0000
,  // measure 37
0001
0000
0001
0000
,  // measure 38
0100
0000
0100
0000
,  // measure 39
1000
0000
1000
0000
,  // measure 40
0010
0000
1000
0000
,  // measure 41
0000
0000
0100
0000
,  // measure 42
1000
0000
0010
0000
,  // measure 43
1000
0000
0001
0000
,  // measure 44
1000
0000
0010
0000
,  // measure 45
0100
0000
1000
0000
,  // measure 46
0010
0000
1000
0000
,  // measure 47
0100
0000
1000
0000
,  // measure 48
1000
0000
0010
0000
,  // measure 49
0010
0000
1000
1000
,  // measure 50
0001
1000
0010
1000
,  // measure 51
0100
0000
1000
0001
,  // measure 52
0010
0100
0010
0001
,  // measure 53
0010
0000
0100
1000
,  // measure 54
0001
1000
0010
0010
,  // measure 55
1000
1000
0001
1000
,  // measure 56
0001
0010
0100
0000
,  // measure 57
0110
0000
0000
0000
;

//---------------dance-single - ----------------
#NOTEDATA:;
#CHARTNAME:;
#STEPSTYPE:dance-single;
#DESCRIPTION:;
#CHARTSTYLE:;
#DIFFICULTY:Hard;
#METER:13;
#RADARVALUES:0.526715,0.699752,0.268303,0.579881,0.341870,426.000000,395.000000,31.000000,67.000000,0.000000,0.000000,0.000000,0.000000,1.000000,0.526715,0.699752,0.268303,0.579881,0.341870,426.000000,395.000000,31.000000,67.000000,0.000000,0.000000,0.000000,0.000000,1.000000;
#CREDIT:Musey's Chart;
#NOTES:
0000
0000
0000
0000
,
0000
0000
0000
0000
0000
0000
0000
0010
,
1000
0000
0000
0100
0000
0000
0100
0000
1000
0000
0000
0001
0000
0000
0100
0000
,
0010
0000
0000
1000
0000
0000
0100
0000
0010
0000
0000
0001
0000
0000
1000
0000
,
0010
0000
0000
0100
0000
0000
0001
0000
1000
0000
0000
0100
0000
0000
0010
0000
,
0002
0000
1003
0010
1000
0100
0010
0001
,
0010
0000
0000
0100
0000
0000
0010
0000
0001
0000
0000
0100
0000
0000
0010
0000
,
0100
0000
0000
0001
0000
0000
1000
0000
0100
0000
0000
1000
0000
0000
0010
0000
,
0100
0000
0000
0001
0000
0000
0100
0000
0010
0000
0000
1000
0000
0000
0100
0000
,
0010
0000
0001
0000
0000
0010
0000
0000
0100
0000
0010
0001
0010
0000
0100
0000
,
1000
0000
0010
0000
0100
0000
0100
0010
0000
2000
0000
0000
3010
0000
0100
0000
,
0001
0000
1000
0000
0100
0000
0010
0002
0000
0000
0000
0000
0103
0000
0001
0000
,
0100
0000
0010
0000
1000
0000
0001
0010
0000
0002
0000
0000
0013
0000
1000
0000
,
0010
0000
0001
0000
0100
0000
0010
0200
0000
0000
0000
0300
0010
0000
0100
0000
,
1000
0010
0100
0001
0010
1000
0010
0001
,
0100
1000
0100
0010
1000
0100
1000
0001
,
0100
0010
0100
0010
1000
0000
0100
0000
0010
0100
0010
0100
0010
0000
0001
0000
,
2000
0000
0000
0000
0000
0000
3002
0000
0000
0000
0000
0003
0201
0000
0000
0000
,
0310
0000
0000
0000
1001
0000
0000
0000
2010
0000
3000
0100
1000
0000
0010
0000
,
0000
0000
0120
0000
0000
0000
0130
0000
0001
0000
0100
0001
0100
0000
0010
0000
,
1000
0000
0000
0000
1010
0000
0000
0000
0102
0000
0000
0103
0001
0000
0010
0000
,
0000
0000
0012
0000
0000
0000
0103
0000
0010
0000
0001
0010
0100
0000
1000
0000
,
0010
0000
0000
0000
1010
0000
0000
0000
0102
0000
0000
0103
0001
0000
0010
0000
,
0000
0000
0021
0000
0000
0000
0031
0000
0010
0000
0100
0010
0001
0000
1000
0000
,
0010
0000
0101
0000
1010
0000
2002
3003
,
0010
0010
0100
0100
0001
1000
0100
1000
,
0010
0000
1000
0001
1000
0000
0001
0000
0100
0000
0001
0010
0100
0000
0010
0000
,
0001
0000
1000
0100
1000
0000
0010
1000
0000
1000
0001
0100
0001
0010
0100
0000
,
0010
0000
0001
0010
0100
0000
1000
0010
0100
0001
1000
0100
0010
0000
0001
0000
,
0010
0000
0100
0010
0001
0010
0100
1000
0001
0010
0100
0010
0001
0100
0010
0100
,
0010
1000
0000
1000
0010
0000
1000
0000
0100
0000
0010
0000
0001
0000
1000
0000
,
0010
1000
0000
1000
0010
0000
0100
0000
0010
0000
1000
0000
0001
0000
0100
0000
,
0100
0001
0000
0010
0001
0000
0010
0000
0110
0000
0001
0000
1000
0000
00F0
0000
,
1000
0100
0000
0010
0001
0000
0010
0000
0100
0000
1000
0000
0002
0000
0000
0000
,
0103
0000
1000
0000
2000
0000
3100
0010
,
0000
0020
0000
0031
0010
0100
0000
2000
,
0000
0000
3001
0000
0002
0000
0013
0100
,
0000
0200
0000
0310
0001
0001
0000
0002
,
0000
0000
1003
0000
2000
0000
3010
0100
,
0000
0200
0000
0310
1000
0001
0000
0020
,
0000
0000
0030
0000
0000
0000
0000
0000
1000
0010
1000
0010
1000
0000
0001
0000
,
0200
0301
0011
0110
,
1200
0000
0000
1300
0100
0000
2200
0000
3300
0000
0022
0000
0033
0000
0010
0000
,
0100
0000
1000
0001
1000
0000
0010
0000
0100
0000
0000
0000
2200
0000
3300
0000
,
0022
0000
0033
0010
0001
0000
0220
0000
0330
0000
2200
0000
3300
0000
1000
0000
,
0010
0000
1000
0010
1000
0000
0001
0000
0200
0000
0000
0300
0022
0000
0033
0000
,
0220
0330
0000
1000
0001
0000
0220
0000
0330
0000
2002
0000
3003
0000
0001
0000
,
0010
0000
0100
0010
0001
0000
1000
0000
0020
0000
0000
0000
2030
0000
0000
0000
,
3020
0000
2030
0000
3001
0010
0100
1000
,
0001
0100
0010
1000
0002
0000
2003
0000
,
3010
0100
0001
0100
0020
0000
1030
0001
,
1000
0001
1000
0000
0001
1000
0001
0000
0020
0000
0000
0000
0001
0000
0000
0000
,
0130
0000
0020
0000
0000
0030
0001
0010
0100
0000
1000
0010
0100
0000
0001
1000
,
0100
0000
0010
0001
1000
0000
0010
0100
0002
0000
0000
0000
0013
0000
0000
0000
,
0220
0000
0330
0000
1002
0000
0000
0003
1000
0100
0010
0001
1000
0010
0100
1000
,
0001
0010
0100
0001
1000
0100
0010
0001
2000
0000
0000
0000
0010
0000
0000
0000
,
3100
0000
0000
0000
1001
0000
0000
0000
0012
0000
0000
0000
0000
0003
0020
0000
,
0000
0030
0200
0000
0000
0300
2000
0000
0000
0000
0000
0000
3000
0000
0000
0000
;

//---------------dance-single - ----------------
#NOTEDATA:;
#CHARTNAME:;
#STEPSTYPE:dance-single;
#DESCRIPTION:;
#CHARTSTYLE:;
#DIFFICULTY:Medium;
#METER:7;
#RADARVALUES:0.377108,0.421171,0.129824,0.000000,0.000000,305.000000,290.000000,15.000000,0.000000,0.000000,0.000000,0.000000,0.000000,0.000000,0.377108,0.421171,0.129824,0.000000,0.000000,305.000000,290.000000,15.000000,0.000000,0.000000,0.000000,0.000000,0.000000,0.000000;
#CREDIT:Musey's Chart;
#NOTES:
// measure 0
0000
0000
0000
0000
,  // measure 1
0000
0000
0000
0000
,  // measure 2
1000
0001
0010
0000
0010
0100
1000
0000
,  // measure 3
0001
0100
0010
0000
1000
0001
0010
0000
,  // measure 4
0100
1000
0001
0000
1000
0010
1000
0000
,  // measure 5
0001
0010
0100
0110
,  // measure 6
1000
0100
1000
0000
0001
0100
0010
0000
,  // measure 7
1000
0001
0010
0000
0100
1000
0001
0000
,  // measure 8
0100
0001
0100
0000
1000
0010
1000
0000
,  // measure 9
0001
0010
0100
0110
,  // measure 10
1000
0001
1000
0000
1000
0000
0010
0000
,  // measure 11
1000
0001
0010
0000
0010
0000
0001
0000
,  // measure 12
1000
0010
0100
0000
0100
0000
1000
0000
,  // measure 13
0001
0010
0100
0010
0001
0000
0011
0000
,  // measure 14
0100
1000
0001
0100
0010
0000
1010
0000
,  // measure 15
0001
0010
0100
0010
0001
0000
0011
0000
,  // measure 16
1100
0110
1001
0110
,  // measure 17
0001
0001
0001
0011
,  // measure 18
0100
0000
1000
0000
1000
0000
1000
0001
,  // measure 19
0000
0001
0000
0001
0010
0000
0100
0000
,  // measure 20
0010
0000
0001
0000
0010
0000
0010
1000
,  // measure 21
0000
1000
0000
1000
0010
0000
1010
0000
,  // measure 22
0001
0000
0010
0000
0100
0000
0100
0010
,  // measure 23
0000
0010
0000
0001
1000
0000
0001
0000
,  // measure 24
0010
0100
1000
1010
,  // measure 25
0001
0001
0001
1100
,  // measure 26
1000
0000
0001
0000
0010
0100
0010
0001
,  // measure 27
1000
0000
1000
0010
0100
0001
1000
0010
,  // measure 28
1000
0000
0001
0000
0010
0100
0010
0001
,  // measure 29
1000
0010
0100
0001
1000
0100
0010
0001
,  // measure 30
1000
0010
1000
0001
,  // measure 31
1000
0100
0010
0100
1000
0100
0010
0100
,  // measure 32
1000
0001
0100
0010
1000
0000
0001
0000
,  // measure 33
0010
0010
0001
0011
,  // measure 34
0100
0000
0100
0000
1000
0000
1000
0001
,  // measure 35
0000
0001
0000
0001
1000
0000
0001
0000
,  // measure 36
0010
0000
0100
0000
1000
0000
1000
0001
,  // measure 37
0000
0001
0000
0001
0100
0000
0001
0000
,  // measure 38
1000
0000
0100
0000
0010
0000
0010
0100
,  // measure 39
0000
0100
0000
0001
1000
0000
0010
0000
,  // measure 40
1000
0000
0000
0000
1000
0000
0000
0100
,  // measure 41
0000
1000
0000
0001
0010
0000
0100
0000
,  // measure 42
0100
0000
0100
0010
0000
0010
0000
0010
,  // measure 43
0001
1000
0010
0100
,  // measure 44
0001
0000
0001
1000
0000
1000
0000
0010
,  // measure 45
1000
0001
0010
0100
,  // measure 46
0010
0000
0010
0001
0000
0001
0000
0010
,  // measure 47
0100
1000
0001
0100
,  // measure 48
0010
1000
0001
0010
,  // measure 49
0001
0011
1000
0100
,  // measure 50
1000
0001
0100
0010
1000
0000
1000
0001
,  // measure 51
0010
0100
0010
0001
1000
0000
0010
0000
,  // measure 52
1000
0001
0010
0100
1000
0010
0100
0001
,  // measure 53
1000
0100
0010
0001
0010
0000
0001
0000
,  // measure 54
0010
0000
0100
0000
1000
0010
0100
0001
,  // measure 55
1000
0100
1000
0001
0010
0100
0010
0001
,  // measure 56
1000
0010
0100
0001
1000
0010
1000
0001
,  // measure 57
0010
0100
0010
0000
0000
0000
0000
0000
;

//---------------dance-single - ----------------
#NOTEDATA:;
#CHARTNAME:;
#STEPSTYPE:dance-single;
#DESCRIPTION:;
#CHARTSTYLE:;
#DIFFICULTY:Easy;
#METER:4;
#RADARVALUES:0.263357,0.297297,0.043275,0.051930,0.000000,213.000000,208.000000,5.000000,6.000000,0.000000,0.000000,0.000000,0.000000,0.000000,0.263357,0.297297,0.043275,0.051930,0.000000,213.000000,208.000000,5.000000,6.000000,0.000000,0.000000,0.000000,0.000000,0.000000;
#CREDIT:Musey's Chart;
#NOTES:
// measure 0
0000
0000
0000
0000
,  // measure 1
0000
0000
0000
0000
,  // measure 2
1000
0100
1000
0000
,  // measure 3
0010
1000
0001
0000
,  // measure 4
0010
0100
0010
0001
,  // measure 5
1000
1000
0001
0000
,  // measure 6
1000
0010
1000
0000
,  // measure 7
0001
0010
0001
0000
,  // measure 8
0100
1000
0001
1000
,  // measure 9
0010
0100
0010
0000
,  // measure 10
1000
1000
0001
0000
,  // measure 11
0010
0001
0010
0000
,  // measure 12
0100
0010
0001
1000
,  // measure 13
0010
1000
0010
0000
,  // measure 14
1000
0001
1000
0000
,  // measure 15
0100
1000
0100
0000
,  // measure 16
0010
0001
0010
0100
,  // measure 17
1000
1000
1000
0000
,  // measure 18
0001
0010
2000
0000
,  // measure 19
3001
0000
0010
0000
0200
0000
0000
0300
,  // measure 20
1000
1000
0001
0001
,  // measure 21
0010
0100
0010
0000
,  // measure 22
0001
0010
2000
0000
,  // measure 23
3001
0010
0002
0000
,  // measure 24
1003
0010
0100
0010
,  // measure 25
1000
1000
0001
0001
,  // measure 26
0010
0100
0010
0001
,  // measure 27
0010
0100
1000
1000
,  // measure 28
0010
1000
0001
0010
,  // measure 29
0100
0010
0001
1000
,  // measure 30
0010
1000
0001
1000
,  // measure 31
0100
0010
0001
0010
,  // measure 32
0100
1000
0001
1000
,  // measure 33
0010
0010
1000
1010
,  // measure 34
0001
0100
0100
0100
,  // measure 35
1000
1000
1000
1000
,  // measure 36
0001
0001
0001
0001
,  // measure 37
1000
1000
1000
1000
,  // measure 38
0010
0010
0010
0010
,  // measure 39
0100
0100
0100
0100
,  // measure 40
0010
0000
2002
0000
,  // measure 41
0000
0000
0000
3003
0010
0000
0010
0000
,  // measure 42
1000
1000
0001
0010
,  // measure 43
0100
0010
0001
0001
,  // measure 44
1000
1000
0010
0010
,  // measure 45
1000
0001
0010
0010
,  // measure 46
0100
0100
1000
1000
,  // measure 47
0001
0100
0010
0010
,  // measure 48
1000
1000
0001
1000
,  // measure 49
0001
1001
0001
0010
,  // measure 50
0100
0010
0001
0000
1000
0000
0010
0000
,  // measure 51
0100
0010
0100
0000
0001
0000
1000
0000
,  // measure 52
0100
1000
0001
0000
0010
1000
0001
0000
,  // measure 53
0100
0010
0001
0000
0010
0000
1000
0000
,  // measure 54
0001
0000
1000
0000
0010
1000
0001
0000
,  // measure 55
0100
0010
0001
0000
0100
0000
1000
0000
,  // measure 56
0001
1001
0010
0010
,  // measure 57
0010
0110
0000
0000
;
