#VERSION:0.83;
#TITLE:+A New Adventure;
#SUBTITLE:;
#ARTIST:Dan Thiessen;
#TITLETRANSLIT:;
#SUBTITLETRANSLIT:;
#ARTISTTRANSLIT:;
#GENRE:;
#ORIGIN:;
#CREDIT:;
#BANNER:BN.png;
#BACKGROUND:BG.png;
#PREVIEWVID:;
#JACKET:jacket.png;
#CDIMAGE:;
#DISCIMAGE:;
#LYRICSPATH:;
#CDTITLE:;
#MUSIC:audio.ogg;
#OFFSET:-0.011000;
#SAMPLESTART:98.190514;
#SAMPLELENGTH:15.000012;
#SELECTABLE:YES;
#BPMS:0.000=160.000,
196.000=80.000,
212.000=160.000;
#STOPS:;
#DELAYS:;
#WARPS:;
#TIMESIGNATURES:0.000=4=4;
#TICKCOUNTS:0.000=4;
#COMBOS:0.000=1;
#SPEEDS:0.000=1.000=0.000=0;
#SCROLLS:0.000=1.000;
#FAKES:;
#LABELS:0.000=Song Start;
#BGCHANGES:;
#KEYSOUNDS:;
#ATTACKS:
;

//---------------dance-single - ----------------
#NOTEDATA:;
#CHARTNAME:;
#STEPSTYPE:dance-single;
#DESCRIPTION:;
#CHARTSTYLE:;
#DIFFICULTY:Hard;
#METER:12;
#RADARVALUES:0.568700,0.608138,0.293400,0.320073,0.070016,597.000000,553.000000,44.000000,48.000000,0.000000,0.000000,0.000000,0.000000,0.000000,0.568700,0.608138,0.293400,0.320073,0.070016,597.000000,553.000000,44.000000,48.000000,0.000000,0.000000,0.000000,0.000000,0.000000;
#CREDIT:Rajeious's Chart;
#NOTES:
// measure 0
0000
0000
0000
0000
,  // measure 1
0000
0000
0000
0000
,  // measure 2
0000
0000
0000
0000
,  // measure 3
0000
0000
0000
0000
,  // measure 4
0000
0000
0000
0000
,  // measure 5
0000
0000
0000
0000
,  // measure 6
0000
0000
0000
0000
,  // measure 7
0000
0000
0000
0000
,  // measure 8
0000
0000
0000
0000
,  // measure 9
1000
0100
0001
0100
1000
0000
0001
0100
,  // measure 10
1000
0100
0001
0100
0010
0000
0101
0000
,  // measure 11
1000
0010
1000
0100
1000
0000
0001
0100
,  // measure 12
0001
0010
0001
0100
0010
0000
1010
0000
,  // measure 13
1000
0010
0001
0010
1000
0001
0010
1000
,  // measure 14
0010
0001
1000
0001
0100
0000
1001
0000
,  // measure 15
0001
0100
0001
0010
0001
0100
0010
1000
,  // measure 16
0100
0000
1000
0000
0001
0000
1000
0000
0020
0000
0000
0000
0030
0000
1000
0001
,  // measure 17
2000
0000
3001
0100
0010
1000
1002
0000
,  // measure 18
0100
0000
0000
0000
0103
0000
0100
0010
1000
0000
0000
0000
1000
0000
0001
0000
,  // measure 19
0200
0000
0310
1000
0001
1000
1020
0000
,  // measure 20
1000
0000
0000
0000
0130
0000
0001
1000
0001
0000
0010
0000
0100
0000
1000
0000
,  // measure 21
0002
0000
1003
0010
0100
0001
2001
0000
,  // measure 22
0001
0000
0000
0000
3010
0000
0100
0001
0100
0000
0000
0000
0001
0000
1000
0000
,  // measure 23
0002
0000
1003
0010
1000
0001
0201
0000
,  // measure 24
0001
0000
0000
0000
0310
0000
1000
0001
1000
0000
0100
0000
0010
0000
0001
0000
,  // measure 25
1000
0100
0001
0100
1000
0000
0011
0000
,  // measure 26
1000
0000
0001
0000
1000
0000
0010
0100
0010
0000
0000
0000
1010
0000
1000
0000
,  // measure 27
0001
0010
1000
0010
0001
0000
1100
0000
,  // measure 28
0001
1000
0010
0100
0001
0010
0100
1000
,  // measure 29
0001
0010
0100
0010
0001
0000
0011
0000
,  // measure 30
1000
0000
0100
0000
0010
0000
0001
1000
0001
0000
0000
0000
1001
0000
0001
0000
,  // measure 31
1000
0100
0010
0100
1000
0000
1100
0000
,  // measure 32
0001
1000
0100
1000
0001
0100
0010
1000
,  // measure 33
0002
1000
1000
0203
,  // measure 34
0010
0010
0010
0010
,  // measure 35
0302
0100
0100
2003
,  // measure 36
0001
0001
0001
0001
,  // measure 37
3200
1000
1000
0320
,  // measure 38
0001
0001
0001
0001
,  // measure 39
0032
0000
1000
2003
0010
0000
3020
0000
,  // measure 40
0100
0000
0000
0000
0100
0000
0000
0000
1030
0000
0001
0000
1000
0000
0010
0100
,  // measure 41
0020
0000
1030
0001
1000
0000
0201
0000
,  // measure 42
0301
0000
1000
0000
0001
0000
1000
0100
1000
0000
0000
0000
0001
0000
0100
0000
,  // measure 43
0120
0000
0130
0001
1000
0000
0201
0000
,  // measure 44
0301
1000
0100
0010
0001
0000
1000
0001
,  // measure 45
2001
0000
3001
0100
0010
0000
1020
0000
,  // measure 46
1030
0000
0001
0000
1000
0000
0010
0100
0010
0000
0000
0000
0010
0000
0100
0000
,  // measure 47
0201
0000
0301
1000
0010
0000
2100
0000
,  // measure 48
3100
1000
0100
0010
0001
1000
0001
0100
,  // measure 49
0020
0000
0000
0230
,  // measure 50
0302
0000
0000
2003
,  // measure 51
3020
0000
0000
2030
,  // measure 52
3200
0000
0000
0320
,  // measure 53
0031
1000
0001
0100
0010
0100
0001
1000
,  // measure 54
0001
0100
0010
0100
0001
1000
0100
0010
,  // measure 55
0001
0010
0001
1000
0100
1000
0001
0010
,  // measure 56
0001
1000
0100
1000
0001
0100
0010
1000
,  // measure 57
0001
0100
0001
1000
0010
1000
0001
0100
,  // measure 58
0001
1000
0010
1000
0100
0010
0001
1000
,  // measure 59
0100
1000
0010
0100
0010
1000
0001
0100
,  // measure 60
0001
1000
0100
0001
0100
1000
0001
1000
,  // measure 61
0000
0000
0020
0030
,  // measure 62
2010
0000
3001
0200
0010
0300
1002
0000
,  // measure 63
1003
0000
0100
0000
0010
0000
0001
1000
0001
0000
0000
0000
1001
0000
1000
0000
,  // measure 64
0010
0100
0010
1000
0001
0000
1001
0000
,  // measure 65
0010
0000
0100
0000
0010
0000
1000
0001
1000
0000
0010
0000
0100
0000
0001
0000
,  // measure 66
1002
0000
0103
0020
0100
0030
2001
0000
,  // measure 67
3001
0000
0010
0000
0100
0000
1000
0001
1000
0000
0000
0000
1001
0000
0001
0000
,  // measure 68
1000
0100
0001
0100
1000
0000
0011
0000
,  // measure 69
0010
0000
0001
0000
1000
0000
0001
0100
0001
0000
1000
0000
0100
0000
0010
0000
,  // measure 70
0012
0000
1003
0200
1000
0300
1020
0000
,  // measure 71
0130
0000
0001
0000
0100
0000
0001
1000
0001
0000
0000
0000
1001
0000
1000
0000
,  // measure 72
0100
0010
0100
0010
0001
0000
1100
0000
,  // measure 73
1000
0001
0010
0001
1000
0010
0100
0010
,  // measure 74
2010
0000
3001
0200
0001
0300
1002
0000
,  // measure 75
1003
0000
0100
0000
0010
0000
0001
1000
0001
0000
0000
0000
1100
0000
0100
0000
,  // measure 76
1000
0001
0010
0001
0100
0000
0101
0000
,  // measure 77
1000
0100
0010
0100
1000
0001
0100
0001
,  // measure 78
1000
0010
1000
0010
0100
0001
0101
0000
,  // measure 79
0100
0000
0100
0000
0100
0000
0100
0001
,  // measure 80
1000
0001
1000
0001
0010
0100
1100
0000
,  // measure 81
0100
0000
0000
0000
0100
0000
0000
0000
0100
1000
0100
0000
0010
0001
0010
0000
,  // measure 82
0001
1000
0001
1000
0100
0010
1001
0000
,  // measure 83
1000
0000
1000
0000
1001
0000
1001
0001
,  // measure 84
0010
0100
0010
0100
1000
0001
1001
0000
,  // measure 85
0001
0000
0000
0000
0001
0000
0100
0000
0101
0000
0001
0000
1000
0010
1000
0000
,  // measure 86
0001
0100
1000
0100
0001
0100
1000
0100
,  // measure 87
0001
0100
0010
0100
0001
0000
1001
0000
,  // measure 88
1000
0010
0001
0010
1000
0010
0001
0010
,  // measure 89
1000
0010
0100
0010
1000
0001
0010
0100
,  // measure 90
1000
0100
0010
0100
1000
0100
0010
0100
,  // measure 91
1000
0000
0100
0000
0010
0000
0100
0000
1000
0100
1000
0000
0001
0010
0001
0000
,  // measure 92
0001
0010
0100
0010
0001
0010
0100
0010
,  // measure 93
0001
0010
0100
0010
0001
1000
0010
0200
,  // measure 94
0000
0000
0000
0000
,  // measure 95
0000
0000
0000
0000
,  // measure 96
0300
0000
0000
0000
;

//---------------dance-single - ----------------
#NOTEDATA:;
#CHARTNAME:;
#STEPSTYPE:dance-single;
#DESCRIPTION:;
#CHARTSTYLE:;
#DIFFICULTY:Medium;
#METER:8;
#RADARVALUES:0.393423,0.438183,0.166704,0.193377,0.000000,413.000000,388.000000,25.000000,29.000000,0.000000,0.000000,0.000000,0.000000,0.000000,0.393423,0.438183,0.166704,0.193377,0.000000,413.000000,388.000000,25.000000,29.000000,0.000000,0.000000,0.000000,0.000000,0.000000;
#CREDIT:Rajeious's Chart;
#NOTES:
// measure 0
0000
0000
0000
0000
,  // measure 1
0000
0000
0000
0000
,  // measure 2
0000
0000
0000
0000
,  // measure 3
0000
0000
0000
0000
,  // measure 4
0000
0000
0000
0000
,  // measure 5
0000
0000
0000
0000
,  // measure 6
0000
0000
0000
0000
,  // measure 7
0000
0000
0000
0000
,  // measure 8
0000
0000
0000
0000
,  // measure 9
0010
0100
0010
0000
1000
0000
0001
1000
,  // measure 10
0001
0100
0010
0110
,  // measure 11
1000
0001
1000
0000
0010
0000
0100
0001
,  // measure 12
0100
0001
1000
1001
,  // measure 13
0001
0100
0001
0000
1000
0000
1000
0001
,  // measure 14
1000
0010
0100
1001
,  // measure 15
0010
0100
0010
0000
1000
0000
1000
0001
,  // measure 16
0100
0001
0002
0000
,  // measure 17
1003
0000
1000
0010
0100
0000
0101
0000
,  // measure 18
0001
0010
0100
1000
,  // measure 19
0001
0000
0001
0010
0100
0000
1100
0000
,  // measure 20
1000
0001
0100
0010
,  // measure 21
1000
0000
1000
0100
0010
0000
0011
0000
,  // measure 22
0001
0010
0100
0010
,  // measure 23
0001
0000
0001
1000
0010
0000
0110
0000
,  // measure 24
1000
1000
0010
0100
,  // measure 25
0001
0010
0001
0101
,  // measure 26
1000
0000
0001
0100
0010
0000
0010
0000
,  // measure 27
0001
0100
0001
0101
,  // measure 28
1000
0000
0001
0000
1000
0100
0010
0001
,  // measure 29
1000
0010
0100
1001
,  // measure 30
0001
0000
0100
0010
0100
0000
0001
0000
,  // measure 31
1000
0010
1000
1010
,  // measure 32
0001
0000
1000
0000
1000
0010
0100
0001
,  // measure 33
1000
1000
1000
0010
,  // measure 34
0010
0010
0010
0010
,  // measure 35
0100
0100
0100
0001
,  // measure 36
0001
0001
0001
0001
,  // measure 37
1000
1000
1000
0010
,  // measure 38
0010
0010
0010
0010
,  // measure 39
1000
1000
1000
0001
,  // measure 40
0001
0000
0001
0000
0100
0010
0100
0010
,  // measure 41
0100
0000
0100
0001
1000
0000
1001
0000
,  // measure 42
0001
0000
0100
0010
0100
0000
0001
1000
,  // measure 43
0001
0000
0001
0100
0010
0000
1010
0000
,  // measure 44
1000
0000
0001
0000
0100
0000
0010
1000
,  // measure 45
0010
0000
1000
0001
1000
0000
0010
0000
,  // measure 46
0100
0000
0001
1000
0001
0000
1000
0100
,  // measure 47
0010
0000
0010
0001
1000
0000
1001
0000
,  // measure 48
0001
0000
0100
0000
0100
0001
0100
0001
,  // measure 49
0200
0000
0000
0320
,  // measure 50
0230
0000
0000
0320
,  // measure 51
2030
0000
0000
3002
,  // measure 52
0203
0000
0000
0310
,  // measure 53
1000
0100
0001
0010
,  // measure 54
1000
0100
0100
0100
,  // measure 55
0100
1000
0010
0001
,  // measure 56
0100
1000
0010
0010
,  // measure 57
0010
0100
0001
0001
,  // measure 58
0100
0010
0010
0010
,  // measure 59
0010
1000
0001
0001
,  // measure 60
1000
0100
0100
0100
,  // measure 61
0000
0000
0002
0000
,  // measure 62
0203
0000
0310
1000
0010
0000
0002
0000
,  // measure 63
1003
0100
0010
0000
0010
0000
0011
0000
,  // measure 64
0001
0000
1000
0100
1000
0000
0001
0000
,  // measure 65
0001
0100
0001
0000
0100
0000
0010
0000
,  // measure 66
0120
0000
1030
0001
1000
0000
0020
0000
,  // measure 67
1030
0001
0100
0000
0100
0000
0110
0000
,  // measure 68
0001
0000
1000
0010
0100
0000
0001
0000
,  // measure 69
0100
0010
1000
0000
0001
0000
1000
0000
,  // measure 70
2001
0000
3010
0100
0001
0000
0002
0000
,  // measure 71
0103
0010
0100
0000
0001
0000
1001
0000
,  // measure 72
0100
0000
0010
0100
0001
0000
1000
0000
,  // measure 73
1000
0010
0100
0000
0001
0000
0100
0000
,  // measure 74
0201
0000
0301
1000
0010
0000
0020
0000
,  // measure 75
1030
0001
0100
0000
0010
0000
0110
0000
,  // measure 76
0100
0000
0001
1000
0100
0000
1000
0000
,  // measure 77
0001
0100
0001
0000
1000
0000
0001
0000
,  // measure 78
1001
0000
1000
0000
0001
0100
0001
0000
,  // measure 79
0001
0010
0100
1000
,  // measure 80
1001
0000
0001
0000
0100
0010
0100
0000
,  // measure 81
0001
0001
1000
1000
,  // measure 82
1001
0000
0001
0100
0010
0000
1000
0000
,  // measure 83
0001
0100
0010
0100
,  // measure 84
1001
0000
0010
1000
0001
0000
0100
0000
,  // measure 85
0001
0000
0001
0000
0100
0001
1000
0001
,  // measure 86
2000
3001
2000
3001
,  // measure 87
2000
0000
3010
0100
0010
0000
0010
0000
,  // measure 88
0200
0310
0200
0310
,  // measure 89
0200
0000
0310
0000
1000
0001
0010
0001
,  // measure 90
2000
3010
2000
3010
,  // measure 91
2000
0000
3010
1000
0010
0000
0010
0000
,  // measure 92
0200
0301
0200
0301
,  // measure 93
0200
0000
0301
1000
0100
0010
0001
1000
;

//---------------dance-single - ----------------
#NOTEDATA:;
#CHARTNAME:;
#STEPSTYPE:dance-single;
#DESCRIPTION:;
#CHARTSTYLE:;
#DIFFICULTY:Easy;
#METER:4;
#RADARVALUES:0.175278,0.219383,0.013336,0.166704,0.000000,184.000000,182.000000,2.000000,25.000000,0.000000,0.000000,0.000000,0.000000,0.000000,0.175278,0.219383,0.013336,0.166704,0.000000,184.000000,182.000000,2.000000,25.000000,0.000000,0.000000,0.000000,0.000000,0.000000;
#CREDIT:Rajeious's Chart;
#NOTES:
// measure 0
0000
0000
0000
0000
,  // measure 1
0000
0000
0000
0000
,  // measure 2
0000
0000
0000
0000
,  // measure 3
0000
0000
0000
0000
,  // measure 4
0000
0000
0000
0000
,  // measure 5
0000
0000
0000
0000
,  // measure 6
0000
0000
0000
0000
,  // measure 7
0000
0000
0000
0000
,  // measure 8
0000
0000
0000
0000
,  // measure 9
0100
0000
1000
0000
,  // measure 10
0010
0000
0001
0000
,  // measure 11
0100
0000
1000
0000
,  // measure 12
0100
0000
0001
0000
,  // measure 13
1000
0000
0010
0000
,  // measure 14
0100
0000
0010
0000
,  // measure 15
0001
0000
1000
0000
,  // measure 16
0001
0000
1000
0000
,  // measure 17
1010
0000
0010
0000
,  // measure 18
0100
0000
0010
0000
,  // measure 19
1000
0000
0001
0000
,  // measure 20
0100
0000
0010
1000
,  // measure 21
0010
0000
0100
0000
,  // measure 22
0010
0000
1000
0000
,  // measure 23
0001
0000
1000
0000
,  // measure 24
0001
0000
1000
0010
,  // measure 25
1000
0000
0100
0000
,  // measure 26
0010
0000
0001
1000
,  // measure 27
0100
0000
0100
0000
,  // measure 28
1000
0000
0010
0100
,  // measure 29
0010
0000
1000
0000
,  // measure 30
1000
0000
0001
0010
,  // measure 31
0001
0000
1000
0000
,  // measure 32
0010
0000
0010
0100
,  // measure 33
0020
0000
0030
2000
,  // measure 34
0000
0000
0000
3000
,  // measure 35
0002
0000
0003
0200
,  // measure 36
0000
0000
0000
0300
,  // measure 37
0020
0000
0030
2000
,  // measure 38
0000
0000
0000
3000
,  // measure 39
0002
0000
0003
2000
,  // measure 40
0000
3000
0010
1000
,  // measure 41
0010
0000
0010
0000
,  // measure 42
0100
0000
0001
1000
,  // measure 43
0001
0000
0100
0000
,  // measure 44
0010
0000
1000
0001
,  // measure 45
1000
0000
0010
0000
,  // measure 46
0100
0000
0100
0010
,  // measure 47
0100
0000
0001
0000
,  // measure 48
1000
0000
0001
1000
,  // measure 49
0020
0000
0000
0030
,  // measure 50
0200
0000
0000
0300
,  // measure 51
0002
0000
0000
0003
,  // measure 52
2000
0000
0000
3000
,  // measure 53
0010
0000
0001
0000
,  // measure 54
1000
0000
0100
0000
,  // measure 55
0010
0000
0100
0000
,  // measure 56
1000
0000
0001
0000
,  // measure 57
0100
0000
1000
0000
,  // measure 58
0010
0000
0100
0000
,  // measure 59
0001
0000
0100
0000
,  // measure 60
0010
0000
1000
0000
,  // measure 61
0000
0000
0000
0000
,  // measure 62
1001
0000
0001
0000
,  // measure 63
1000
0000
0010
1000
,  // measure 64
0010
0000
0100
0000
,  // measure 65
0010
0000
1000
0001
,  // measure 66
1000
0000
0010
0000
,  // measure 67
1000
0000
0001
0010
,  // measure 68
0001
0000
0100
0000
,  // measure 69
0010
0000
1000
0001
,  // measure 70
1000
0000
0010
0000
,  // measure 71
0100
0000
0001
0100
,  // measure 72
0001
0000
1000
0000
,  // measure 73
0010
0000
0100
0010
,  // measure 74
0100
0000
0100
0000
,  // measure 75
0001
0000
1000
0001
,  // measure 76
1000
0000
0010
0000
,  // measure 77
1000
0000
0001
0000
,  // measure 78
0100
0000
0010
0000
,  // measure 79
1000
0000
0001
0000
,  // measure 80
0010
0000
0001
0000
,  // measure 81
1000
0000
0010
0100
,  // measure 82
0010
0000
1000
0000
,  // measure 83
0001
0000
0010
0000
,  // measure 84
0001
0000
1000
0000
,  // measure 85
0100
0000
0100
0010
,  // measure 86
2000
3000
2000
3000
,  // measure 87
2000
3000
0010
0100
,  // measure 88
0020
0030
0020
0030
,  // measure 89
0020
0030
1000
0010
,  // measure 90
0200
0300
0200
0300
,  // measure 91
0200
0301
1000
1000
,  // measure 92
0002
0003
0002
0003
,  // measure 93
0002
0003
0100
0020
,  // measure 94
0030
0000
0000
0000
;

//---------------dance-single - ----------------
#NOTEDATA:;
#CHARTNAME:;
#STEPSTYPE:dance-single;
#DESCRIPTION:;
#CHARTSTYLE:;
#DIFFICULTY:Beginner;
#METER:2;
#RADARVALUES:0.096212,0.248056,0.106691,0.006668,0.000000,101.000000,85.000000,16.000000,1.000000,0.000000,0.000000,0.000000,0.000000,0.000000,0.096212,0.248056,0.106691,0.006668,0.000000,101.000000,85.000000,16.000000,1.000000,0.000000,0.000000,0.000000,0.000000,0.000000;
#CREDIT:Rajeious's Chart;
#NOTES:
// measure 0
0000
0000
0000
0000
,  // measure 1
0000
0000
0000
0000
,  // measure 2
0000
0000
0000
0000
,  // measure 3
0000
0000
0000
0000
,  // measure 4
0000
0000
0000
0000
,  // measure 5
0000
0000
0000
0000
,  // measure 6
0000
0000
0000
0000
,  // measure 7
0000
0000
0000
0000
,  // measure 8
0000
0000
0000
0000
,  // measure 9
1000
0000
0000
0000
,  // measure 10
0000
0000
0000
0000
,  // measure 11
0010
0000
0000
0000
,  // measure 12
0000
0000
0000
0000
,  // measure 13
0100
0000
0000
0000
,  // measure 14
0000
0000
0000
0000
,  // measure 15
0001
0000
0000
0000
,  // measure 16
0000
0000
2000
3000
,  // measure 17
1000
0000
0000
0000
,  // measure 18
0010
0000
0000
0000
,  // measure 19
0100
0000
0000
0000
,  // measure 20
0001
0000
0000
0000
,  // measure 21
1000
0000
0000
0000
,  // measure 22
0010
0000
0000
0000
,  // measure 23
1000
0000
0000
0000
,  // measure 24
0001
0000
0000
0000
,  // measure 25
0100
0000
0000
0000
,  // measure 26
0010
0000
1000
0000
,  // measure 27
0001
0000
0000
0000
,  // measure 28
0100
0000
0010
0000
,  // measure 29
1000
0000
0000
0000
,  // measure 30
0100
0000
0010
0000
,  // measure 31
0100
0000
0000
0000
,  // measure 32
0001
0000
1000
0000
,  // measure 33
0001
0000
0000
0000
,  // measure 34
0000
0000
0000
0000
,  // measure 35
0100
0000
0000
0000
,  // measure 36
0000
0000
0000
0000
,  // measure 37
0010
0000
0000
0000
,  // measure 38
0000
0000
0000
0000
,  // measure 39
1000
0000
0000
0000
,  // measure 40
0000
0000
0000
0000
,  // measure 41
0001
0000
0000
0000
,  // measure 42
1000
0000
0000
0000
,  // measure 43
0010
0000
0000
0000
,  // measure 44
0100
0000
0000
0000
,  // measure 45
0001
0000
0000
0000
,  // measure 46
1000
0000
0000
0000
,  // measure 47
0001
0000
0000
0000
,  // measure 48
0100
0000
0000
0000
,  // measure 49
0010
0000
0000
0000
,  // measure 50
1000
0000
0000
0000
,  // measure 51
0001
0000
0000
0000
,  // measure 52
0010
0000
0000
0000
,  // measure 53
0100
0000
0000
0000
,  // measure 54
0000
0000
0000
0000
,  // measure 55
1000
0000
0000
0000
,  // measure 56
0000
0000
0000
0000
,  // measure 57
0010
0000
0000
0000
,  // measure 58
0000
0000
0000
0000
,  // measure 59
0001
0000
0000
0000
,  // measure 60
0000
0000
0000
0000
,  // measure 61
0000
0000
0000
0000
,  // measure 62
1001
0000
0000
0000
,  // measure 63
1000
0000
0001
0000
,  // measure 64
0100
0000
0000
0000
,  // measure 65
0010
0000
1000
0000
,  // measure 66
0001
0000
0000
0000
,  // measure 67
1000
0000
0001
0000
,  // measure 68
1000
0000
0000
0000
,  // measure 69
0010
0000
0100
0000
,  // measure 70
0010
0000
0000
0000
,  // measure 71
0001
0000
0100
0000
,  // measure 72
0001
0000
0000
0000
,  // measure 73
1000
0000
0010
0000
,  // measure 74
1000
0000
0000
0000
,  // measure 75
0100
0000
0010
0000
,  // measure 76
0100
0000
0000
0000
,  // measure 77
0001
0000
1000
0000
,  // measure 78
0001
0000
0000
0000
,  // measure 79
0000
0000
0000
0000
,  // measure 80
1010
0000
0000
0000
,  // measure 81
0000
0000
0000
0000
,  // measure 82
1001
0000
0000
0000
,  // measure 83
0000
0000
0000
0000
,  // measure 84
0011
0000
0000
0000
,  // measure 85
0000
0000
0000
0000
,  // measure 86
1001
0000
1001
0000
,  // measure 87
1001
0000
0000
0000
,  // measure 88
0110
0000
0110
0000
,  // measure 89
0110
0000
0000
0000
,  // measure 90
1010
0000
1010
0000
,  // measure 91
1010
0000
0000
0000
,  // measure 92
0101
0000
0101
0000
,  // measure 93
0101
0000
0000
0000
;
