#VERSION:0.83;
#TITLE:Yoo Hoo;
#SUBTITLE:;
#ARTIST:Secret;
#TITLETRANSLIT:;
#SUBTITLETRANSLIT:;
#ARTISTTRANSLIT:;
#GENRE:;
#ORIGIN:;
#CREDIT:;
#BANNER:AV.avi;
#BACKGROUND:YooHoo-bg.png;
#PREVIEWVID:;
#JACKET:;
#CDIMAGE:;
#DISCIMAGE:;
#LYRICSPATH:;
#CDTITLE:;
#MUSIC:Secret - YooHoo.mp3;
#OFFSET:-0.025000;
#SAMPLESTART:99.980003;
#SAMPLELENGTH:15.000000;
#SELECTABLE:YES;
#BPMS:0.000=151.010,
109.000=75.505,
111.000=151.010,
175.000=75.505,
191.000=151.010,
227.000=75.505,
231.000=151.010;
#STOPS:;
#DELAYS:;
#WARPS:;
#TIMESIGNATURES:0.000=4=4;
#TICKCOUNTS:0.000=4;
#COMBOS:0.000=1;
#SPEEDS:0.000=1.000=0.000=0;
#SCROLLS:0.000=1.000;
#FAKES:;
#LABELS:0.000=Song Start;
#BGCHANGES:0.000=YooHoo.avi=2.000=1=1=1=StretchRewind==CrossFade==,
10.000=YooHoo.avi=1.000=0=0=1=====,
99999=-nosongbg-=1.000=0=0=0 // don't automatically add -songbackground-
;
#KEYSOUNDS:;
#ATTACKS:
;

//---------------dance-single - ----------------
#NOTEDATA:;
#CHARTNAME:;
#STEPSTYPE:dance-single;
#DESCRIPTION:;
#CHARTSTYLE:;
#DIFFICULTY:Challenge;
#METER:14;
#RADARVALUES:0.561371,0.946480,0.847701,0.086207,0.499282,547.000000,429.000000,118.000000,12.000000,0.000000,0.000000,0.000000,0.000000,0.000000,0.561371,0.946480,0.847701,0.086207,0.499282,547.000000,429.000000,118.000000,12.000000,0.000000,0.000000,0.000000,0.000000,0.000000;
#CREDIT:;
#NOTES:
0000
0000
0000
0000
,
0000
0000
0000
0000
,
0000
0000
0000
0000
,
0000
0000
0000
0000
,
0000
1100
0010
1000
,
0001
0000
0010
0000
0100
1000
0000
1000
,
0001
0110
1000
0100
,
0010
0000
0001
0000
0010
0100
0000
0100
,
0010
1001
0010
1000
,
0010
0000
0100
0000
0100
0010
0000
0010
,
1000
0011
0100
1000
,
0010
0000
0000
1000
0100
0010
0001
1000
0010
0100
0001
1000
,
0010
1010
1000
0100
,
0010
0001
0100
0001
,
1100
0011
1000
0010
,
1000
0100
0010
0100
,
0110
1010
0001
1000
,
0010
1000
0100
1000
,
1100
0011
1000
0001
,
1000
0000
0000
1000
0100
0010
0001
0010
0100
1000
0100
0010
,
0011
1010
1010
0110
,
0110
0101
0101
0110
,
0110
0000
1010
0000
1010
0000
0010
1000
,
0000
1000
0010
0100
0010
0100
0010
0000
,
1010
0000
0000
1000
0000
0000
1000
0000
0000
0110
0100
0010
,
0100
0010
0100
0110
0000
0000
1001
0000
0000
0001
1000
0001
,
1000
0001
1000
1001
0010
1000
0010
0100
0001
0100
0010
1000
,
0100
0000
0010
0000
0100
0000
1000
0100
0010
1000
0001
0100
0010
1000
0001
0100
0000
0000
1010
0000
0000
0000
0000
0000
,
0101
1010
0000
2100
,
0100
3100
0000
1010
,
0101
0110
0000
0012
,
0010
0013
0110
1010
,
1001
0000
0000
1000
0100
0010
0100
0010
0100
1000
0000
0000
,
0110
0000
0000
1000
0001
1000
0001
1000
0001
1001
0000
0000
,
0100
0000
0000
0101
0000
0000
0100
0000
0000
1000
0100
0010
,
0001
1000
0010
0100
0001
0010
0100
0000
0000
1010
0000
0000
,
1001
1010
0000
2100
,
0010
3001
0000
1100
,
1010
0101
0000
2010
,
0100
3001
0000
1010
,
0101
0000
0000
1000
0100
0010
0001
0010
0100
1100
0000
0000
,
1000
0000
0000
0001
0010
0100
1000
0100
0010
0001
0000
0000
,
0100
0000
0000
1000
0000
0000
0100
0000
0000
1000
0100
0010
,
0001
0000
0100
0000
0010
0000
1000
0000
0100
0000
0010
0000
0001
0000
0000
0000
0000
0000
1100
0000
0000
1100
0000
0000
,
1010
1100
0110
1001
1010
0110
1001
0110
,
1001
0000
1010
0000
1000
0100
0010
0001
0010
0100
0001
0100
0101
0000
0000
0000
,
0000
0110
0000
0000
1001
0000
0000
0000
0000
0000
0000
0000
0101
0000
0000
0000
,
1010
0000
0000
0000
0000
0000
1000
0010
0100
0001
0100
0010
1000
0001
0100
0010
0000
0000
1000
0000
0010
0000
0100
0000
,
0001
0000
0000
1000
0100
1000
0001
0000
0000
1000
0100
0010
,
0001
0010
0100
1000
0000
0000
1001
0000
0000
1000
0100
1000
,
0100
0000
0000
0001
0010
0001
0010
0000
0000
0001
0100
0010
,
0100
0000
0010
0100
0000
0000
0110
0000
0000
0010
0000
0000
,
0100
0000
0000
0010
0000
0000
1000
0000
0100
0000
0000
0001
,
0010
0000
0100
0010
0000
0000
1010
0000
0000
0000
0000
0000
,
1000
0000
0000
0001
0000
0000
1000
0000
0000
1000
0100
0010
,
0100
1000
0100
0010
0100
1000
1010
0000
0000
1001
0000
0000
,
0000
0000
0000
0000
0000
0000
0000
0000
0000
0000
0000
0000
0000
0000
0000
0000
0000
0000
1000
0010
0100
0001
1000
0010
,
0100
0001
0100
0010
1000
0001
0100
0010
1000
0100
0010
0001
1000
0010
1000
0100
0000
0000
2010
0000
0000
0000
0000
0000
,
0010
3100
0000
0102
,
0100
0103
0000
2010
,
0100
3010
0000
0012
,
0100
1003
0000
1010
,
0101
0000
0000
1010
1000
0010
1000
0010
1000
1010
0000
0000
,
0110
0000
0000
0101
0001
0100
0001
0100
0001
0101
0000
0000
,
1100
0000
0000
0011
0000
0000
1010
0000
0000
0001
1000
0100
,
1000
0100
0010
0001
0010
0001
0010
0000
0000
1010
0000
0000
,
1010
0101
0000
2010
,
0010
3010
0000
1100
,
0011
1100
0000
0012
,
0010
0013
0000
1100
,
0011
0000
0000
1100
0010
0100
1000
0100
0010
1001
0000
0000
,
0110
0000
0000
1010
0010
0100
1000
0100
0010
1010
0000
0000
,
0110
1001
0110
0011
,
0110
1001
0110
2010
,
0000
3010
0110
0110
,
0000
0102
0000
0103
,
0000
0000
0000
0110
0000
0000
1001
0000
0000
1001
0010
0100
,
1000
0100
0010
0100
1000
0100
1100
0000
0000
0000
0000
0000
;

//---------------dance-single - Copied from----------------
#NOTEDATA:;
#CHARTNAME:Copied from;
#STEPSTYPE:dance-single;
#DESCRIPTION:Copied from;
#CHARTSTYLE:;
#DIFFICULTY:Hard;
#METER:9;
#RADARVALUES:0.396141,0.473240,0.143678,0.086207,0.179598,386.000000,366.000000,20.000000,12.000000,0.000000,0.000000,0.000000,0.000000,0.000000,0.396141,0.473240,0.143678,0.086207,0.179598,386.000000,366.000000,20.000000,12.000000,0.000000,0.000000,0.000000,0.000000,0.000000;
#CREDIT:Copied from;
#NOTES:
0000
0000
0000
0000
,
0000
0000
0000
0000
,
0000
0000
0000
0000
,
0000
0000
0000
0000
,
0000
1000
0100
1000
,
0001
0000
0010
0000
0100
1000
0000
1000
,
0100
0010
0001
1000
,
0010
0000
0100
0000
0001
1000
0000
1000
,
0001
0010
0100
0010
,
0001
0000
1000
0000
0010
0100
0000
0100
,
0010
1000
0001
0010
,
0100
0000
0000
1000
0100
1000
0100
0010
0001
0010
0001
0010
,
0100
1000
0100
0010
,
0001
0000
1000
0000
0010
0100
0000
0100
,
0010
1000
0001
1000
,
0100
0000
0010
0000
0001
1000
0000
1000
,
0001
0100
0010
1000
,
0001
0000
0010
0000
0100
1000
0000
1000
,
0001
0100
0010
0100
,
0010
0000
0000
1000
0100
0010
0100
1000
0100
0010
0100
1000
,
0100
1000
1000
0100
,
0100
0010
0010
0001
,
0001
0000
1000
0000
1000
0000
0001
1000
,
0000
0010
1000
0100
0010
0001
1000
0000
,
0010
0100
0100
0001
,
0001
1000
1000
0100
,
0100
0000
1000
0100
0010
0001
1000
0010
,
0100
0001
2000
0000
0000
0000
3001
0000
,
0001
0001
0000
2100
,
0010
3001
0000
1000
,
1000
1000
0000
0012
,
0100
1003
0000
0010
,
1000
0000
0000
0001
1000
0001
1000
0001
1000
0001
0000
0000
,
0010
0000
0000
0100
0010
0100
0010
0100
0010
0200
0000
0000
,
1300
0000
0010
0000
0100
0000
1000
0100
,
0010
0001
1000
0000
1001
0000
0100
0000
,
0100
0100
0000
2010
,
0100
3010
0000
0001
,
0001
0001
0000
2100
,
0001
3010
0000
0001
,
0010
0000
0000
1000
0100
1000
0100
1000
0100
0010
0000
0000
,
0001
0000
0000
0010
0001
0010
0001
0010
0001
1000
0000
0000
,
0100
0000
0010
0000
0001
0000
1000
0100
,
1000
0001
0010
0100
1000
0000
0001
0000
,
0001
1000
1000
0100
,
0100
0000
1000
0100
0010
0001
1001
0000
,
0010
0110
1000
1100
,
0001
0000
0001
0001
0001
0001
1000
0001
,
1000
0000
0010
0100
0010
0000
1000
0100
,
0010
0001
1000
0000
1001
0000
0010
0100
,
0010
0000
0100
0010
0100
0000
1000
0100
,
0010
0001
0010
0000
1001
0000
1000
0100
,
1000
0001
0010
0100
1000
0001
0100
0010
,
1000
0001
0010
0000
0100
0000
1000
0100
,
1000
0000
0010
0001
0011
0000
1001
0000
,
0110
0011
1100
0001
,
0000
0000
0000
0000
0000
0000
1000
0100
,
0010
0001
1000
0010
0100
0000
1000
0000
,
1000
1000
0000
0012
,
0100
1003
0000
0001
,
0001
0001
0000
2100
,
0010
3001
0000
0100
,
0001
0000
0000
1000
0001
1000
0001
1000
0001
1000
0000
0000
,
0100
0000
0000
0010
0100
0010
0100
0010
0100
0020
0000
0000
,
0031
0000
0100
0000
0010
0000
0001
0010
,
0100
1000
0001
0000
1001
0000
0010
0000
,
0010
0010
0000
0102
,
0010
0103
0000
1000
,
1000
1000
0000
0012
,
1000
0103
0000
1000
,
0100
0000
0000
0001
0010
0001
0010
0001
0010
0100
0000
0000
,
1000
0000
0000
0100
1000
0100
1000
0100
1000
0001
0000
0000
,
0010
0000
0100
0000
1000
0000
0001
0010
,
0001
1000
0100
0010
0001
0000
1000
0000
,
0000
0010
0010
0010
,
0000
0002
0000
1003
,
0000
0000
0000
0010
0000
0000
0001
0000
0000
0001
0010
0001
,
0010
0001
0010
0001
0010
0001
0010
0000
0000
0000
0000
0000
;

//---------------dance-single - Copied from Copied f----------------
#NOTEDATA:;
#CHARTNAME:Copied from Copied f;
#STEPSTYPE:dance-single;
#DESCRIPTION:Copied from Copied f;
#CHARTSTYLE:;
#DIFFICULTY:Medium;
#METER:5;
#RADARVALUES:0.219622,0.330819,0.107759,0.143678,0.003592,214.000000,199.000000,15.000000,20.000000,0.000000,0.000000,0.000000,0.000000,0.000000,0.219622,0.330819,0.107759,0.143678,0.003592,214.000000,199.000000,15.000000,20.000000,0.000000,0.000000,0.000000,0.000000,0.000000;
#CREDIT:Copied from Copied f;
#NOTES:
0000
0000
0000
0000
,
0000
0000
0000
0000
,
0000
0000
0000
0000
,
0000
0000
0000
0000
,
0000
1000
0001
1000
,
0000
0010
0100
0010
,
0000
1000
1000
0001
,
0000
1000
0100
1000
,
0000
0010
0001
0010
,
0000
1000
0001
1000
,
0000
1000
0100
1000
,
0000
2002
0000
3003
,
0000
1000
0100
1000
,
0000
0010
0001
0010
,
0000
0100
0100
0010
,
0000
1000
1000
0001
,
0000
0100
0100
1000
,
0000
0010
0010
0001
,
0000
1000
0001
1000
,
0000
0100
0100
0100
,
0010
1000
1000
1000
,
1000
1000
1000
1000
,
1000
0100
0100
0100
,
0100
0100
0100
0100
,
0100
0001
0000
1000
,
0000
0001
0000
1000
,
0000
0001
0100
0010
,
1000
1000
0000
1000
,
0001
1000
0000
2002
,
0000
3003
0000
0100
,
0010
0100
0000
0220
,
0000
0330
0000
1000
,
1000
0001
0000
0100
,
0100
0010
0000
0001
,
1000
0001
0000
2002
,
0000
3003
0000
0100
,
0100
0010
0000
2020
,
0000
3030
0000
0100
,
0100
0001
0000
2002
,
0000
3003
0000
0100
,
0010
1000
0000
0001
,
0001
1000
0000
0100
,
0000
0010
0000
1000
,
1000
0000
0001
0000
0000
0000
1002
0003
,
0000
0000
2001
3000
0000
0000
0210
0300
,
0000
0000
1002
0003
0000
0000
1000
0000
,
0000
1000
0000
0000
1000
0000
0000
0000
0000
0000
0000
0000
0001
0000
0000
0000
,
1000
0100
0000
1000
,
1000
0010
0000
0100
,
0100
0001
0000
1000
,
1000
0001
0000
0001
,
0001
1000
0000
0100
,
0010
1000
0000
1000
,
0001
0100
0000
0010
,
1000
0001
0000
1000
,
1000
1000
1000
1001
,
0000
0000
0000
0000
0000
0000
1000
1000
,
1000
1000
0010
0010
0010
0000
0100
0000
,
0100
0010
0000
1002
,
0000
1003
0000
1000
,
0010
0100
0000
1002
,
0000
1003
0000
0010
,
0010
0100
0000
1000
,
1000
0001
0000
1000
,
1000
0010
0000
0100
,
0100
0001
0000
0010
,
0000
1000
0000
1002
,
0000
1003
0000
1000
,
0010
0100
0000
2001
,
0000
3001
0000
0100
,
0100
0010
0000
1000
,
1000
0001
0000
0100
,
0000
0010
0000
0001
,
0000
0001
0000
1000
,
0000
0001
0000
1000
,
0000
0000
0000
1000
,
0000
0001
0000
0010
;

//---------------dance-single - Copied from Copied f----------------
#NOTEDATA:;
#CHARTNAME:Copied from Copied f;
#STEPSTYPE:dance-single;
#DESCRIPTION:Copied from Copied f;
#CHARTSTYLE:;
#DIFFICULTY:Easy;
#METER:3;
#RADARVALUES:0.201149,0.303251,0.000000,0.000000,0.003592,196.000000,196.000000,0.000000,0.000000,0.000000,0.000000,0.000000,0.000000,0.000000,0.201149,0.303251,0.000000,0.000000,0.003592,196.000000,196.000000,0.000000,0.000000,0.000000,0.000000,0.000000,0.000000,0.000000;
#CREDIT:Copied from Copied f;
#NOTES:
0000
0000
0000
0000
,
0000
0000
0000
0000
,
0000
0000
0000
0000
,
0000
0000
0000
0000
,
0000
1000
0001
1000
,
0000
0010
0100
0010
,
0000
1000
1000
0001
,
0000
1000
0100
1000
,
0000
0010
0001
0010
,
0000
1000
0001
1000
,
0000
1000
0100
1000
,
0000
0001
0000
0000
,
0000
1000
0100
1000
,
0000
0010
0001
0010
,
0000
0100
0100
0010
,
0000
1000
1000
0001
,
0000
0100
0100
1000
,
0000
0010
0010
0001
,
0000
1000
0001
1000
,
0000
0100
0100
0100
,
0010
1000
1000
1000
,
1000
1000
1000
1000
,
1000
0100
0100
0100
,
0100
0100
0100
0100
,
0100
0001
0000
1000
,
0000
0001
0000
1000
,
0000
0001
0100
0010
,
1000
1000
0000
1000
,
0001
1000
0000
0001
,
0000
0000
0000
0100
,
0010
0100
0000
0010
,
0000
0000
0000
1000
,
1000
0001
0000
0100
,
0100
0010
0000
0001
,
1000
0001
0000
0001
,
0000
0000
0000
0100
,
0100
0010
0000
0010
,
0000
0000
0000
0100
,
0100
0001
0000
0001
,
0000
0000
0000
0100
,
0010
1000
0000
0001
,
0001
1000
0000
0100
,
0000
0010
0000
1000
,
1000
0001
0000
0001
,
0000
0001
0000
0010
,
0000
0001
0000
1000
,
0000
1000
0000
0000
1000
0000
0000
0000
0000
0000
0000
0000
0001
0000
0000
0000
,
1000
0100
0000
1000
,
1000
0010
0000
0100
,
0100
0001
0000
1000
,
1000
0001
0000
0001
,
0001
1000
0000
0100
,
0010
1000
0000
1000
,
0001
0100
0000
0010
,
1000
0001
0000
1000
,
1000
1000
1000
0001
,
0000
0000
0000
0000
0000
0000
1000
1000
,
1000
1000
0010
0010
0010
0000
0100
0000
,
0100
0010
0000
0001
,
0000
0000
0000
1000
,
0010
0100
0000
0001
,
0000
0000
0000
0010
,
0010
0100
0000
1000
,
1000
0001
0000
1000
,
1000
0010
0000
0100
,
0100
0001
0000
0010
,
0000
1000
0000
0001
,
0000
0000
0000
1000
,
0010
0100
0000
0001
,
0000
0001
0000
0100
,
0100
0010
0000
1000
,
1000
0001
0000
0100
,
0000
0010
0000
0001
,
0000
0001
0000
1000
,
0000
0001
0000
1000
,
0000
0000
0000
1000
,
0000
0001
0000
0010
;

//---------------dance-single - Copied from Copied f----------------
#NOTEDATA:;
#CHARTNAME:Copied from Copied f;
#STEPSTYPE:dance-single;
#DESCRIPTION:Copied from Copied f;
#CHARTSTYLE:;
#DIFFICULTY:Beginner;
#METER:1;
#RADARVALUES:0.085181,0.192991,0.043103,0.043103,0.000000,83.000000,77.000000,6.000000,6.000000,0.000000,0.000000,0.000000,0.000000,0.000000,0.085181,0.192991,0.043103,0.043103,0.000000,83.000000,77.000000,6.000000,6.000000,0.000000,0.000000,0.000000,0.000000,0.000000;
#CREDIT:Copied from Copied f;
#NOTES:
// measure 0
0000
0000
0000
0000
,  // measure 1
0000
0000
0000
0000
,  // measure 2
0000
0000
0000
0000
,  // measure 3
0000
0000
0000
0000
,  // measure 4
0000
1000
0000
0000
,  // measure 5
0000
0000
0000
0000
,  // measure 6
0000
0001
0000
0000
,  // measure 7
0000
0000
0000
0000
,  // measure 8
0000
0010
0000
0000
,  // measure 9
0000
0000
0000
0000
,  // measure 10
0000
0100
0000
0000
,  // measure 11
0000
0000
0000
0000
,  // measure 12
0000
1001
0000
0000
,  // measure 13
0000
0000
0000
0000
,  // measure 14
0000
0100
0000
0000
,  // measure 15
0000
0000
0000
0000
,  // measure 16
0000
0001
0000
0000
,  // measure 17
0000
0000
0000
0000
,  // measure 18
0000
1000
0000
0000
,  // measure 19
0000
0000
0000
0000
,  // measure 20
0000
0110
0000
0000
,  // measure 21
0000
0000
0000
0000
,  // measure 22
0000
1000
0000
0000
,  // measure 23
0000
0000
0000
0000
,  // measure 24
0000
0001
0000
1000
,  // measure 25
0000
0010
0000
0000
,  // measure 26
0000
0001
0000
0000
,  // measure 27
0000
0001
0000
1000
,  // measure 28
1000
0001
0000
0000
,  // measure 29
0000
0000
0000
0010
,  // measure 30
0010
0100
0000
0000
,  // measure 31
0000
0000
0000
0100
,  // measure 32
0100
0010
0000
0100
,  // measure 33
0000
0010
0000
0001
,  // measure 34
0001
0001
0000
0100
,  // measure 35
0000
0000
0000
1000
,  // measure 36
1000
1000
0000
0010
,  // measure 37
0000
0000
0000
0001
,  // measure 38
0001
0001
0000
0100
,  // measure 39
0000
0000
0000
1000
,  // measure 40
0000
0000
0000
1000
,  // measure 41
0000
0000
0000
0001
,  // measure 42
0000
0000
0000
0010
,  // measure 43
0000
0000
0000
1000
,  // measure 44
0000
0000
0000
0001
,  // measure 45
0000
0000
0000
1000
,  // measure 46
0000
0100
0000
0010
,  // measure 47
0000
0001
0000
1000
,  // measure 48
0000
1000
0000
1000
,  // measure 49
0000
0000
0000
0100
,  // measure 50
0000
0100
0000
0100
,  // measure 51
0000
0000
0000
0010
,  // measure 52
0000
0010
0000
0010
,  // measure 53
0000
0000
0000
0001
,  // measure 54
0000
0001
0000
0001
,  // measure 55
0000
0000
0000
0001
,  // measure 56
0000
0000
0000
1000
,  // measure 57
1000
0010
0010
1001
,  // measure 58
0000
0000
0000
0000
,  // measure 59
0000
0000
0000
0001
,  // measure 60
0000
0000
0000
0000
,  // measure 61
0000
0000
0000
1000
,  // measure 62
0000
0000
0000
0000
,  // measure 63
0000
0000
0000
0100
,  // measure 64
0000
0000
0000
0000
,  // measure 65
0000
0000
0000
1010
,  // measure 66
0000
0000
0000
0000
,  // measure 67
0000
0000
0000
0001
,  // measure 68
0000
0000
0000
0000
,  // measure 69
0000
0000
0000
1000
,  // measure 70
0000
0000
0000
0000
,  // measure 71
0000
0000
0000
0010
,  // measure 72
0000
0000
0000
0000
,  // measure 73
0000
0000
0000
2002
,  // measure 74
0000
3003
0000
0220
,  // measure 75
0000
0330
0000
2000
,  // measure 76
0000
0000
0000
0000
0000
0000
0000
0000
0000
0000
0000
0000
0000
0000
0000
0000
0000
0000
0000
0000
0000
0000
0000
0000
0000
0000
0000
0000
0000
0000
0000
0000
0000
0000
0000
0000
0000
0000
0000
0000
0000
0000
0000
0000
0000
0000
0000
0000
0000
0000
0000
0000
0000
0000
0000
0000
0000
0000
0000
0000
0000
0000
0000
0000
0000
0000
0000
0000
0000
0000
0000
0000
0000
0000
0000
0000
0000
0000
0000
0000
0000
0000
0000
0000
0000
0000
0000
0000
0000
0000
0000
0000
0000
0000
0000
0000
3000
0000
0000
0000
0000
0000
0000
0000
0000
0000
0000
0000
0000
0000
0000
0000
0000
0000
0000
0000
0000
0000
0000
0000
0000
0000
0000
0000
0000
0000
0000
0000
0000
0000
0000
0000
0000
0000
0000
0000
0000
0000
0000
0000
0000
0000
0000
0000
0002
0003
0000
0000
0000
0000
0000
0000
0000
0000
0000
0000
0000
0000
0000
0000
0000
0000
0000
0000
0000
0000
0000
0000
0000
0000
0000
0000
0000
0000
0000
0000
0000
0000
0000
0000
0000
0000
0000
0000
0000
0000
0000
0000
0000
0000
0000
0000
;
