#VERSION:0.83;
#TITLE:Violet Perfume;
#SUBTITLE:;
#ARTIST:SHK;
#TITLETRANSLIT:;
#SUBTITLETRANSLIT:;
#ARTISTTRANSLIT:;
#GENRE:;
#ORIGIN:;
#CREDIT:MEMO;
#BANNER:AV.avi;
#BACKGROUND:1420.png;
#PREVIEWVID:;
#JACKET:;
#CDIMAGE:;
#DISCIMAGE:Violet-bn.png;
#LYRICSPATH:;
#CDTITLE:;
#MUSIC:1420.mp3;
#OFFSET:-0.500000;
#SAMPLESTART:66.500000;
#SAMPLELENGTH:14.000000;
#SELECTABLE:YES;
#DISPLAYBPM:140.000000;
#BPMS:0.000=140.000,
87.000=70.000,
95.000=140.000,
115.000=70.000,
131.000=140.000,
16392.000=70.000,
17736.000=140.000,
41736.000=280.000,
41928.000=140.000;
#STOPS:41784.000=0.080,
41832.000=0.050,
41880.000=0.080,
41976.000=0.080,
42024.000=0.040,
42072.000=0.080;
#DELAYS:;
#WARPS:;
#TIMESIGNATURES:0.000=4=4;
#TICKCOUNTS:0.000=4;
#COMBOS:0.000=1;
#SPEEDS:0.000=1.000=0.000=0;
#SCROLLS:0.000=1.000;
#FAKES:;
#LABELS:0.000=Song Start;
#BGCHANGES:0.000=Violet Perfume - SHK (BGA) HD_x264.avi=1.600=1=1=1=StretchRewind==CrossFade==,
2.500=Violet Perfume - SHK (BGA) HD_x264.avi=1.000=0=0=1=====,
99999=-nosongbg-=1.000=0=0=0 // don't automatically add -songbackground-
;
#KEYSOUNDS:;
#ATTACKS:
;

//---------------pump-single - Lv.04----------------
#NOTEDATA:;
#CHARTNAME:Lv.04;
#STEPSTYPE:pump-single;
#DESCRIPTION:Lv.04;
#CHARTSTYLE:;
#DIFFICULTY:Beginner;
#METER:4;
#RADARVALUES:0.220692,0.248279,0.044138,0.017655,0.000000,175.000000,170.000000,5.000000,2.000000,0.000000,0.000000,0.000000,0.000000,0.000000,0.220692,0.248279,0.044138,0.017655,0.000000,175.000000,170.000000,5.000000,2.000000,0.000000,0.000000,0.000000,0.000000,0.000000;
#CREDIT:Lv.04;
#DISPLAYBPM:140.000000;
#NOTES:
00000
00000
00000
00000
,
00000
00000
00000
00000
,
00000
00010
00000
01000
,
00000
00001
00000
10000
,
00000
10001
00000
00000
,
00000
10000
00000
00010
,
00000
01000
00100
10000
,
10000
00001
00000
01000
,
00000
00010
00100
00001
,
10000
00100
00000
01000
,
00000
00001
00100
00010
,
00010
01000
00000
00100
,
00000
10000
00001
10001
,
00000
00001
00000
01000
,
00000
00010
00100
00001
,
00001
10000
00000
00010
,
00000
01000
00100
10000
,
00001
00100
00000
00010
,
00000
10000
00100
01000
,
01000
00010
00000
00100
,
00000
00001
10000
10001
,
00000
01000
00000
00010
,
00100
00001
10000
00100
,
01000
00010
10000
00001
,
00000
01000
00100
10000
,
10000
00001
00000
10000
,
00000
00010
00100
00001
,
10000
00200
00000
00300
,
00000
01000
00000
00001
,
10000
00010
00100
00001
,
10000
00100
01000
00001
,
00100
00010
01000
00100
,
10000
10001
00001
01000
,
00000
00010
00100
00001
,
00001
10000
00000
00010
,
00000
01000
00100
10000
,
00001
00100
00000
00010
,
00000
10000
00100
01000
,
01000
00010
00000
00100
,
00000
00001
10000
10001
,
00000
00010
01000
00010
,
00010
01000
00010
01000
,
01000
00001
10000
00001
,
00001
10000
00001
10000
,
10000
00100
00000
01000
,
00000
00010
00000
00100
,
00000
00001
00000
10000
,
00000
00100
00100
00100
,
00100
01000
00010
00100
,
00001
10000
00100
01000
,
01000
00010
01000
00100
,
10000
00001
00100
00010
,
00010
01000
00010
10000
,
00001
00100
00010
01000
,
00100
10000
00010
01000
,
00001
00000
00100
00000
00010
00000
01000
00100
,
20000
30000
00000
00000
;

//---------------pump-single - Lv.06----------------
#NOTEDATA:;
#CHARTNAME:Lv.06;
#STEPSTYPE:pump-single;
#DESCRIPTION:Lv.06;
#CHARTSTYLE:;
#DIFFICULTY:Easy;
#METER:6;
#RADARVALUES:0.422468,0.422074,0.167726,0.141243,0.004414,335.000000,316.000000,19.000000,16.000000,0.000000,0.000000,0.000000,0.000000,0.000000,0.422468,0.422074,0.167726,0.141243,0.004414,335.000000,316.000000,19.000000,16.000000,0.000000,0.000000,0.000000,0.000000,0.000000;
#CREDIT:Lv.06;
#DISPLAYBPM:140.000000;
#NOTES:
00000
00000
00000
00000
,
00000
00000
00000
00000
,
00000
00010
00010
01000
,
01000
00000
00100
01000
00010
00100
00002
00000
,
00000
10003
00000
00000
,
00000
00000
10000
00100
10000
00000
00001
00100
,
00001
00000
10000
00100
01000
00010
00100
00001
,
10000
00000
00001
00100
00001
00000
10000
00100
,
10000
00000
00001
00100
00010
00100
00001
10000
,
00100
01000
00010
00100
00010
00000
01000
00100
,
01000
00000
00010
00100
00001
10000
00100
01000
,
00010
00000
01000
00100
01000
00000
00010
00100
,
00010
00000
01000
00100
10000
00001
00100
00100
,
00100
00000
00010
00100
00001
00000
01000
00100
,
10000
00000
00010
00100
00001
10000
00100
01000
,
00010
00000
01000
00100
10000
00000
00010
00100
,
00001
00000
01000
00100
10000
00100
01000
00010
,
00100
00001
10000
00100
01000
00000
00001
00100
,
00010
00000
10000
00100
01000
00010
00100
00001
,
10000
00000
00001
00100
00010
00000
10000
00100
,
01000
00000
00001
00100
00010
01000
00100
00100
,
00100
02000
00000
03100
,
00020
00130
20000
30100
,
00002
00000
00103
00000
01000
00100
01100
00000
,
01100
00010
00100
00110
,
00110
10000
10100
00001
,
00101
00000
01000
00100
10000
00100
01000
00010
,
00100
00002
20000
00000
00000
00000
00000
30003
,
00000
02000
03000
01100
,
00020
00030
00110
00000
20000
30000
10100
00000
,
00002
00003
00101
00000
02000
03000
01001
00000
,
00020
00030
10010
00000
20000
30000
10010
00000
,
00002
00000
00003
00000
01001
00000
00000
00000
01000
00100
10000
00000
00010
00000
00100
00000
,
00001
00000
01000
00100
10000
00001
00100
00010
,
01000
00000
00010
00100
00001
00000
01000
00100
,
10000
00000
00010
00100
00001
00100
00010
01000
,
00100
10000
00001
00100
00010
00000
10000
00100
,
01000
00000
00001
00100
00010
01000
00100
10000
,
00001
00000
10000
00100
01000
00000
00001
00100
,
00010
00000
10000
00100
01000
00010
00100
00100
,
00100
00010
00110
01000
,
01100
00001
00101
10000
,
10100
00010
00010
01000
,
01000
00100
10000
00001
,
10001
00000
00001
00100
00010
01000
00100
10000
,
00001
00100
00010
00100
00001
10000
00100
01000
,
00010
00000
01000
00100
01000
00000
00010
00100
,
00010
00000
10000
00100
10000
00001
00100
00001
,
10000
00100
01000
00001
00100
00000
00010
10000
,
00100
00000
01000
00001
00100
00010
10000
00100
,
01000
00000
00010
10000
00100
00000
01000
00001
,
00100
00000
00010
10000
00100
01000
00001
00100
,
00010
00000
01000
00100
10000
00100
01000
00001
,
00100
00010
01000
00001
10000
00010
00100
00100
,
00010
10000
00100
00100
01000
00001
00100
00100
,
00001
01000
00100
10000
00001
00100
00010
01000
,
00200
00300
00000
00000
;

//---------------pump-single - Lv.08----------------
#NOTEDATA:;
#CHARTNAME:Lv.08;
#STEPSTYPE:pump-single;
#DESCRIPTION:Lv.08;
#CHARTSTYLE:;
#DIFFICULTY:Medium;
#METER:8;
#RADARVALUES:0.416162,0.423950,0.273658,0.017655,0.008828,330.000000,299.000000,31.000000,2.000000,0.000000,0.000000,0.000000,0.000000,0.000000,0.416162,0.423950,0.273658,0.017655,0.008828,330.000000,299.000000,31.000000,2.000000,0.000000,0.000000,0.000000,0.000000,0.000000;
#CREDIT:Lv.08;
#DISPLAYBPM:140.000000;
#NOTES:
00000
00000
00000
00000
,
00000
00000
00000
00000
,
00000
00000
00000
00000
,
00000
00000
00000
00000
,
00000
00000
00000
00000
,
00000
00000
10000
00100
01000
00000
00001
00100
,
00010
00000
10000
00100
01000
00100
10000
00100
,
01000
00100
10000
00000
00010
00100
00001
00000
,
01000
00100
10000
00000
00001
00100
00010
00000
,
10000
00100
01000
00000
00010
00100
00001
00000
,
01000
00100
10000
00000
00010
00100
00001
00100
,
00010
00100
00001
00000
01000
00100
10000
00000
,
00010
00100
00001
00000
10000
00100
01000
00010
,
00100
00100
00100
00000
00001
00100
00101
00000
,
10000
00100
10100
00000
00010
00100
00001
00100
,
00010
00100
00001
00000
01000
00100
10000
00000
,
00010
00100
00001
00000
10000
00100
01000
00000
,
00001
00100
00010
00000
10000
00100
10100
00000
,
00001
00100
00101
00000
01000
00100
10000
00100
,
01000
00100
10000
00000
00010
00100
00001
00000
,
01000
00100
10000
00000
00001
00100
00010
01000
,
00100
00100
00100
00000
00000
00000
00000
10100
,
00000
00000
00000
00101
00000
00000
00000
01100
,
00000
00000
00000
00110
00000
01010
00100
00000
,
10001
00100
01001
00100
,
10010
00100
01000
00010
,
10000
00000
00001
00000
01000
00010
10000
00001
,
00100
10000
00100
00001
20000
00000
00000
00000
,
30000
00000
00000
00000
00010
00000
00000
00110
,
00000
01000
00000
01100
00000
00001
00000
00101
,
00000
10000
00000
10100
00000
00010
00000
10010
,
00000
01000
00000
01001
00000
10000
00000
10010
,
00000
00000
00001
00000
00000
00000
01001
01000
01000
00000
00010
00100
00001
00000
00000
00000
,
01000
00100
10000
00000
00001
00100
10000
00100
,
00001
00100
10000
00000
01000
00100
10000
00000
,
00010
00100
00001
00000
10000
00100
01000
00000
,
00001
00100
00010
00000
01000
00100
10000
00000
,
00010
00100
00001
00000
10000
00100
00001
00100
,
10000
00100
00001
00000
00010
00100
00001
00000
,
01000
00100
10000
00000
00001
00100
00010
01000
,
00100
00100
00100
00000
10000
00000
10100
00000
,
00001
00101
01000
01100
,
00010
00110
10000
10010
,
00001
01001
00010
10010
,
01000
01000
01000
00000
00010
00100
00001
00100
,
00010
01000
00100
10000
01000
10000
00100
01000
,
00010
00100
00001
00010
00100
01000
00010
00100
,
01000
00100
00010
01000
00001
10000
00100
01000
,
00010
00010
00010
00000
10000
00100
10100
00000
,
00001
00100
00101
00000
10000
00100
00001
00100
,
10000
00100
00001
00000
00010
00100
00001
00000
,
01000
00100
10000
00000
00001
00100
00010
00000
,
10000
00100
01000
00000
00001
00100
00101
00000
,
10000
00100
10100
00000
00001
00100
10000
00100
,
00001
00100
10000
00000
01000
00100
10000
00010
,
00001
01000
10000
00100
01000
10000
00100
00001
,
00010
00100
20000
00000
30000
00000
00000
00000
;

//---------------pump-single - Lv.14----------------
#NOTEDATA:;
#CHARTNAME:Lv.14;
#STEPSTYPE:pump-single;
#DESCRIPTION:Lv.14;
#CHARTSTYLE:;
#DIFFICULTY:Hard;
#METER:14;
#RADARVALUES:0.570016,0.722491,0.008828,2.162782,0.542903,452.000000,451.000000,1.000000,245.000000,0.000000,0.000000,0.000000,0.000000,0.000000,0.570016,0.722491,0.008828,2.162782,0.542903,452.000000,451.000000,1.000000,245.000000,0.000000,0.000000,0.000000,0.000000,0.000000;
#CREDIT:Lv.14;
#DISPLAYBPM:140.000000;
#NOTES:
00000
00000
00000
00000
,
00000
00000
00000
00000
,
00000
00000
00000
00000
,
00000
00000
00000
00000
,
00000
00000
00000
10001
00000
00000
00000
00000
,
00000
00000
10000
00001
10000
00001
00200
00300
00020
00030
02000
03000
00100
10000
00020
00030
,
00100
00001
02000
03000
00200
00300
20000
30000
00020
00030
00200
00300
00002
00003
02000
00000
,
00000
00000
03010
00000
00000
00000
20000
30000
00200
00300
02000
03000
00010
00100
00002
00003
,
20000
30000
00200
00300
01000
00010
00200
00300
00020
00030
02000
03000
00100
10000
00002
00003
,
00200
00300
00020
00030
20000
30000
00200
00300
02000
03000
00020
00030
00100
00001
02000
03000
,
00100
10000
00020
00030
00200
00300
00002
00003
02000
03000
00200
00300
20000
30000
00020
00000
,
00000
00000
01030
00000
00000
00000
00002
00003
00200
00300
00020
00030
01000
00100
20000
30000
,
00002
00003
00200
00300
00010
01000
00200
00300
20000
30000
00002
00003
02000
00000
00010
00000
,
00010
00000
03010
00000
00000
00000
20000
30000
00200
00300
02000
03000
00010
00100
00002
00003
,
00100
00010
20000
30000
00200
00300
02000
03000
00002
00003
00200
00300
00020
00030
20000
00000
,
00000
00000
30001
00000
00000
00000
02000
03000
00200
00300
20000
30000
00001
00100
00020
00030
,
02000
03000
00200
00300
10000
00010
00200
00300
00002
00003
02000
03000
00100
10000
00002
00003
,
02000
03000
00020
00030
20000
30000
00002
00003
00200
00300
00020
00030
01000
00100
20000
30000
,
00100
01000
00002
00003
00200
00300
00020
00030
20000
30000
00200
00300
02000
03000
00002
00000
,
00000
00000
10003
00000
00000
00000
00020
00030
00200
00300
00002
00003
10000
00100
02000
03000
,
00020
00030
00200
00300
00001
01000
00200
00300
20000
30000
00020
00030
02000
00000
00001
00000
,
00001
00000
03001
00000
00000
00000
20000
00000
00000
00000
30010
00000
00000
02000
00000
03001
,
00000
00000
00200
00000
00000
00000
00310
00000
00000
00000
02000
00000
00000
00000
03100
00000
00000
00000
00000
00000
00000
00000
20000
30000
00002
00003
00200
00300
00010
01000
00200
00300
,
20000
30000
00020
00030
00100
00001
02000
03000
00200
00300
20000
30000
00001
00100
00020
00030
02000
03000
00200
00300
10000
00010
00200
00300
00002
00000
00003
00000
02000
00000
03000
00000
,
00200
00300
20000
30000
02000
03000
00200
00300
00020
00030
01000
00100
01000
00001
01000
00100
,
01000
00001
00100
00010
02000
03000
00010
00100
00010
20000
00000
00000
00000
00000
00000
00000
,
00000
00000
00000
30000
00000
00002
00000
00000
,
00000
01003
00000
00000
00000
00020
00000
00000
,
00000
00000
10030
00000
00000
00000
00000
00000
00000
00000
00200
00000
00000
00000
00000
01300
,
00000
00000
00000
00020
00000
00000
00000
00130
00000
00000
00000
00002
00000
00100
00000
01003
,
00000
00000
00000
00020
00000
00100
00000
10030
00000
00000
00000
00200
00300
02000
03000
00020
,
00030
00000
00200
00000
00300
00000
00002
00003
00020
00030
00200
00300
02000
00000
00010
00000
00010
00000
03010
00000
00000
00000
20000
30000
00200
00300
02000
03000
00010
00100
00002
00003
,
00100
00010
20000
30000
00200
00300
02000
03000
20000
30000
00200
00300
00002
00003
20000
00000
00000
00000
30010
00000
00000
00000
02000
03000
00200
00000
00300
00000
20000
00000
30000
00000
,
00001
00100
00020
00030
02000
03000
00200
00300
10000
00010
00200
00300
00002
00003
02000
03000
,
00100
10000
00002
00003
02000
03000
00020
00030
20000
30000
00002
00003
00200
00300
00020
00030
,
01000
00100
20000
30000
00100
01000
00002
00003
00200
00300
00020
00030
00002
00003
00200
00300
,
20000
30000
00002
00000
00000
00000
01003
00000
00000
00000
00020
00030
00200
00300
00002
00003
,
10000
00100
02000
03000
00020
00030
00200
00300
00001
01000
00200
00300
20000
30000
00020
00030
,
02000
00000
00001
00000
00001
00000
03001
00000
00000
00000
02000
03000
00200
00300
00020
00030
,
00002
00003
00200
00300
00020
00030
02000
03000
00200
00300
20000
30000
02000
03000
00200
00300
,
00020
00030
02000
03000
00200
00300
20000
30000
00002
00003
00200
00300
00020
00030
00002
00003
,
00200
00300
20000
30000
02000
03000
00200
00300
00020
00030
02000
03000
00200
00300
20000
30000
,
00002
00000
00100
00000
00100
00000
00103
00000
00000
00000
00020
00030
00100
00010
02000
03000
,
00100
01000
00020
00030
00100
00001
20000
30000
00100
01000
00002
00003
00100
00010
20000
30000
,
00100
01000
00002
00003
00100
00010
02000
03000
00200
00300
20000
30000
02000
03000
00200
00300
,
00020
00030
02000
03000
00200
00300
00020
00030
00002
00003
00100
00010
10000
00010
00100
00001
,
10000
00100
01000
00000
00010
00000
10000
00001
10000
00001
10000
00000
00100
01000
00100
01000
,
00100
01000
00001
00000
00100
00010
00100
00010
00100
00010
20000
30000
02000
03000
00200
00300
,
00020
00030
02000
00000
00000
00000
03001
00000
00000
00000
10000
00000
00100
01000
00100
01000
,
00100
01000
00001
00000
00100
00010
00100
00010
00100
00010
10000
00000
00100
10000
00010
00100
,
00010
00100
00001
00000
00100
00001
01000
00100
01000
00100
20000
30000
00002
00003
00200
00300
,
00010
01000
00200
00300
10000
00010
00200
00300
00002
00003
00020
00030
00200
00300
02000
03000
,
00010
00100
00002
00003
20000
30000
00200
00300
01000
00010
00200
00300
00010
01000
00200
00300
,
10000
00001
00200
00300
00001
10000
00200
00300
02000
03000
00010
00100
00001
00010
00001
00100
,
00010
01000
00200
00300
20000
00000
02000
00000
00000
33000
00000
00000
00000
00000
00000
00000
;

//---------------pump-single - Lv.17----------------
#NOTEDATA:;
#CHARTNAME:Lv.17;
#STEPSTYPE:pump-single;
#DESCRIPTION:Lv.17;
#CHARTSTYLE:;
#DIFFICULTY:Challenge;
#METER:17;
#RADARVALUES:0.770531,0.828423,0.061794,2.215749,0.825388,611.000000,604.000000,7.000000,251.000000,0.000000,1.000000,0.000000,0.000000,0.000000,0.770531,0.828423,0.061794,2.215749,0.825388,611.000000,604.000000,7.000000,251.000000,0.000000,1.000000,0.000000,0.000000,0.000000;
#CREDIT:Lv.17;
#DISPLAYBPM:140.000000;
#NOTES:
00000
00000
00000
00000
00000
00000
00000
00000
00000
00000
01000
00001
00100
00010
20000
00000
,
00100
00000
30100
00000
10000
00001
00100
00000
00010
00000
10000
00000
00100
01000
00002
00000
,
00100
00000
00103
00000
00001
10000
00100
00000
01000
00000
00001
00000
00100
00010
02000
00000
,
03100
00000
00020
00000
00130
00000
20000
00000
30010
00000
00002
00000
01003
00000
00010
00100
,
00010
10000
00100
01000
00010
00100
00002
00000
00000
00000
00000
00000
00000
00000
10003
00000
,
00000
00000
00000
00000
00000
00000
00000
00000
00000
00000
10000
00010
00100
00001
02000
00000
,
00100
00000
03100
00000
00100
10000
00020
00030
00100
00001
02000
03000
00200
00300
20000
30000
,
02000
03000
00200
00300
00020
00030
02000
00000
00100
00000
03100
00000
00100
10000
00002
00000
,
00100
00000
00103
00000
00100
00001
20000
30000
00200
00300
02000
03000
10000
00100
00002
00003
,
20000
30000
00200
00300
00001
00010
00200
00300
00002
00003
00020
00030
00100
01000
00020
00000
,
00100
00000
00130
00000
00100
00001
02000
03000
00100
10000
00020
00030
00200
00300
00002
00003
,
00020
00030
00200
00300
02000
03000
00020
00000
00100
00000
00130
00000
00100
00001
20000
00000
,
00100
00000
30100
00000
00100
10000
00002
00003
00200
00300
00020
00030
00001
00100
20000
30000
,
00002
00003
00200
00300
00020
00000
01030
00000
01010
00000
01000
00001
00100
00010
20000
00000
,
00100
00000
31000
00000
01000
00100
00020
00030
01000
00100
00020
00030
00002
00003
20000
30000
,
02000
03000
00002
00003
00020
00030
02000
00000
00100
00000
03001
00000
00001
00100
00020
00000
,
00100
00000
01030
00000
01000
00100
20000
30000
02000
03000
00002
00003
00010
00100
00002
00003
,
00020
00030
20000
30000
01000
00100
20000
30000
02000
03000
00002
00003
00010
00100
00002
00000
,
00100
00000
00013
00000
00010
00100
02000
03000
00010
00100
02000
03000
20000
30000
00002
00003
,
00020
00030
20000
30000
02000
03000
00020
00000
00100
00000
10030
00000
10000
00100
02000
00000
,
00100
00000
03010
00000
00010
00100
00002
00003
00020
00030
20000
30000
01000
00100
20000
30000
,
02000
00000
03000
00000
00200
00000
00300
00000
00020
00000
00000
00000
01030
00000
00000
00000
01010
00000
00000
00000
01010
00000
00000
00000
00000
00000
00020
00030
00002
00003
00200
00300
,
20000
30000
02000
00000
00000
03000
00200
00000
00000
00300
00020
00030
00002
00003
00200
00300
20000
30000
02000
00000
00000
03000
00200
00000
00000
00300
00020
00030
02000
03000
20000
30000
,
00200
00300
00002
00000
00000
00003
00020
00000
00000
00030
00200
00300
02000
03000
20000
30000
00200
00300
00002
00000
00000
00003
00100
00010
01000
00000
00100
00000
20000
00000
30000
00000
,
02000
03000
00200
00300
00010
01000
00200
00300
00020
00030
00002
00003
00100
00010
00002
00003
,
00200
00300
20000
30000
01000
00100
00020
00030
02000
03000
00200
00300
10000
00001
00200
00300
,
00020
00030
00002
00003
02000
03000
20000
30000
00200
00300
02000
03000
00020
00030
00100
00001
,
00010
00100
01000
00010
00100
01000
00100
00010
02000
03000
00100
10000
00001
00100
00020
00000
,
00000
00000
00000
00000
00000
00000
00000
00000
00000
00000
00000
00000
00000
00000
00000
00000
00030
00000
00000
00000
02000
00000
03000
00000
00200
00300
20000
00000
00000
30000
02000
03000
,
00200
00300
00020
00000
00000
00030
02000
03000
00200
00300
00020
00030
00002
00003
00200
00300
00020
00000
00001
00000
00030
00000
00020
00030
00200
00300
00002
00000
00000
00003
00020
00030
,
00200
00300
02000
00000
00000
03000
00020
00030
00200
00300
02000
03000
20000
30000
00200
00300
02000
00000
10000
00000
03000
00000
02000
03000
00200
00300
20000
00000
00000
30000
02000
03000
,
00200
00300
00002
00000
00000
00003
00020
00030
00200
00300
02000
03000
00020
00030
00200
00300
02000
00000
10000
00000
03000
00000
02000
03000
00200
00300
00002
00000
00000
00003
00020
00030
,
00200
00300
20000
00000
00000
30000
02000
03000
00200
00300
00020
00030
02000
03000
00200
00300
20000
00000
30001
00000
10001
00000
10000
00010
00100
00000
00001
00000
02000
00000
00000
00000
,
00100
00000
03100
00000
00100
10000
00020
00030
00100
00001
02000
03000
00200
00300
20000
30000
,
02000
03000
00200
00300
00020
00030
02000
00000
00100
00000
03100
00000
00100
10000
00002
00000
,
00100
00000
00103
00000
00100
00001
20000
30000
00200
00300
02000
03000
10000
00100
00002
00003
,
20000
30000
00200
00300
00001
00010
00200
00300
00002
00003
00020
00030
00100
01000
00020
00000
,
00100
00000
00130
00000
00100
00001
02000
03000
00100
10000
00020
00030
00200
00300
00002
00003
,
00020
00030
00200
00300
02000
03000
00020
00000
00100
00000
00130
00000
00100
00001
20000
00000
,
00100
00000
30100
00000
00100
10000
00002
00003
00200
00300
00020
00030
00001
00100
20000
30000
,
00002
00003
00200
00300
00020
00000
01030
00000
01010
00000
01010
00000
00001
00100
00020
00030
,
00002
00003
00020
00030
00200
00300
00001
00010
00001
00000
02000
03000
00200
00300
20000
00000
,
01000
00000
31000
00000
10000
00100
02000
00000
10000
00000
13000
00000
01000
00100
20000
00000
,
00001
00000
30001
00000
00100
00010
00002
00000
00010
00000
00013
00000
00100
00001
00020
00030
,
00200
00300
02000
03000
00020
00000
00100
00000
00130
00000
00010
10000
00100
01000
00002
00003
,
00010
00001
00200
00300
00010
00001
00200
00300
10000
00001
00200
00300
10000
01000
00200
00300
,
10000
01000
00200
00300
01000
10000
00200
00300
01000
10000
00200
00300
00001
10000
00200
00300
,
02000
03000
20000
30000
00020
00030
00002
00003
20000
30000
02000
03000
00200
00300
00010
00001
,
00100
10000
00001
00100
10000
01000
00100
10000
00001
00100
00010
00001
00100
10000
00020
00030
,
10000
00100
01000
00010
00100
00001
02000
03000
00001
00100
00010
01000
00100
10000
00002
00003
,
00010
00100
20000
30000
01000
00100
00020
00030
01000
00100
20000
30000
01000
00100
00002
00003
,
00010
00001
00100
00010
01000
00100
20000
30000
01000
10000
00100
01000
00010
00100
00002
00003
,
00010
00001
00100
00010
00001
00010
00200
00300
01000
10000
00100
01000
10000
01000
00100
10000
,
00001
00100
00010
01000
00010
00100
00001
01000
00001
00100
00010
10000
00010
00100
00001
00010
,
00001
00100
00010
00001
00010
00100
00001
00010
00100
01000
00010
00100
01000
10000
00100
01000
,
10000
00100
00001
00010
00100
10000
01000
10000
00100
00001
00010
00001
00100
01000
10000
00100
,
00001
00010
00100
10000
01000
00100
00020
00030
02000
00000
00102
00000
00000
00000
03003
00000
;

//---------------pump-double - Lv.10----------------
#NOTEDATA:;
#CHARTNAME:Lv.10;
#STEPSTYPE:pump-double;
#DESCRIPTION:Lv.10;
#CHARTSTYLE:;
#DIFFICULTY:Medium;
#METER:10;
#RADARVALUES:0.504439,0.716808,0.229520,0.000000,0.132415,400.000000,374.000000,26.000000,0.000000,0.000000,0.000000,0.000000,0.000000,0.000000,0.504439,0.716808,0.229520,0.000000,0.132415,400.000000,374.000000,26.000000,0.000000,0.000000,0.000000,0.000000,0.000000,0.000000;
#CREDIT:Lv.10;
#DISPLAYBPM:140.000000;
#NOTES:
0000000000
0000000000
0000000000
0000000000
,
0000000000
0000000000
0000000000
0000000000
,
0000000000
0000000000
0000000000
0000000000
,
0000000000
0000000000
0000000000
0000000000
,
0000000000
0000000000
0000000000
0000000000
,
0000000000
0000000000
0001000000
0000010000
0000100000
0000000000
0000001000
0000100000
,
0000010000
0000000000
0001000000
0000100000
0010000000
0001000000
0100000000
0010000000
,
1000000000
0000000000
0001000000
0010000000
0000100000
0000000000
0100000000
0010000000
,
1000000000
0000000000
0001000000
0010000000
0000100000
0001000000
0000001000
0000010000
,
0000000100
0000001000
0000000010
0000000100
0000000001
0000000000
0000001000
0000000100
,
0000010000
0000000000
0000000100
0000001000
0000000010
0000000100
0000000001
0000010000
,
0000000100
0000000000
0001000000
0000010000
0000100000
0000000000
0000001000
0000100000
,
0000010000
0000000000
0001000000
0000100000
0010000000
0000100000
0001000000
0000001000
,
0001001000
0000000000
0000001000
0000100000
0000010000
0000000000
0001000000
0000010000
,
0000100000
0000000000
0000001000
0000010000
0000000100
0000001000
0000000010
0000000100
,
0000000001
0000000000
0000001000
0000000100
0000010000
0000000000
0000000010
0000000100
,
0000000001
0000000000
0000001000
0000000100
0000010000
0000001000
0001000000
0000100000
,
0010000000
0001000000
0100000000
0010000000
1000000000
0000000000
0001000000
0010000000
,
0000100000
0000000000
0010000000
0001000000
0100000000
0010000000
1000000000
0000100000
,
0010000000
0000000000
0000001000
0000100000
0000010000
0000000000
0001000000
0000010000
,
0000100000
0000000000
0000001000
0000010000
0000000100
0000010000
0000001000
0001000000
,
0001001000
0001000000
0000000000
0000010100
,
0000000100
0010100000
0001000000
0000001100
,
0000000100
0000000000
0000000000
0000000000
0011000000
0000000000
0000000000
0000000000
0011000000
0010000000
0000100000
0001000000
0010000000
0000000000
0100000000
0000000000
,
0001000000
0010000000
0110000000
0100000000
1000000000
0010000000
0100000000
0001000000
,
0010000000
0000100000
0001100000
0001000000
0000001000
0000010000
0000011000
0000001000
,
0001000000
0000000000
0000100000
0000000000
0010000000
0001000000
0010000000
0000000000
0000100000
0010000000
0000100000
0000000000
0001000000
0000001000
0001000000
0000000000
,
0000000100
0000010000
0000000100
0000010000
0000000000
0000000000
0000000000
0000000000
0000000000
0000000000
0000000000
0000000000
0000000000
0000000000
0000000000
0000000000
,
0000000000
0000000000
0000000000
0000000000
0000000001
0000000000
0000000100
0000000000
0000000100
0000000000
0000000000
0000000000
0000000010
0000000100
0000000100
0000000000
,
0000000001
0000010000
0000000100
0000100000
0000010000
0000100000
0000010000
0000000000
0001000000
0000001000
0001000000
0000000000
0000010000
0000100000
0000010000
0000000000
,
0001000000
0000100000
0010000000
0001000000
1000000000
0010000000
1000000000
0001000000
1000000000
0010000000
0010000000
0000000000
0100000000
0010000000
0010000000
0000000000
,
1000000000
0000100000
0010000000
0000010000
0000100000
0000010000
0000100000
0000000000
0000001000
0001000000
0000001000
0000000000
0000100000
0000010000
0000100000
0000000000
,
0000001000
0000010000
0000000100
0000001000
0000000010
0000001000
0000001010
0000000000
0000000010
0000000100
0000000110
0000000000
0000001000
0000000000
0000000100
0000000000
,
0000001100
0000000000
0000001000
0000010000
0000100000
0001000000
0010000000
0000100000
,
0010100000
0000000000
0010000000
0001000000
0011000000
0000000000
0100000000
0010000000
,
0110000000
0000000000
1000000000
0000100000
0010000000
0001000000
1000000000
0100000000
,
0010000000
0001000000
0100000000
0010000000
0110000000
0000000000
0001000000
0010000000
,
0011000000
0000000000
0001000000
0000100000
0000010000
0000001000
0000000100
0000010000
,
0000010100
0000000000
0000000100
0000001000
0000001100
0000000000
0000000010
0000000100
,
0000000110
0000000000
0000000001
0000010000
0000000100
0000001000
0000000010
0000001000
,
0000001010
0000000000
0000000000
0000000000
0000000100
0000000000
0000001000
0000000000
0000010000
0000000000
0000100000
0000000000
0001000000
0000010000
0001000000
0000000000
,
0000100000
0000000000
0000010000
0000000000
0010000000
0000000000
0001000000
0000000000
0000100000
0000000000
0000010000
0000000000
0000001000
0000100000
0000001000
0000000000
,
0000010000
0000100000
0001000000
0000100000
0001100000
0000100000
0000010000
0000001000
,
0000011000
0000001000
0000010000
0000100000
0000010000
0000100000
0000001000
0001000000
,
0000001000
0000000000
0001000000
0000100000
0010000000
0010000000
0001000000
0000100000
,
0000010000
0000010000
0000001000
0000010000
0000100000
0000100000
0000001000
0000010000
,
0000000100
0000000100
0000001000
0000000010
0000001000
0000000010
0000010000
0000000001
,
0000010000
0000000001
0000001000
0000000100
0000010000
0000001000
0001000000
0000010000
,
0001010000
0000000000
0000100000
0001000000
0010000000
0000000000
0000100000
0001000000
,
0010000000
0000000000
0100000000
1000000000
0010000000
0000100000
0010000000
0001000000
,
0000100000
0000000000
0000001000
0000010000
0000000100
0000000000
0000001000
0000010000
,
0000100000
0000000000
0001000000
0000100000
0000010000
0001000000
0010000000
0100000000
,
0010000000
0001000000
0000010000
0000001000
0000000100
0000000000
0000010000
0000001000
,
0000000100
0000000000
0000000010
0000000001
0000000100
0000010000
0000000100
0000001000
,
0000010000
0000000000
0001000000
0000100000
0010000000
0000000000
0001000000
0000100000
,
0000010000
0000000000
0000001000
0000010000
0000100000
0000001000
0000000100
0000000010
,
0000001010
0000000000
0000000000
0000000000
;

//---------------pump-double - Lv.15----------------
#NOTEDATA:;
#CHARTNAME:Lv.15;
#STEPSTYPE:pump-double;
#DESCRIPTION:Lv.15;
#CHARTSTYLE:;
#DIFFICULTY:Edit;
#METER:15;
#RADARVALUES:0.621721,0.770657,0.061794,2.427613,0.600282,493.000000,486.000000,7.000000,275.000000,0.000000,0.000000,0.000000,0.000000,0.000000,0.621721,0.770657,0.061794,2.427613,0.600282,493.000000,486.000000,7.000000,275.000000,0.000000,0.000000,0.000000,0.000000,0.000000;
#CREDIT:Lv.15;
#DISPLAYBPM:140.000000;
#NOTES:
0000000000
0000000000
0000000000
0000000000
,
0000000000
0000000000
0000000000
0000000000
,
0000000000
0000000000
0000000000
0000000000
,
0000000000
0000000000
0000000000
0000000000
,
0000000000
0000000000
0000000000
0000110000
0000000000
0000000000
0000000000
0000000000
,
0000000000
0000000000
0000010000
0000100000
0000010000
0000100000
0000000200
0000000300
0000020000
0000030000
0000000002
0000000003
0000000100
0000000001
0000020000
0000030000
,
0000000100
0000010000
0000000002
0000000003
0000000200
0000000300
0000000020
0000000030
0000002000
0000003000
0000000200
0000000300
0000020000
0000030000
0000002000
0000003000
,
0002000000
0003000000
0000200000
0000300000
0010000000
0000100000
2000000000
3000000000
0020000000
0030000000
0200000000
0300000000
0001000000
0010000000
0000200000
0000300000
,
0002000000
0003000000
0000002000
0000003000
0000010000
0000000100
0000002000
0000003000
0000000020
0000000030
0000000200
0000000300
0000000001
0000010000
0000000200
0000000300
,
0000002000
0000003000
0000020000
0000030000
0000100000
0001000000
0020000000
0030000000
0000200000
0000300000
2000000000
3000000000
0010000000
1000000000
0000200000
0000300000
,
0010000000
0000100000
2000000000
3000000000
0020000000
0030000000
0200000000
0300000000
0002000000
0003000000
0020000000
0030000000
0000200000
0000300000
0002000000
0003000000
,
0000002000
0000003000
0000020000
0000030000
0000000100
0000010000
0000000002
0000000003
0000000200
0000000300
0000000020
0000000030
0000001000
0000000100
0000020000
0000030000
,
0000002000
0000003000
0002000000
0003000000
0000100000
0010000000
0002000000
0003000000
0200000000
0300000000
0000200000
0000300000
2000000000
0000000000
0010000000
0000000000
,
0010000000
0000000000
3010000000
0000000000
0000000000
0000000000
2000000000
3000000000
0000200000
0000300000
0020000000
0030000000
0001000000
0100000000
0020000000
0030000000
,
0100000000
0001000000
0020000000
0030000000
0000200000
0000300000
0002000000
0003000000
0000002000
0000003000
0000020000
0000030000
0000000200
0000000300
0000002000
0000003000
,
0000000020
0000000030
0000000200
0000000300
0000000010
0000001000
0000000200
0000000300
0000020000
0000030000
0000000002
0000000003
0000000100
0000000001
0000020000
0000030000
,
0000000200
0000000300
0000002000
0000003000
0000010000
0000100000
0002000000
0003000000
0020000000
0030000000
0000200000
0000300000
0001000000
0000001000
0000020000
0000030000
,
0000000200
0000000300
0000002000
0000003000
0000000010
0000000100
0000000002
0000000003
0000020000
0000030000
0000000200
0000000300
0000001000
0000000010
0000000200
0000000300
,
0000000010
0000001000
0000000200
0000000300
0000020000
0000030000
0000002000
0000003000
0002000000
0003000000
0000200000
0000300000
0020000000
0030000000
0002000000
0003000000
,
0200000000
0300000000
0020000000
0030000000
0100000000
0001000000
0020000000
0030000000
0000200000
0000300000
2000000000
3000000000
0010000000
1000000000
0000200000
0000300000
,
0020000000
0030000000
0002000000
0003000000
0000100000
0000010000
0000002000
0000003000
0000000200
0000000300
0000020000
0000030000
0000002000
0000000000
0001000000
0000000000
,
0000003000
0000000000
0000000000
0000000000
0000000000
0000000000
0000210000
0000000000
0000000000
0000000000
0000300100
0000000000
0000000000
0000120000
0000000000
0010030000
,
0000000000
0000000000
0002001000
0000000000
0000000000
0000000000
0003000100
0000000000
0000000000
0000000000
0001002000
0000000000
0000000000
0000000000
0010003000
0000000000
0000000000
0000000000
0000000000
0000000000
0000000000
0000000000
0000020000
0000030000
0002000000
0003000000
0000002000
0000003000
0000010000
0000000100
0000002000
0000003000
,
0000020000
0000030000
0002000000
0003000000
0000001000
0000100000
0002000000
0003000000
0020000000
0030000000
0000200000
0000300000
0001000000
0000001000
0000200000
0000300000
0000020000
0000030000
0000002000
0000003000
0000000100
0000010000
0000002000
0000003000
0002000000
0000000000
0003000000
0000000000
0000200000
0000000000
0000300000
0000000000
,
0020000000
0030000000
0002000000
0003000000
0000200000
0000300000
0020000000
0030000000
2000000000
3000000000
0000100000
0010000000
0001000000
0010000000
0000100000
0001000000
,
0000100000
0010000000
0001000000
0000100000
0000020000
0000030000
0001000000
0000001000
0001000000
0000001000
0002002000
0000000000
0000000000
0000000000
0000000000
0000000000
,
0000000000
0000000000
0003003000
0000000000
0000000000
0000201000
0000000000
0000000000
,
0000000000
0000000000
0000300200
0000000000
0000000000
0000000000
0000000000
0000000000
0000000300
0000000000
0000002000
0000003000
0000020000
0000030000
0002000000
0003000000
,
0000002000
0000003000
0000200000
0000000000
0000000000
0000300000
0000020000
0000000000
0000000000
0000000000
0001000000
0000000000
0000000000
0000000000
0000000000
0020030000
,
0000000000
0000000000
0000000000
0000000000
0030000000
0000000000
0002000000
0003000000
0000200000
0000300000
0000002000
0000003000
0002000000
0003000000
0000020000
0000000000
0000000000
0000030000
0000002000
0000000000
0000000000
0000000000
0000000010
0000000000
0000000000
0000000000
0000000000
0000000000
0000000000
0000000000
0000003200
0000000000
,
0000000000
0000000000
0000000000
0000000000
0000000300
0000000000
0000020000
0000030000
0000002000
0000003000
0002000000
0003000000
0000020000
0000030000
0000200000
0000000000
0000000000
0000300000
0002000000
0000000000
0000000000
0000000000
0100000000
0000000000
0000000000
0000000000
0000000000
0000000000
0000000000
0000000000
0023000000
0000000000
,
0000000000
0000000000
0000000000
0000000000
0030000000
0000000000
0000200000
0000300000
0002000000
0003000000
0000002000
0000003000
0000200000
0000000000
0000010000
0000000000
0000010000
0000000000
0000310000
0000000000
0000000000
0000000000
0020000000
0030000000
0000200000
0000300000
2000000000
3000000000
0010000000
1000000000
0000200000
0000300000
,
0010000000
0000100000
2000000000
3000000000
0020000000
0030000000
0200000000
0300000000
0002000000
0003000000
0020000000
0030000000
0000200000
0000300000
0002000000
0003000000
0000002000
0000003000
0000020000
0000030000
0000000100
0000010000
0000000002
0000000003
0000000200
0000000000
0000000300
0000000000
0000000020
0000000000
0000000030
0000000000
,
0000001000
0000000100
0000020000
0000030000
0000002000
0000003000
0002000000
0003000000
0000100000
0010000000
0002000000
0003000000
0200000000
0300000000
0020000000
0030000000
,
1000000000
0000100000
0020000000
0030000000
0002000000
0003000000
0000200000
0000300000
0000010000
0000001000
0000000200
0000000300
0000020000
0000030000
0000000002
0000000003
,
0000000100
0000000001
0000020000
0000030000
0000000100
0000010000
0000000002
0000000003
0000000200
0000000300
0000000020
0000000030
0000002000
0000003000
0000000200
0000000300
,
0000020000
0000030000
0000002000
0000003000
0002000000
0003000000
0000200000
0000300000
0010000000
0000100000
2000000000
3000000000
0020000000
0030000000
0200000000
0300000000
,
0001000000
0010000000
0000200000
0000300000
0002000000
0003000000
0000002000
0000003000
0000010000
0000000100
0000002000
0000003000
0000000020
0000000030
0000020000
0000030000
,
0000000002
0000000000
0000000100
0000000000
0000000100
0000000000
0000000103
0000000000
0000000000
0000000000
0000000002
0000000003
0000020000
0000030000
0000000200
0000000300
,
0000002000
0000003000
0000010000
0001000000
0000002000
0000003000
0000200000
0000300000
0002000000
0003000000
0020000000
0030000000
0002000000
0003000000
0000200000
0000300000
,
0000001000
0001000000
0000020000
0000030000
0000002000
0000003000
0000020000
0000030000
0001000000
0000001000
0000200000
0000300000
0002000000
0003000000
0000200000
0000300000
,
0000001000
0001000000
0000020000
0000030000
0000002000
0000003000
0000020000
0000030000
0001000000
0000001000
0000200000
0000300000
0002000000
0003000000
0020000000
0030000000
,
0000200000
0000000000
1000000000
0000000000
1000300000
0000000000
0000100000
1000000000
0010000000
0100000000
0002000000
0003000000
0020000000
0030000000
0000200000
0000300000
,
0100000000
0010000000
2000000000
3000000000
0002000000
0003000000
0020000000
0030000000
0000100000
0001000000
0000002000
0000003000
0000020000
0000030000
0000000200
0000000300
,
0000001000
0000000001
0000000200
0000000300
0000000020
0000000030
0000002000
0000003000
0000000100
0000010000
0000002000
0000003000
0002000000
0003000000
0000200000
0000300000
,
0000002000
0000003000
0000020000
0000030000
0002000000
0003000000
0000002000
0000003000
0000200000
0000300000
0000010000
0000100000
0000010000
0000100000
0000010000
0000100000
,
0000010000
0000100000
0000001000
0000000000
0001000000
0000000000
0000010000
0000001000
0000000100
0000010000
0000002000
0000003000
0000000200
0000000300
0000000010
0000001000
,
0000000100
0000010000
0000000002
0000000003
0000000200
0000000300
0000000010
0000001000
0000000100
0000010000
0000002000
0000003000
0002000000
0003000000
0000200000
0000300000
,
0020000000
0030000000
0002000000
0003000000
0200000000
0300000000
0020000000
0030000000
1000000000
0000100000
0020000000
0030000000
0002000000
0003000000
0200000000
0300000000
,
0010000000
0100000000
0002000000
0003000000
2000000000
3000000000
0000200000
0000300000
0010000000
0001000000
0000200000
0000300000
0000002000
0000003000
0002000000
0003000000
,
0000010000
0000001000
0000000200
0000000300
0000020000
0000030000
0000002000
0000003000
0001000000
0000100000
0010000000
0001000000
0010000000
0001000000
0100000000
0010000000
,
0100000000
0010000000
2000000000
3000000000
0000200000
0000300000
0020000000
0030000000
0001000000
0000100000
0000020000
0000030000
0000002000
0000003000
0000000200
0000000300
,
0000010000
0000001000
0002000000
0003000000
0000200000
0000300000
0010000000
0001000000
0000100000
0000010000
0000001000
0000000100
0000001000
0000000100
0000010000
0000000001
,
0000010000
0000000001
0000010000
0000000100
0000001000
0000010000
0000100000
0001000000
0010000000
0000100000
0100000000
0000100000
0010000000
0001000000
0000100000
0000010000
,
0000001000
0000010000
0000200000
0000300000
0002000000
0000000000
2000000000
0000000000
0000000000
3003000000
0000000000
0000000000
0000000000
0000000000
0000000000
0000000000
;

//---------------pump-double - Lv.19----------------
#NOTEDATA:;
#CHARTNAME:Lv.19;
#STEPSTYPE:pump-double;
#DESCRIPTION:Lv.19;
#CHARTSTYLE:;
#DIFFICULTY:Challenge;
#METER:19;
#RADARVALUES:0.808364,0.827513,0.052966,2.065678,0.957804,641.000000,635.000000,6.000000,234.000000,0.000000,0.000000,0.000000,0.000000,0.000000,0.808364,0.827513,0.052966,2.065678,0.957804,641.000000,635.000000,6.000000,234.000000,0.000000,0.000000,0.000000,0.000000,0.000000;
#CREDIT:Lv.19;
#DISPLAYBPM:140.000000;
#NOTES:
0000000000
0000000000
0000000000
0000000000
0000000000
0000000000
0000000100
0000001000
0000010000
0000100000
0002000000
0000000000
0010000000
0000000000
0013000000
0000000000
,
0001000000
0010000000
0000200000
0000300000
0002000000
0003000000
0000002000
0000003000
0000010000
0000000100
0000002000
0000000000
0000000100
0000000000
0000003100
0000000000
,
0000001000
0000000100
0000020000
0000030000
0000002000
0000003000
0002000000
0003000000
0000100000
0010000000
0002000000
0003000000
0000200000
0000300000
0000002000
0000003000
,
0002000000
0003000000
0000020000
0000030000
0000002000
0000003000
0000000200
0000000300
0000020000
0000030000
0000000001
0000000100
0000000010
0000001000
0000000100
0000010000
,
0000001000
0001000000
0000200000
0000000000
0000000000
0000000000
0000000000
0000000000
0000000000
0000000000
1000300000
0000000000
0000000000
0000000000
0000000000
0000000000
,
0000000000
0000000000
0000000000
0000000000
0000000000
0000000000
1000000000
0001000000
0010000000
0000100000
0200000000
0000000000
0010000000
0000000000
0310000000
0000000000
,
0010000000
1000000000
0002000000
0003000000
0010000000
0000100000
0002000000
0003000000
0000002000
0000003000
0000020000
0000030000
0000000002
0000000003
0000000200
0000000300
,
0000000020
0000000030
0000002000
0000000000
0000000100
0000000000
0000003100
0000000000
0000000100
0000010000
0000002000
0000000000
0001000000
0000000000
0001003000
0000000000
,
0001000000
0000010000
0020000000
0030000000
0002000000
0003000000
0000200000
0000300000
0000001000
0001000000
0000020000
0000030000
0000002000
0000003000
0000200000
0000300000
,
0001000000
0000010000
0000200000
0000300000
0000002000
0000003000
0000020000
0000030000
0000000100
0000001000
0000000020
0000000000
0000000100
0000000000
0000000130
0000000000
,
0000000100
0000000001
0000002000
0000003000
0000000100
0000010000
0000002000
0000003000
0002000000
0003000000
0000200000
0000300000
2000000000
3000000000
0020000000
0030000000
,
0200000000
0300000000
0002000000
0000000000
0010000000
0000000000
0013000000
0000000000
0010000000
0000100000
0002000000
0000000000
0000001000
0000000000
0003001000
0000000000
,
0000001000
0000100000
0000000200
0000000300
0000002000
0000003000
0000020000
0000030000
0001000000
0000001000
0000200000
0000300000
0002000000
0003000000
0020000000
0030000000
,
0000200000
0000000000
1000300000
0000000000
1000100000
0000000000
1000000000
0001000000
0010000000
0000100000
0200000000
0000000000
0010000000
0000000000
0301000000
0000000000
,
0001000000
0000100000
0000020000
0000030000
0000001000
0000000100
0000020000
0000030000
0000000002
0000000003
0000000200
0000000300
0000020000
0000030000
0000200000
0000300000
,
0020000000
0030000000
2000000000
0000000000
0001000000
0000000000
3010000000
0000000000
0010000000
0100000000
0000200000
0000000000
0010000000
0000000000
0001300000
0000000000
,
0001000000
0000001000
0000200000
0000300000
0002000000
0003000000
0000020000
0000030000
0000001000
0001000000
0000020000
0000030000
0000002000
0000003000
0000200000
0000300000
,
0001000000
0000001000
0000200000
0000300000
0000020000
0000030000
0000002000
0000003000
0000000100
0000010000
0000000020
0000000000
0000000100
0000000000
0000001030
0000000000
,
0000001000
0000010000
0000200000
0000300000
0001000000
0010000000
0000200000
0000300000
2000000000
3000000000
0020000000
0030000000
0000200000
0000300000
0000020000
0000030000
,
0000000200
0000000300
0000000002
0000000000
0000001000
0000000000
0000000103
0000000000
0000000100
0000000010
0000020000
0000000000
0000000100
0000000000
0000031000
0000000000
,
0000001000
0001000000
0000020000
0000030000
0000002000
0000003000
0000200000
0000300000
0001000000
0000001000
0000200000
0000300000
0002000000
0003000000
0000020000
0000030000
,
0000002000
0000000000
0000000000
0000000000
0001003000
0000000000
0000000000
0000000000
0001001000
0000000000
0000000000
0000000000
0001001000
0000000000
0000000000
0000000000
0000000000
0000000000
0000000000
0000000000
0002000000
0000000000
0003000000
0000000000
0000200000
0000300000
0000002000
0000003000
0000020000
0000030000
0000000200
0000000000
,
0000000000
0000000300
0000000002
0000000000
0000000000
0000000003
0000020000
0000030000
0000002000
0000003000
0000200000
0000300000
0002000000
0003000000
0020000000
0000000000
0000000000
0030000000
0000200000
0000000000
0000000000
0000300000
2000000000
3000000000
0002000000
0003000000
0000200000
0000300000
0000002000
0000003000
0000020000
0000000000
,
0000000000
0000030000
0000000002
0000000000
0000000000
0000000003
0000002000
0000003000
0000020000
0000030000
0002000000
0003000000
0000200000
0000300000
0020000000
0030000000
0002000000
0003000000
0100000000
0001000000
0010000000
0000100000
2000000000
3000000000
0010000000
0000000000
1000000000
0000000000
0002000000
0000000000
0003000000
0000000000
,
0010000000
0000100000
0200000000
0300000000
0010000000
1000000000
0001000000
0010000000
0000100000
0001000000
0000002000
0000003000
0000010000
0000000100
0000002000
0000003000
,
0000010000
0000100000
0002000000
0003000000
0010000000
0000100000
0001000000
0000001000
0000010000
0000000100
0000002000
0000003000
0000020000
0000030000
0000000200
0000000300
,
0000000002
0000000003
0000002000
0000003000
0000000200
0000000300
0000020000
0000030000
0000000020
0000000030
0000000001
0000000100
0000010000
0000000010
0000001000
0000010000
,
0000100000
0001000000
0010000000
0000100000
0200000000
0300000000
1000000000
0010000000
0000100000
0100000000
0002000000
0000000000
0000000000
0000000000
0000000000
0000000000
,
0000000000
0000000000
0000000000
0000000000
0000000000
0000000000
0000000000
0000000000
0003000000
0000000000
0000000000
0000000000
2000000000
0000000000
3000000000
0000000000
0020000000
0000000000
0030000000
0000000000
0200000000
0000000000
0000000000
0000000000
0000000000
0300000000
0002000000
0003000000
0020000000
0030000000
0000200000
0000000000
,
0000000000
0000300000
0000002000
0000003000
0000000200
0000000300
0000020000
0000030000
0000002000
0000003000
0000000200
0000000300
0000000002
0000000000
0000000010
0000000000
0000000003
0000000000
0000000002
0000000003
0000000200
0000000300
0000000020
0000000000
0000000000
0000000030
0000002000
0000003000
0000000200
0000000300
0000020000
0000000000
,
0000000000
0000030000
0002000000
0003000000
0020000000
0030000000
0000200000
0000300000
0002000000
0003000000
0020000000
0030000000
2000000000
0000000000
0100000000
0000000000
3000000000
0000000000
2000000000
3000000000
0020000000
0030000000
0200000000
0000000000
0000000000
0300000000
2000000000
3000000000
0020000000
0030000000
0002000000
0000000000
,
0000000000
0003000000
2000000000
3000000000
0020000000
0030000000
0000200000
0000300000
0000020000
0000030000
0000000200
0000000300
0000000002
0000000000
0000000010
0000000000
0000000003
0000000000
0000000002
0000000003
0000000200
0000000300
0000000020
0000000000
0000000000
0000000030
0000000002
0000000003
0000000200
0000000300
0000020000
0000000000
,
0000000000
0000030000
0000002000
0000003000
0000000200
0000000300
0000000002
0000000003
0000000020
0000000030
0000000200
0000000300
0000020000
0000000000
0000030001
0000000000
0000010001
0000000000
0000000001
0000001000
0000000100
0000010000
0000000020
0000000000
0000000100
0000000000
0000000000
0000000000
0000000130
0000000000
0000000000
0000000000
,
0000000100
0000000001
0000002000
0000003000
0000000100
0000010000
0000002000
0000003000
0002000000
0003000000
0000200000
0000300000
2000000000
3000000000
0020000000
0030000000
,
0200000000
0300000000
0002000000
0000000000
0010000000
0000000000
0013000000
0000000000
0010000000
0000100000
0002000000
0000000000
0000001000
0000000000
0003001000
0000000000
,
0000001000
0000100000
0000000200
0000000300
0000002000
0000003000
0000020000
0000030000
0001000000
0000001000
0000200000
0000300000
0002000000
0003000000
0000020000
0000030000
,
0000001000
0000100000
0000020000
0000030000
0002000000
0003000000
0000200000
0000300000
0010000000
0001000000
0200000000
0000000000
0010000000
0000000000
0310000000
0000000000
,
0010000000
1000000000
0002000000
0003000000
0010000000
0000100000
0002000000
0003000000
0000002000
0000003000
0000020000
0000030000
0000000002
0000000003
0000000200
0000000300
,
0000000020
0000000030
0000002000
0000000000
0000000100
0000000000
0000003100
0000000000
0000000100
0000010000
0000002000
0000000000
0001000000
0000000000
0001003000
0000000000
,
0001000000
0000010000
0020000000
0030000000
0002000000
0003000000
0000200000
0000300000
0000001000
0001000000
0000020000
0000030000
0000002000
0000003000
0000200000
0000300000
,
0002000000
0000000000
0003001000
0000000000
0001001000
0000000000
0001001000
0000000000
0000001000
0000010000
0000000200
0000000300
0000002000
0000003000
0000020000
0000030000
,
0002000000
0003000000
0000001000
0000100000
0002000000
0003000000
0000200000
0000300000
0000002000
0000003000
0002000000
0000000000
0000100000
0000000000
0003100000
0000000000
,
0001000000
0010000000
0200000000
0000000000
0000100000
0000000000
0300100000
0000000000
0100000000
0010000000
0002000000
0000000000
0000100000
0000000000
0003100000
0000000000
,
0010000000
0001000000
0000200000
0000000000
0001000000
0000000000
0001300000
0000000000
0000100000
0000010000
0000002000
0000003000
0000000200
0000000300
0000020000
0000030000
,
0000000002
0000000000
0000000100
0000000000
0000000103
0000000000
0000000001
0000001000
0000000100
0000010000
0000000010
0000000100
0000000001
0000001000
0000000100
0000010000
,
0000000010
0000000100
0000000001
0000010000
0000000100
0000001000
0000100000
0010000000
0001000000
0100000000
0010000000
1000000000
0001000000
0010000000
0000100000
0100000000
,
0010000000
1000000000
0000100000
0010000000
0001000000
0000010000
0000000100
0000001000
0000000010
0000000100
0000000002
0000000003
0000000010
0000000100
0000002000
0000003000
,
0000010000
0000100000
0002000000
0003000000
0010000000
0100000000
2000000000
3000000000
0010000000
0000100000
0001000000
0010000000
0000100000
0001000000
0000010000
0000001000
,
0000000100
0000010000
0000000001
0000000100
0000010000
0000001000
0000000100
0000010000
0000001000
0000100000
0001000000
0010000000
0000100000
1000000000
0010000000
0100000000
,
0010000000
1000000000
0000100000
0010000000
0001000000
0000100000
0001000000
0010000000
0000100000
1000000000
0010000000
0100000000
1000000000
0010000000
0000100000
0001000000
,
0000010000
0000100000
0001000000
0000100000
0000010000
0000001000
0000000100
0000010000
0000000001
0000000100
0000000010
0000001000
0000000010
0000000100
0000000001
0000000010
,
0000000001
0000000100
0000000010
0000010000
0000000010
0000000100
0000001000
0000100000
0000001000
0001000000
0000010000
0000001000
0000010000
0000100000
0001000000
0000010000
,
0001000000
0000100000
0000001000
0001000000
0000100000
0010000000
0001000000
0000100000
0010000000
1000000000
0000100000
0010000000
0001000000
0100000000
0000100000
0001000000
,
0010000000
0100000000
0001000000
0000100000
0000001000
0000010000
0000000100
0000001000
0000000001
0000000100
0000000010
0000001000
0000010000
0001000000
0000100000
0010000000
,
0001000000
0000100000
0000001000
0000100000
0001000000
0000100000
0010000000
1000000000
0100000000
0010000000
0001000000
0100000000
1000000000
0001000000
0000100000
0010000000
,
0001000000
0000010000
0000000100
0001000000
0000100000
0000001000
0000010000
0010000000
0001000000
0000010000
0000000100
0000001000
0000010000
0000000100
0000000001
0000001000
,
0000000100
0000010000
0000001000
0000100000
0010000000
2000000000
0200000000
0000000000
0000000000
0000000000
0000000000
0000000000
0000000000
3300000000
0000000000
0000000000
;

//---------------dance-single - ----------------
#NOTEDATA:;
#CHARTNAME:;
#STEPSTYPE:dance-single;
#DESCRIPTION:;
#CHARTSTYLE:;
#DIFFICULTY:Challenge;
#METER:20;
#RADARVALUES:1.020228,1.452816,1.933263,0.194209,0.679732,809.000000,590.000000,219.000000,22.000000,0.000000,5.000000,0.000000,0.000000,0.000000,1.020228,1.452816,1.933263,0.194209,0.679732,809.000000,590.000000,219.000000,22.000000,0.000000,5.000000,0.000000,0.000000,0.000000;
#CREDIT:;
#DISPLAYBPM:140.000000;
#NOTES:
0000
0000
0000
0000
0000
0000
0000
0000
1000
0100
0010
0001
1200
0000
0010
0000
,
0010
0000
0001
0010
0302
0000
1000
0000
0100
0000
1000
0100
0023
0000
0100
0000
,
0001
0000
1000
0001
0230
0000
1000
0000
0001
0000
0010
1000
0321
0000
1000
0000
,
0100
0000
0001
0000
2030
0000
0100
0000
0010
0000
0001
0000
3100
0010
0001
0010
,
0100
1000
0100
0010
2002
0000
0000
0000
0000
0000
0000
0000
3203
0000
0000
0000
,
0000
0000
0000
0000
0000
0000
0000
0000
0010
0001
1000
0010
1301
0000
0010
0000
,
0010
0000
1000
0001
1000
0000
0100
0010
0100
0000
1000
0000
0100
0000
0010
0000
,
0001
0000
0010
0000
0100
0000
1000
0000
1000
0000
0001
0010
1000
0000
0100
0000
,
0100
0000
1000
0001
0010
0000
0100
0000
0010
0000
1000
0100
0001
0000
0010
0000
,
0100
0000
1000
0001
0100
0000
0010
0000
0001
0000
0010
0000
1100
0000
0001
0000
,
0001
0000
1000
0100
1000
0000
0001
0010
0001
0000
0010
0000
1000
0000
0100
0000
,
0010
0000
0001
0000
0010
0000
1000
0000
1000
0000
0001
0010
1000
0000
0100
0000
,
0100
0000
0001
1000
0010
0000
0100
0000
0010
0000
1000
0100
0001
0000
0010
0000
,
0100
0000
1000
0000
0110
0000
0110
0000
0110
0001
1000
0100
0011
0000
1001
0000
,
1001
0000
0010
0100
0011
0000
0100
0010
1100
0000
0001
0000
1010
0000
0100
0000
,
1001
0000
0010
0000
1100
0000
0101
0000
0101
0000
1000
0100
0011
0000
1100
0000
,
1100
0000
0001
1000
0110
0000
0001
0000
1010
0000
0100
0010
1001
0000
0100
0000
,
1010
0000
0100
1000
0011
0000
0100
0000
1010
0000
0001
0000
0110
0000
1001
0000
,
1001
0000
0100
0010
1100
0000
0001
0010
0101
0000
1000
0000
0011
0000
0100
0000
,
1001
0000
0100
0000
1010
0000
0101
0000
0101
0000
0010
0001
1100
0000
0110
0000
,
0110
0000
1000
0100
0011
0000
0100
0000
1010
0000
0100
0010
1001
0000
0100
0000
,
0011
0000
0100
0000
1010
0000
1010
0000
1010
0000
0100
0010
1001
0010
0100
0011
,
1100
0010
0001
0000
1000
0000
0110
0000
0110
0000
0001
0000
0001
0000
1010
0100
1001
0000
0010
0000
0010
0000
1000
0100
0011
0000
0100
0000
0100
0000
1001
0010
,
1100
0000
0001
0000
0001
0000
1100
0010
1001
0000
0100
0000
0010
0000
1001
0000
0110
0000
1000
0000
1001
0110
1001
0010
1100
0000
0000
0000
0011
0000
0000
0000
,
0011
0000
0100
0010
1001
0000
0100
0000
1010
0000
0001
0010
1100
0000
1001
0000
,
1001
0000
0100
0001
1010
0000
0101
0000
0101
0000
0010
0100
1001
0000
0010
0000
,
1100
0000
0001
0000
0110
0000
1000
0000
0011
0000
0100
0000
1001
0010
0100
1000
,
0101
0010
1000
0010
0101
0000
1010
0000
0101
0000
1010
0000
2002
0000
0000
0000
,
0200
0000
0000
0000
0000
0000
0000
0000
0000
0000
0000
0000
3003
0000
0000
0000
0301
0000
0010
0000
0100
0000
1000
0000
0101
0000
1000
0000
1000
0000
0011
0100
,
1010
0000
0001
1000
0001
0000
0110
0000
0110
0000
0001
0000
0001
0000
1010
0000
1001
0000
0010
0000
0010
0000
1001
0100
0011
0000
0100
0000
0100
0000
1001
0010
,
1100
0000
0001
0000
0001
0000
1100
0010
1001
0000
0100
0000
0010
0000
1100
0001
0110
0000
1000
0000
0100
0000
0011
0000
1001
0000
0100
0000
0100
0000
1001
0010
,
0101
0000
1000
0001
1000
0000
0110
0000
0011
0000
0100
0000
0001
0000
1010
0000
0110
0000
0001
0000
0001
0000
1000
0100
0011
0000
1000
0000
1000
0000
0101
0010
,
1100
0000
0001
0000
0010
0000
1100
0010
0101
0000
1000
0000
0100
0000
0010
0000
1001
0000
1001
0000
1001
0010
0100
1000
0011
0000
0000
0000
1001
0000
0000
0000
,
1001
0000
0010
0100
0011
0000
0100
0010
1100
0000
0001
0000
1010
0000
0100
0000
,
1001
0000
0010
0000
1100
0000
0101
0000
0101
0000
1000
0100
0011
0000
1100
0000
,
1100
0000
0001
1000
0110
0000
0001
0000
1010
0000
0100
0010
1001
0000
0100
0000
,
1010
0000
0100
1000
0011
0000
0100
0000
1010
0000
0001
0000
0110
0000
1001
0000
,
1001
0000
0100
0010
1100
0000
0001
0010
0101
0000
1000
0000
0011
0000
0100
0000
,
1001
0000
0100
0000
1010
0000
0101
0000
0101
0000
0010
0001
1100
0000
0110
0000
,
0110
0000
1000
0100
0011
0000
0100
0000
1010
0000
0100
0010
1001
0000
0100
0000
,
0011
0000
0100
0000
1010
0000
1010
0000
1010
0000
0100
0010
1002
0000
0100
0000
,
0010
0100
2003
0001
0010
0001
3200
0010
,
1000
0001
2300
0010
0100
0010
3002
0100
,
1000
0010
0203
1000
0001
1000
0320
0001
,
1000
0000
0100
0000
0032
0000
1000
0000
0100
0010
1000
0000
0113
0000
1100
0000
,
1100
0000
0001
0010
1100
0000
0001
0000
0110
0000
1000
0001
0110
0000
1001
0000
,
1001
0000
0010
1000
0101
0000
1010
0000
1010
0000
0100
0010
1001
0000
0100
0000
,
0011
0000
0100
0000
1010
0000
0001
0000
1100
0000
0010
0000
1001
0100
0010
0100
,
1001
0100
0010
0100
1001
0000
1001
0000
1001
0110
1001
0110
1001
0000
0110
0000
,
0110
0000
1000
0100
1010
0000
0001
0010
0101
0000
1000
0000
0011
0000
0100
0000
,
1001
0000
0100
0000
1010
0000
0101
0000
0101
0000
1000
0100
0011
0000
1100
0000
,
1100
0000
0001
0010
1100
0000
0010
0000
0101
0000
0010
0100
1001
0000
0100
0000
,
0011
0000
0100
0001
1010
0000
0001
0000
0110
0000
1000
0000
0011
0000
1100
0000
,
1100
0000
0001
0010
1001
0000
0010
0100
1010
0000
0001
0000
1100
0000
0010
0000
,
0101
0000
0010
0100
1001
0000
1001
0000
1001
0000
0100
0010
1001
0000
1001
0000
,
1001
0000
0010
0100
0011
0000
0100
0000
1001
0000
0000
0010
1100
0001
0010
0100
,
1001
0100
0010
0100
1001
0000
1001
0000
2002
0000
0000
0000
3003
0000
0000
0000
;

//---------------dance-single - Copied from----------------
#NOTEDATA:;
#CHARTNAME:Copied from;
#STEPSTYPE:dance-single;
#DESCRIPTION:Copied from;
#CHARTSTYLE:;
#DIFFICULTY:Hard;
#METER:14;
#RADARVALUES:0.723870,1.001942,0.008828,0.353107,0.670904,574.000000,573.000000,1.000000,40.000000,0.000000,0.000000,0.000000,0.000000,0.000000,0.723870,1.001942,0.008828,0.353107,0.670904,574.000000,573.000000,1.000000,40.000000,0.000000,0.000000,0.000000,0.000000,0.000000;
#CREDIT:Copied from;
#DISPLAYBPM:140.000000;
#NOTES:
// measure 0
0000
0000
0000
0000
0000
0000
0000
0000
0010
1000
0010
0100
0002
0000
0000
0000
,  // measure 1
0010
0000
0000
0000
0013
0000
0100
0000
0001
0000
1000
0100
0020
0000
0000
0000
,  // measure 2
0100
0000
0000
0000
0130
0000
1000
0000
0001
0000
1000
0100
2000
0000
0000
0000
,  // measure 3
0010
0000
0000
0000
3010
0000
0100
0000
0010
0000
0001
0000
0100
0010
0100
0001
,  // measure 4
1000
0010
0100
0001
0020
0000
0000
0000
0000
0000
0000
0000
0031
0000
0000
0000
,  // measure 5
0000
0000
0000
0000
0000
0000
0000
0000
1000
0001
0100
0001
1000
0000
0010
0000
,  // measure 6
0010
0000
1000
0001
1000
0000
0100
0010
0100
0000
1000
0000
0100
0000
0010
0000
,  // measure 7
0001
0000
0010
0000
0200
0000
0010
0000
0310
0000
0001
0010
0002
0000
0100
0000
,  // measure 8
0103
0000
1000
0001
2000
0000
0100
0000
3010
0000
0100
0010
0002
0000
0010
0000
,  // measure 9
0103
0000
1000
0001
0200
0000
0010
0000
0301
0000
0010
0000
0100
0000
0001
0000
,  // measure 10
0001
0000
1000
0100
1000
0000
0001
0010
0001
0000
0010
0000
1000
0000
0100
0000
,  // measure 11
0010
0000
0001
0000
0020
0000
1000
0000
1030
0000
0100
0010
0200
0000
0010
0000
,  // measure 12
0310
0000
0001
1000
0002
0000
0100
0000
1003
0000
0010
0100
0010
0000
1000
0000
,  // measure 13
0001
0000
0100
0000
0010
0000
0010
0000
0010
0100
0010
1000
0001
0000
1000
0000
,  // measure 14
0001
0000
0100
0010
0100
0000
0010
0100
0010
0000
1000
0000
0010
0000
0100
0000
,  // measure 15
0001
0000
0010
0000
2000
0000
0001
0000
3001
0000
0010
0100
0020
0000
0100
0000
,  // measure 16
0130
0000
0001
1000
0002
0000
0100
0000
0103
0000
0001
0010
0001
0000
0100
0000
,  // measure 17
0010
0000
1000
0100
1000
0000
0010
0000
0100
0000
0001
0000
0010
0000
0001
0000
,  // measure 18
0001
0000
0100
0010
0100
0000
0001
0010
0001
0000
1000
0000
0001
0000
0100
0000
,  // measure 19
0010
0000
0100
0000
2000
0000
0001
0000
3001
0000
0010
0100
0020
0000
0100
0000
,  // measure 20
0130
0000
0001
1000
0002
0000
0100
0000
0013
0000
1000
0010
2000
0000
0100
0000
,  // measure 21
3001
0000
0100
0000
0010
0000
0010
0000
0010
0000
1000
0100
1000
0010
0100
0001
,  // measure 22
1000
0010
1000
0000
0010
0000
0100
0000
0001
0000
0010
0000
0010
0000
1000
0010
1000
0000
0100
0000
0100
0000
0010
1000
0001
0000
0100
0000
0100
0000
0001
0010
,  // measure 23
0001
0000
0100
0000
0100
0000
0010
1000
0010
0000
0100
0000
0010
0000
0001
0000
0010
0000
1000
0000
0100
0001
0010
0001
0100
0000
0000
0000
0100
0000
0000
0000
,  // measure 24
0100
0000
0010
1000
0010
0000
0100
0000
0001
0000
0010
0100
0010
0000
1000
0000
,  // measure 25
0010
0000
0100
0010
0100
0000
0001
0000
0001
0000
1000
0010
1000
0000
0010
0000
,  // measure 26
0100
0000
0001
0000
0010
0000
1000
0000
0001
0000
0100
0000
0001
1000
0010
1000
,  // measure 27
0001
1000
0010
1000
0001
0000
0010
0000
0100
0000
0010
0000
0002
0000
0000
0000
,  // measure 28
0000
0000
0000
0000
0000
0000
0000
0000
0000
0000
0000
0000
0003
0000
0000
0000
0001
0000
0100
0000
0010
0000
1000
0000
0001
0000
1000
0000
1000
0000
0010
0100
,  // measure 29
0010
0000
0001
1000
0001
0000
0010
0000
0010
0000
0100
0000
0100
0000
0001
0000
1000
0000
0010
0000
0010
0000
0100
0001
0100
0000
0010
0000
0010
0000
1000
0010
,  // measure 30
1000
0000
0001
0000
0001
0000
0100
0010
0100
0000
0001
0000
1000
0000
0010
0100
0010
0000
0001
0000
0100
0000
0010
0000
0010
0000
1000
0000
1000
0000
0010
0100
,  // measure 31
0010
0000
1000
0001
1000
0000
0100
0000
0010
0000
0100
0000
0001
0000
0010
0000
0010
0000
0001
0000
0001
0000
1000
0010
1000
0000
0100
0000
0100
0000
0001
1000
,  // measure 32
0001
0000
0010
0000
0010
0000
0100
0010
0100
0000
0001
0000
1000
0000
0010
0000
0001
0000
0001
0000
0001
0100
0010
1000
0100
0000
0000
0000
1000
0000
0000
0000
,  // measure 33
1000
0000
0001
0100
0001
0000
0100
0010
0100
0000
0001
0000
0010
0000
0100
0000
,  // measure 34
1000
0000
0100
0000
0020
0000
0001
0000
0031
0000
1000
0001
2000
0000
0010
0000
,  // measure 35
3010
0000
0100
0001
0200
0000
0010
0000
0310
0000
1000
0001
2000
0000
0100
0000
,  // measure 36
3010
0000
0001
0010
0002
0000
0010
0000
0103
0000
0010
0000
1000
0000
0100
0000
,  // measure 37
0100
0000
0010
0100
0010
0000
0001
0010
0001
0000
1000
0000
0001
0000
0010
0000
,  // measure 38
0001
0000
1000
0000
0020
0000
0100
0000
0130
0000
0001
1000
0002
0000
0100
0000
,  // measure 39
0103
0000
0010
0100
0020
0000
0100
0000
1030
0000
0001
0100
0002
0000
0010
0000
,  // measure 40
1003
0000
0100
0000
0010
0000
0010
0000
0010
0000
0100
0010
0200
0000
0000
0000
,  // measure 41
0001
0000
0310
1000
0010
0001
0200
0000
,  // measure 42
0010
0000
0301
1000
0010
0100
0002
0000
,  // measure 43
0100
0000
1003
0100
0010
0100
0002
0000
,  // measure 44
0010
0000
0000
0000
0103
0000
0001
0000
1000
0010
1000
0000
0010
0000
0100
0000
,  // measure 45
0100
0000
0001
0010
0001
0000
0100
0000
0010
0000
1000
0001
1000
0000
0010
0000
,  // measure 46
0010
0000
0100
0001
0100
0000
0010
0000
0010
0000
0100
0010
0100
0000
1000
0000
,  // measure 47
0001
0000
0100
0000
0010
0000
0100
0000
0001
0000
1000
0000
0001
0100
0010
0100
,  // measure 48
0001
0100
0010
0100
0001
0000
0001
0000
0001
1000
0001
1000
0001
0000
0010
0000
,  // measure 49
0010
0000
0100
0010
0100
0000
0010
0001
0010
0000
1000
0000
0010
0000
0100
0000
,  // measure 50
0001
0000
0100
0000
0020
0000
1000
0000
1030
0000
1000
0100
2000
0000
0010
0000
,  // measure 51
3010
0000
0100
0010
0200
0000
0010
0000
0301
0000
0001
0100
0002
0000
1000
0000
,  // measure 52
0103
0000
0100
0010
0200
0000
0001
0000
0310
0000
1000
0000
0001
0000
0100
0000
,  // measure 53
0100
0000
0001
0010
0001
0000
0010
0100
0010
0000
1000
0000
0100
0000
0010
0000
,  // measure 54
0001
0000
0010
0100
0010
0000
0010
0000
0010
0000
1000
0001
1000
0000
1000
0000
,  // measure 55
1000
0000
0010
0100
0010
0000
0100
0000
0001
0000
0000
0010
1000
0001
1000
0010
,  // measure 56
1000
0001
1000
0010
1000
0000
1000
0000
2002
0000
0000
0000
3003
0000
0000
0000
;

//---------------dance-single - Copied from Copied f----------------
#NOTEDATA:;
#CHARTNAME:Copied from Copied f;
#STEPSTYPE:dance-single;
#DESCRIPTION:Copied from Copied f;
#CHARTSTYLE:;
#DIFFICULTY:Medium;
#METER:8;
#RADARVALUES:0.564972,0.822961,0.008828,0.000000,0.185381,448.000000,447.000000,1.000000,0.000000,0.000000,0.000000,0.000000,0.000000,0.000000,0.564972,0.822961,0.008828,0.000000,0.185381,448.000000,447.000000,1.000000,0.000000,0.000000,0.000000,0.000000,0.000000,0.000000;
#CREDIT:Copied from Copied f;
#DISPLAYBPM:140.000000;
#NOTES:
0000
0000
0000
1000
,
0100
0000
1000
0100
0010
0000
0100
0000
,
0010
0000
0100
0100
0010
0000
0001
0001
,
1000
0000
1000
1000
0001
0000
1000
0100
,
0010
0001
0010
0000
0000
0000
0000
0000
,
0000
0000
0000
0000
1000
0100
0010
0001
,
0010
0100
0010
0100
0010
0100
1000
0100
,
1000
0100
0010
0100
0010
0001
0010
0010
,
0010
0001
0100
0100
0100
0010
1000
1000
,
1000
0010
0100
0100
0100
0100
0010
1000
,
0001
0100
0010
0010
0010
0100
0010
0010
,
0010
1000
0001
0001
0001
1000
0010
0010
,
0010
0100
0010
0010
0010
1000
0001
0100
,
0010
1000
0001
0001
0001
0000
1000
0100
,
1000
0100
0010
0100
0010
0100
0001
0100
,
0001
0100
0010
0100
0010
0100
0010
1000
,
0010
1000
0010
0100
0010
0100
0001
0100
,
0001
0100
0010
0100
0010
0100
1000
0100
,
1000
0100
0001
0100
0001
0100
0010
0100
,
0010
0100
0010
0001
0010
0001
0010
0001
,
0010
0001
0100
0010
0100
0010
1000
0100
,
1000
0100
0010
0010
0010
0000
1000
0100
,
1000
0100
0010
0000
0001
0010
0100
0000
1000
0100
0010
0000
0010
0100
0010
0000
,
1000
0001
1000
0000
0001
1000
0001
0000
0100
0010
0100
0000
1000
0000
1000
0000
,
0100
0010
0100
0100
0100
0000
0010
1000
,
0001
0100
0010
0010
0010
0000
0001
0001
,
1000
1000
0100
0100
0010
0010
0001
0001
,
0010
0100
0001
0001
0001
0100
0010
0000
,
0000
0000
0000
0000
0000
0000
0000
0000
1000
0000
0100
0000
0010
1000
1000
0010
,
0100
0001
0001
0100
0010
1000
1000
0010
0100
0010
0010
0100
0001
0100
0100
0010
,
1000
0001
0001
0100
0010
1000
1000
0100
1000
0100
0100
0010
0100
0001
0001
0100
,
0010
1000
1000
0001
0100
0010
0010
0001
0100
0001
0001
0100
0010
0100
0100
0010
,
1000
0010
0010
1000
0001
0100
0100
0001
0100
0100
0100
0000
1000
0000
0100
0000
,
0010
0000
0001
0010
0100
0000
1000
0100
,
1000
0100
0010
0010
0010
0000
0100
0001
,
0100
0000
1000
0001
1000
0000
1000
0100
,
1000
0100
0010
0010
0010
0000
0100
0001
,
0100
0000
1000
0001
1000
0000
1000
0100
,
0010
0001
0010
0100
0001
0000
0010
0100
,
0010
0000
1000
0100
0010
0000
1000
0100
,
0010
0001
0010
0010
0010
0000
1000
0100
,
1000
0100
0010
0100
0010
0100
0001
0100
,
0001
0100
0010
0100
0010
0100
1000
0100
,
1000
0100
0010
0100
0010
0100
1000
0100
,
1000
0100
0010
0100
0010
0100
0010
0001
,
0010
0001
0010
0001
0010
0001
0100
1000
,
0100
1000
0100
1000
0100
1000
0010
0001
,
0010
0001
0100
1000
0100
1000
0010
0001
,
0010
0100
1000
0100
0010
0001
0010
0100
,
0010
0100
0010
0010
0010
1000
0001
0001
,
0001
0000
0100
0000
0010
0000
0010
0000
0010
0000
1000
0100
0010
0000
0010
0000
,
0010
0100
0001
0001
0001
0100
0010
1000
,
0100
0010
1000
1000
0010
0100
0001
0010
,
0100
0001
0010
1000
0001
0100
0010
1000
,
0001
0000
0000
0100
0010
0000
0010
0000
0010
0000
0000
0100
0010
0000
0010
0000
,
0010
0000
0000
1000
0001
0000
0001
0000
0001
0000
0000
0000
1000
0000
0100
0000
,
0010
0100
0010
0010
1001
0000
0000
0000
;

//---------------dance-single - Copied from Copied f----------------
#NOTEDATA:;
#CHARTNAME:Copied from Copied f;
#STEPSTYPE:dance-single;
#DESCRIPTION:Copied from Copied f;
#CHARTSTYLE:;
#DIFFICULTY:Easy;
#METER:5;
#RADARVALUES:0.340496,0.349135,0.000000,0.000000,0.000000,270.000000,270.000000,0.000000,0.000000,0.000000,0.000000,0.000000,0.000000,0.000000,0.340496,0.349135,0.000000,0.000000,0.000000,270.000000,270.000000,0.000000,0.000000,0.000000,0.000000,0.000000,0.000000,0.000000;
#CREDIT:Copied from Copied f;
#DISPLAYBPM:140.000000;
#NOTES:
0000
0000
0000
1000
,
0100
1000
0100
0010
,
0001
0010
0001
0100
,
0010
0100
0010
1000
,
1000
1000
0000
0100
,
0000
0000
0000
0000
0000
0000
0100
0010
,
0100
0000
1000
0001
1000
0000
0100
0000
,
0100
0000
0010
0100
0010
0000
0001
1000
,
0001
0000
1000
0100
1000
0000
0100
0010
,
0100
0000
0001
0000
0001
0000
0010
0001
,
0010
0000
0100
1000
0100
0000
0100
0010
,
0100
0000
0010
0001
0010
0000
0100
0001
,
0100
0000
1000
0001
1000
0000
1000
0100
,
0010
0001
0010
0000
0000
0000
0100
0010
,
0100
0000
1000
0001
1000
0000
0100
0010
,
0100
0000
0001
0010
0001
0000
0100
0010
,
0100
0000
1000
0001
1000
0000
1000
0100
,
1000
0000
0100
0010
0100
0000
0010
0001
,
0010
0000
0100
0001
0100
0000
1000
0001
,
1000
0000
0100
0010
0100
0000
1000
0010
,
1000
0000
0100
0010
0100
0000
0001
0100
,
0001
0000
1000
1000
1000
0000
0100
0000
,
1000
0100
0010
0100
,
1000
0100
0010
1000
,
0100
1000
0100
0010
,
0001
0010
0100
0010
,
1000
0010
0100
1000
,
1000
1000
1000
0100
,
0000
0000
0000
1000
,
0100
0010
0001
0010
,
0100
1000
0100
0010
,
0100
0010
1000
0001
,
0100
0010
1000
1000
,
0100
0000
1000
0000
0100
0000
0010
0100
,
0010
0000
0001
1000
0001
0000
0100
0000
,
0100
0000
0010
0000
0010
0000
1000
0010
,
1000
0000
0100
0010
0100
0000
0001
0000
,
0100
0000
0010
0000
1000
0000
1000
0100
,
0010
0000
0001
0010
0100
0000
1000
0000
,
0100
0000
1000
0100
0010
0000
0001
0000
,
0001
0000
0010
0010
0010
0000
0100
0000
,
0100
1000
1000
0100
,
0100
0010
0010
0001
,
0001
1000
1000
0100
,
0100
0010
0010
0001
,
0001
0100
0100
1000
,
1000
0100
0100
0010
,
0010
0001
0001
0100
,
0100
0000
0100
0000
0100
0000
1000
0100
,
0010
0000
0001
0010
0100
0000
0100
0010
,
0100
0000
1000
0001
1000
0000
0001
0010
,
0001
0000
0100
0010
0100
0000
1000
0001
,
1000
0000
0100
0010
0100
0000
1000
0001
,
1000
0000
0010
0100
0010
0000
1000
0001
,
1000
0000
0010
0000
0010
0000
1000
0001
,
1000
0000
0100
0010
0100
0000
1000
0100
,
0010
0001
0010
0010
0010
0000
0000
0000
;

//---------------dance-single - Copied from Copied f----------------
#NOTEDATA:;
#CHARTNAME:Copied from Copied f;
#STEPSTYPE:dance-single;
#DESCRIPTION:Copied from Copied f;
#CHARTSTYLE:;
#DIFFICULTY:Beginner;
#METER:2;
#RADARVALUES:0.253481,0.249382,0.008828,0.000000,0.000000,201.000000,200.000000,1.000000,0.000000,0.000000,0.000000,0.000000,0.000000,0.000000,0.253481,0.249382,0.008828,0.000000,0.000000,201.000000,200.000000,1.000000,0.000000,0.000000,0.000000,0.000000,0.000000,0.000000;
#CREDIT:Copied from Copied f;
#DISPLAYBPM:140.000000;
#NOTES:
0000
0000
0000
1000
,
0000
0000
0000
0100
,
0000
0000
0000
0010
,
0000
0000
0000
0010
,
0000
0010
0000
0100
,
0000
0000
0000
1000
,
0100
1000
0100
0010
,
0001
0010
0001
0100
,
0010
0100
0010
1000
,
0001
1000
0001
0100
,
0010
0100
0010
1000
,
0100
1000
0100
0010
,
0001
0010
0001
0100
,
0010
0100
0100
1000
,
1000
0100
0100
0010
,
0010
0001
0001
0010
,
0100
0010
0100
1000
,
0100
0010
0100
0001
,
1000
0100
1000
0010
,
0100
0001
0100
0010
,
1000
0010
0100
0010
,
0100
1000
1000
1000
,
0100
1000
0100
1000
,
0100
1000
0100
0010
,
0010
0100
0100
0010
,
0010
1000
1000
0100
,
0100
0010
0010
0001
,
0001
0001
0001
0001
,
0000
0000
0000
1000
,
0100
0010
0100
0010
,
0001
1000
0100
0010
,
1000
0001
0100
0010
,
1000
0100
0010
1000
,
0100
1000
0100
0010
,
0100
0010
0001
1000
,
0001
0100
0010
0100
,
1000
0100
0010
0100
,
0010
0001
0010
0100
,
1000
0100
0010
0100
,
0010
1000
0001
0100
,
0010
1000
1000
0100
,
0000
0100
0000
0010
,
0000
0010
0000
0100
,
0000
0100
0000
0010
,
0000
0010
0000
1001
,
0001
0001
0001
0100
,
0100
0100
0100
1000
,
1000
0100
0100
0010
,
0100
0010
0100
0001
,
0001
1000
1000
0100
,
0100
0010
0010
0100
,
0100
0010
0010
0001
,
0001
1000
1000
0100
,
0100
0010
0010
0100
,
0010
1000
1000
0100
,
0100
0010
0010
0100
,
0010
0000
0100
0100
0010
0000
0000
0000
;
