#TITLE:Unconditionally;
#SUBTITLE:;
#ARTIST:Katy Perry;
#TITLETRANSLIT:;
#SUBTITLETRANSLIT:;
#ARTISTTRANSLIT:;
#GENRE:;
#CREDIT:;
#BANNER:AV.avi;
#BACKGROUND:Uncodicionally-bg.png;
#LYRICSPATH:;
#CDTITLE:;
#MUSIC:Uncondicionally - Katy Perry.mp3;
#OFFSET:-0.280000;
#SAMPLESTART:36.480000;
#SAMPLELENGTH:12.000000;
#SELECTABLE:YES;
#DISPLAYBPM:64.000000:129.000000;
#BPMS:0.000000=128.929993
,174.000000=64.464996
,192.000000=128.929993
,254.000000=128.938995
,255.000000=515.760010
,256.000000=1031.560059
,268.000000=128.931000
;
#STOPS:77.500000=0.900000,
192.000000=1.360000,
268.000000=0.500000
;
#BGCHANGES:0.000=Unconditionally.avi=1.200=0=0=1=====,
2.500=Unconditionally.avi=1.000=0=0=1=====,
99999=-nosongbg-=1.000=0=0=0 // don't automatically add -songbackground-
;
#KEYSOUNDS:;
#ATTACKS:;

//---------------dance-single - ----------------
#NOTES:
     dance-single:
     :
     Challenge:
     13:
     0.506942,0.564916,1.517684,0.557217,0.249281,484.000000,277.000000,207.000000,76.000000,0.000000,0.000000,0.506942,0.564916,1.517684,0.557217,0.249281,484.000000,277.000000,207.000000,76.000000,0.000000,0.000000:
0000
0000
0000
0000
0000
0000
2002
3003
,
1001
0000
0000
0110
0000
0000
1001
0000
0000
0000
0000
0000
2020
0000
3030
0000
,
0110
0000
0000
1001
0000
0000
1001
0000
0000
0000
0000
0000
0220
0000
0330
0000
,
1001
0000
0000
0110
0000
0000
1001
0000
0000
0000
0000
0000
2200
0000
3300
0000
,
0011
0000
0000
0110
0000
0000
1001
0000
0000
0000
0000
0000
2002
0000
3003
0000
,
0110
0000
0000
1010
0000
0000
1001
0000
0000
0000
0000
0000
0220
0000
0330
0000
,
1001
0000
0000
0110
0000
0000
0110
0000
0000
0000
0000
0000
0202
0000
0303
0000
,
1010
0000
0000
0101
0000
0000
0110
0000
0000
0000
0000
0000
0220
0000
0330
0000
,
1010
0000
0000
0101
0000
0000
0110
0000
0000
0000
0000
0000
2020
0000
3030
0000
,
0110
0000
0000
0101
0000
0000
0110
0000
0000
0000
0000
0000
0202
0000
0303
0000
,
1010
0000
0000
0110
0000
0000
0101
0000
0000
0000
0000
0000
0220
0000
0330
0000
,
1001
0000
0000
1001
0000
0000
1001
0000
0000
0000
0110
0000
0220
0000
0330
0000
,
0110
0000
0000
1001
0000
0000
0101
0000
0000
0000
0000
0000
0220
0000
0330
0000
,
1010
0000
0000
0101
0000
0000
0110
0000
0000
0000
0000
0000
0220
0000
0330
0000
,
0101
0000
0000
0110
0000
0000
1010
0000
0000
0000
0000
0000
0220
0000
0330
0000
,
1010
0000
0000
0110
0000
0000
0101
0000
0000
0000
0000
0000
0202
0000
0303
0000
,
0110
0000
0000
0110
0000
0000
1010
0000
0000
0000
0000
0000
0220
0000
0330
0000
,
1010
0000
0000
0101
0000
0000
0110
0000
0000
0000
0000
0000
0220
0000
0330
0000
,
1010
0000
0000
0110
0000
0000
0101
0000
0000
0000
0000
0000
0220
0000
0330
0000
,
1001
0000
0000
1001
0000
0000
1010
0000
0110
0000
0000
0110
0000
0000
0102
0000
,
0000
0000
0000
0000
1003
0000
0000
0000
1010
0000
0000
0110
0000
0000
0102
0000
,
0000
0000
0000
0000
0013
0000
0000
0000
1010
0000
0000
0101
0000
0000
0210
0000
,
0000
0000
0000
0000
0310
0000
0000
0000
1001
0000
0000
1010
0000
0000
1001
0000
,
0000
0000
1002
0000
1003
0000
0000
0000
0110
0000
0000
0101
0000
0000
0120
0000
,
0000
0000
0000
0000
0130
0000
0000
0000
1001
0000
0000
0110
0000
0000
0210
0000
,
0000
0000
0000
0000
0310
0000
0000
0000
1001
0000
0000
1010
0000
0000
1002
0000
,
0000
0000
0000
0000
1003
0000
0000
0000
1010
0000
0000
0110
0000
0000
0110
0000
,
0000
0000
0120
0000
0130
0000
0000
0000
1001
0000
0000
1010
0000
0000
1002
0000
,
0000
0000
0000
0000
1003
0000
0000
0000
1010
0000
0000
0110
0000
0000
0210
0000
,
0000
0000
0000
0000
0310
0000
0000
0000
0101
0000
0000
1001
0000
0000
0210
0000
,
0000
0000
0000
0000
0310
0000
0000
0000
0101
0000
0000
0101
0000
0000
0101
0000
,
0000
0000
0012
0000
0013
0000
0000
0000
1010
0000
0000
0101
0000
0000
0210
0000
,
0000
0000
0000
0000
0310
0000
0000
0000
1001
0000
0000
0110
0000
0000
2001
0000
,
0000
0000
0000
0000
3010
0000
0000
0000
0110
0000
0000
0101
0000
0000
0210
0000
,
0000
0000
0000
0000
0310
0000
0000
0000
1001
0000
0000
1010
0000
0000
0001
0000
,
0100
0000
0010
0000
0100
0000
0001
0000
1010
0000
0000
0110
0000
0000
0101
0000
,
0110
0000
0000
0101
0000
0000
1010
0000
1001
0000
0000
0000
0110
0000
0000
0000
,
1010
0000
0100
0000
0010
0000
0100
0000
0010
0000
0000
1010
0000
0000
0110
0000
,
0101
0000
0000
0110
0000
0000
0101
0000
0110
0000
0000
0000
1001
0000
0000
0000
,
0010
0000
0100
0000
0010
0000
0100
0000
0010
0000
0000
1010
0000
0000
0110
0000
,
0101
0000
0000
0110
0000
0000
0101
0000
0110
0000
0000
0000
1010
0000
0000
0000
,
1000
0100
0010
0001
0220
0000
0000
0000
,
0330
0000
0000
0000
0000
0000
0000
0000
1010
0000
0000
0110
0000
0000
0101
0000
,
0000
0210
0310
0000
1000
0000
0010
0000
,
0001
0000
0010
0001
0000
1000
0000
0100
1000
0000
0000
0010
0000
0000
0000
0000
,
0010
0000
0001
0010
0000
0001
0000
0000
1000
0000
0000
0100
0000
0000
0000
1000
,
0100
0000
1000
0100
0000
0100
0000
0000
0200
0300
2002
0000
0000
0000
0000
0000
,
0000
0000
0000
0000
,
3003
0000
0000
0000
0110
0000
0000
0110
0000
0000
0102
0000
0000
0000
0000
0000
,
1003
0000
0000
0000
1010
0000
0000
0110
0000
0000
0102
0000
0000
0000
0000
0000
,
0013
0000
0000
0000
1010
0000
0000
0101
0000
0000
0210
0000
0000
0000
0000
0000
,
0310
0000
0000
0000
1001
0000
0000
1010
0000
0000
1001
0000
0000
0000
1002
0000
,
1003
0000
0000
0000
0110
0000
0000
0101
0000
0000
0120
0000
0000
0000
0000
0000
,
0130
0000
0000
0000
1001
0000
0000
0110
0000
0000
0210
0000
0000
0000
0000
0000
,
0310
0000
0000
0000
1001
0000
0000
1010
0000
0000
1002
0000
0000
0000
0000
0000
,
1003
0000
0000
0000
1010
0000
0000
0110
0000
0000
0110
0000
0000
0000
0120
0000
,
0130
0000
0000
0000
1001
0000
0000
1010
0000
0000
1002
0000
0000
0000
0000
0000
,
1003
0000
0000
0000
1010
0000
0000
0110
0000
0000
0210
0000
0000
0000
0000
0000
,
0310
0000
0000
0000
0101
0000
0000
1001
0000
0000
0210
0000
0000
0000
0000
0000
,
0310
0000
0000
0000
0101
0000
0000
0101
0000
0000
0101
0000
0000
0000
0210
0000
,
0310
0000
0000
0000
1010
0000
0000
0101
0000
0000
0210
0000
0000
0000
0000
0000
,
0310
0000
0000
0000
1001
0000
0000
0110
0000
0000
2001
0000
0000
0000
0000
3000
,
0010
0000
0000
0000
0110
0000
0000
0101
0000
0000
0210
0000
0000
0000
0000
0000
,
0310
0000
0000
0000
0101
0000
0000
0110
0000
0000
2002
0000
0000
0000
0000
0000
,
0000
0000
0000
0000
,
0000
0000
0000
0000
,
0000
0000
0000
0000
,
3003
0000
0000
0000
;

//---------------dance-single - Copied from----------------
#NOTES:
     dance-single:
     Copied from:
     Hard:
     7:
     0.252424,0.466670,0.234618,0.645199,0.106311,241.000000,209.000000,32.000000,88.000000,0.000000,0.000000,0.252424,0.466670,0.234618,0.645199,0.106311,241.000000,209.000000,32.000000,88.000000,0.000000,0.000000:
// measure 0
0000
0000
0000
0000
0000
0000
2002
3003
,  // measure 1
1000
0000
0000
0100
0000
0000
1000
0000
0000
0000
0000
0000
2020
0000
3030
0000
,  // measure 2
0100
0000
0000
0001
0000
0000
1000
0000
0000
0000
0000
0000
0220
0000
0330
0000
,  // measure 3
1000
0000
0000
0100
0000
0000
1000
0000
0000
0000
0000
0000
2200
0000
3300
0000
,  // measure 4
2002
0000
0000
0000
0000
3003
0000
0000
0220
0000
0000
0000
0330
0000
0000
0000
,  // measure 5
1010
0000
0001
0100
0000
0010
0000
0000
,  // measure 6
2020
0000
0000
3030
0000
0000
0000
0000
0220
0000
0000
0330
0000
0000
0000
0000
,  // measure 7
0001
0000
0010
0100
0000
0010
0000
0000
,  // measure 8
0220
0000
0000
0330
0000
0000
0000
0000
0202
0000
0000
0000
0303
0000
0000
0000
,  // measure 9
1010
0000
0010
0100
0000
0010
0000
2002
,  // measure 10
3003
0000
2020
0000
0000
3030
0220
0330
,  // measure 11
0001
0000
0000
1000
0000
0000
0001
0000
0000
0000
0010
0000
0100
0000
0000
0000
,  // measure 12
0200
0300
0020
0030
,  // measure 13
1000
0000
0001
0100
0000
0001
0000
2020
,  // measure 14
0000
3030
0000
0000
0220
0000
0330
0000
,  // measure 15
1000
0000
0001
0100
0000
0010
0000
0220
,  // measure 16
0000
0330
2020
3030
,  // measure 17
0100
0000
0010
0100
0000
1000
0000
0020
,  // measure 18
0000
0000
0200
0000
0000
0000
0000
0330
,  // measure 19
1001
0000
0000
1001
0000
0000
1001
0000
2000
0000
0000
0000
0000
0000
3000
0000
,  // measure 20
0220
0000
0000
0000
0000
0330
0000
0000
,  // measure 21
1000
0000
0000
0010
0000
0000
0100
0000
0002
0000
0000
0000
0000
0000
0000
0000
,  // measure 22
2000
0000
0000
0003
0200
0000
3300
0000
,  // measure 23
0010
0000
0000
0100
0000
0000
0010
0000
2000
0000
0000
0000
0000
0000
0000
0000
,  // measure 24
3000
0000
0001
0020
0000
0030
1000
0200
,  // measure 25
0000
0320
0000
0230
0000
0000
0000
0000
,  // measure 26
0000
0300
0000
0000
,  // measure 27
1000
0000
0000
0010
0000
0000
0100
0000
0002
0000
0000
0000
0000
0000
0000
0000
,  // measure 28
2000
0000
0000
3003
,  // measure 29
1000
0000
0000
0010
0000
0000
0100
0000
0002
0000
0000
0000
0000
0000
0003
0000
,  // measure 30
2000
0000
0000
3000
0200
0000
0000
0300
,  // measure 31
0010
0000
0000
1000
0000
0000
0001
0000
0200
0000
0000
0000
0000
0000
0000
0000
,  // measure 32
0000
0300
0010
2000
0000
0000
3002
0203
,  // measure 33
0000
0320
0030
0200
0000
0000
0000
0000
,  // measure 34
0000
0000
0300
0000
0000
0000
0000
1000
,  // measure 35
0100
0000
0010
0000
0100
0000
1000
0000
0100
0000
0000
0010
0000
0000
0100
0000
,  // measure 36
1000
0000
0000
0100
0000
0000
0010
0000
0100
0000
0000
0000
0010
0000
0000
0000
,  // measure 37
1000
0000
0100
0000
0010
0000
0001
0000
0010
0000
0000
0100
0000
0000
0001
0000
,  // measure 38
0100
0000
0000
0010
0000
0000
0100
0000
0001
0000
0000
0000
0010
0000
0000
0000
,  // measure 39
1000
0000
0100
0000
0010
0000
0001
0000
0010
0000
0000
0100
0000
0000
0010
0000
,  // measure 40
1000
0000
0000
0001
0000
0000
0100
0000
0010
0000
0000
0000
1000
0000
0000
0000
,  // measure 41
1000
0100
0010
0001
0020
0000
0000
0000
,  // measure 42
0030
0000
0000
0000
0000
0000
0000
0000
1000
0000
0000
0100
0000
0000
0010
0000
,  // measure 43
0000
1001
0010
0100
,  // measure 44
0010
0000
0100
0010
0000
0100
0000
0000
0101
0000
0000
0000
0110
0000
0000
0000
,  // measure 45
0010
0000
0100
0010
0000
0100
0000
0000
1010
0000
0000
0000
0110
0000
0000
1000
,  // measure 46
0010
0000
0001
0010
0000
0100
0000
0000
0220
0330
2002
0000
0000
0000
0000
0000
,  // measure 47
0000
0000
0000
0000
,  // measure 48
0000
3003
0000
0000
0000
0000
0000
0000
0000
0000
0000
0000
0000
0000
0000
0000
2020
0000
0000
0000
0000
0000
0000
0000
0000
0000
0000
0000
0000
0000
0000
0000
0000
0000
0000
0000
0000
0000
0000
0000
3030
0000
0000
0000
0000
0000
0000
0000
0220
0000
0000
0000
0000
0000
0000
0000
0000
0000
0000
0000
0000
0000
0000
0000
,  // measure 49
0000
0000
0000
0000
0000
0000
0330
0000
0000
0000
0000
0000
1000
0000
0000
0010
,  // measure 50
0000
0100
0002
0000
0000
0000
2000
0000
,  // measure 51
0000
0000
0003
0000
0200
0000
0000
0000
3300
0000
0000
0000
0010
0000
0000
0100
,  // measure 52
0000
0010
2000
0000
0000
0000
3000
0000
,  // measure 53
0001
0020
0000
0030
0001
0200
0000
0320
,  // measure 54
0000
0230
0000
0000
0000
0000
0000
0000
,  // measure 55
0000
0000
0000
0000
0000
0000
0300
0000
0000
0000
0100
0000
1000
0000
0000
0010
,  // measure 56
0000
0100
0002
0000
0000
0000
2000
0000
,  // measure 57
0000
0000
0000
0000
0000
0000
0000
0000
3003
0000
0000
0000
1000
0000
0000
0010
,  // measure 58
0000
0100
0002
0000
0000
0003
2000
0000
,  // measure 59
0000
0000
3000
0000
0200
0000
0000
0000
0000
0000
1300
0000
0010
0000
0000
1000
,  // measure 60
0000
0001
0200
0000
0000
0000
0000
0300
,  // measure 61
0010
2000
0000
0000
3002
0203
0000
0320
,  // measure 62
0030
0200
0000
0000
0000
0000
0000
0000
,  // measure 63
0000
0000
0000
0000
,  // measure 64
0000
0000
0000
0000
,  // measure 65
0000
0000
0000
0000
,  // measure 66
0000
0000
0000
0000
,  // measure 67
0300
0000
0000
0000
;

//---------------dance-single - Copied from Copied f----------------
#NOTES:
     dance-single:
     Copied from Copied f:
     Medium:
     5:
     0.246139,0.319300,0.007332,0.139304,0.069652,235.000000,234.000000,1.000000,19.000000,0.000000,0.000000,0.246139,0.319300,0.007332,0.139304,0.069652,235.000000,234.000000,1.000000,19.000000,0.000000,0.000000:
0000
0000
0000
0000
,
1000
0000
0000
1000
0000
0000
1000
0000
0000
0000
0000
0000
0020
0000
0000
0000
,
0130
0000
0000
0100
0000
0000
0100
0000
0000
0000
0000
0000
0020
0000
0000
0000
,
0031
0000
0000
0001
0000
0000
0001
0000
0000
0000
0000
0000
2000
0000
0000
0000
,
3010
0000
0000
0010
0000
0000
0010
0000
0000
0000
0000
0000
0200
0000
0000
0000
,
1300
0000
0000
1000
0000
0000
1000
0000
0000
0000
0000
0000
0002
0000
0000
0000
,
0103
0000
0000
0100
0000
0000
0100
0000
0000
0000
0000
0000
0020
0000
0000
0000
,
0031
0000
0000
0001
0000
0000
0001
0000
0000
0000
0000
0000
2000
0000
0000
0000
,
3100
0000
0000
0100
0000
0000
0100
0000
0000
0000
0000
0000
0020
0000
0000
0000
,
0031
0000
0000
0001
0000
0000
0001
0000
0000
0000
0000
0000
2000
0000
0000
0000
,
3100
0000
0000
0100
0000
0000
0100
0000
0000
0000
0000
0000
0020
0000
0000
0030
,
1000
0000
0000
0001
0000
0000
1000
0000
0000
0000
1000
0000
1000
0000
0000
0000
,
1000
0000
0000
1000
0000
0000
1000
0000
0000
0000
0000
0000
0020
0000
0000
0000
,
0130
0000
0000
0100
0000
0000
0100
0000
0000
0000
0000
0000
0020
0000
0000
0000
,
0031
0000
0000
0001
0000
0000
0001
0000
0000
0000
0000
0000
2000
0000
0000
0000
,
3010
0000
0000
0010
0000
0000
0010
0000
0000
0000
0000
0000
0200
0000
0000
0000
,
1300
0000
0000
1000
0000
0000
1000
0000
0000
0000
0000
0000
0002
0000
0000
0000
,
0103
0000
0000
0100
0000
0000
0100
0000
0000
0000
0000
0000
0020
0000
0000
0000
,
0031
0000
0000
0001
0000
0000
0001
0000
0000
0000
0000
0000
1000
0000
0000
0000
,
0001
0000
0000
1000
0000
0000
1000
0000
1000
0000
0000
0000
0100
0000
0000
0000
,
1000
0000
0001
0010
,
0001
0000
1000
0100
,
0010
0001
0010
0100
,
0010
0000
1000
0001
,
1000
0000
0100
0100
,
1000
0000
0000
0000
1000
0100
0010
0000
,
0001
0000
0010
0000
0100
1000
0001
0000
,
1000
1000
0010
0100
,
0010
0000
0001
1000
,
0001
0000
0100
0010
,
0100
0000
1000
0001
,
1000
0000
0000
0000
1000
0100
0010
0000
,
0001
0000
0000
0000
0001
0010
0100
0000
,
1000
0000
0000
0000
1000
0100
0010
0000
,
0001
1000
0001
1000
,
0010
0000
0100
0000
0010
0000
0000
0010
,
0000
0000
1000
0000
0001
0000
0000
0001
,
0000
0000
1000
0000
0100
0000
0000
0100
,
0000
0000
0010
0000
0001
0000
0000
0001
,
0000
0000
1000
0000
0100
0000
0000
0100
,
0000
0000
1000
0000
0010
0000
0000
0010
,
0000
0000
1000
0000
0001
0000
0000
0001
,
0000
0000
1000
0000
0001
0000
0000
0001
,
0000
0100
0010
1000
,
0001
1000
0001
0000
0100
0010
0100
0000
,
0001
0000
0001
0000
1000
1000
0001
0000
,
0100
0100
0010
0000
2002
0000
0000
0000
,
0000
0000
0000
0000
,
3003
0100
1000
0001
,
1000
0100
0010
0100
,
0001
1000
1000
0001
,
1000
0100
0010
0100
,
0001
1000
0001
1000
,
1000
0001
0010
0001
,
0001
0100
1000
0100
,
1000
0100
0010
0100
,
0001
0001
0001
1000
,
0100
1000
0100
0010
,
1000
0001
0010
0100
,
0001
1000
0100
0010
,
1000
0000
0001
0010
0100
0000
1000
0000
,
0001
0000
1000
0100
0010
0000
0001
0000
,
0010
2000
0000
0000
,
0000
0000
0000
0000
,
0000
0000
0000
0000
,
0000
0000
0000
0000
,
0000
0000
0000
0000
,
3000
0000
0000
0000
;

//---------------dance-single - Copied from Copied f----------------
#NOTES:
     dance-single:
     Copied from Copied f:
     Easy:
     3:
     0.145589,0.196492,0.021995,0.102645,0.000000,139.000000,136.000000,3.000000,14.000000,0.000000,0.000000,0.145589,0.196492,0.021995,0.102645,0.000000,139.000000,136.000000,3.000000,14.000000,0.000000,0.000000:
0000
0000
0000
2000
,
3000
0000
0000
0200
,
0300
0000
0000
0020
,
0030
0000
0000
0002
,
0003
0000
0000
2000
,
3000
0000
0000
0200
,
0300
0000
0000
0020
,
0030
0000
0000
0002
,
0003
0000
0000
2000
,
3000
0000
0000
0200
,
0300
0000
0000
0000
,
1000
0001
1000
0001
,
0100
0100
0010
0000
,
0001
0000
1000
0000
,
0001
0001
1000
0000
,
1000
0000
0001
0000
,
0100
0100
0010
0000
,
1000
0000
0001
0000
,
1000
1000
0001
0000
,
0100
0000
0000
1001
1000
0000
0000
0000
,
1000
0000
0001
0000
,
1000
0000
0100
0000
,
1000
0000
0010
0000
,
0001
0000
0001
0001
,
1000
0000
0010
0010
,
1000
0000
0100
0100
,
1000
0000
0001
1000
,
0001
0000
1000
0100
,
0010
0000
0001
0010
,
0100
0000
1000
1000
,
0001
0000
0100
0010
,
0100
0000
1000
0001
,
1000
0000
1000
0100
,
0010
0000
0001
1000
,
0001
0000
1000
0001
,
1000
0000
0010
0000
,
0010
0000
0010
0000
,
1000
0001
1000
0000
,
1000
0000
1000
0000
,
0100
0010
0001
0000
,
0001
0000
0001
0000
,
1000
0000
0100
0000
,
1000
0000
0001
0000
,
1000
0001
1000
0000
,
1000
0000
0100
0000
,
0010
0000
0001
0000
,
1000
0000
2002
0000
,
0000
0000
0000
0000
,
3003
0100
0000
1000
,
0000
0010
0000
0001
,
0000
0010
0000
0100
,
0000
1000
0000
0001
,
0000
1000
0000
0100
,
0000
1000
0000
0010
,
0000
1000
0000
0001
,
0000
0010
0000
0001
,
0000
0100
0000
0010
,
0000
0100
0000
1000
,
0000
0001
0000
1000
,
0000
0010
0000
0100
,
0100
0010
0000
0001
,
0001
1000
0000
1000
,
0001
2002
0000
0000
,
0000
0000
0000
0000
,
0000
0000
0000
0000
,
0000
0000
0000
0000
,
0000
0000
0000
0000
,
3003
0000
0000
0000
;

//---------------dance-single - Copied from Copied f----------------
#NOTES:
     dance-single:
     Copied from Copied f:
     Beginner:
     1:
     0.100551,0.147369,0.014664,0.029327,0.000000,96.000000,94.000000,2.000000,4.000000,0.000000,0.000000,0.100551,0.147369,0.014664,0.029327,0.000000,96.000000,94.000000,2.000000,4.000000,0.000000,0.000000:
0000
0000
0000
0000
,
1000
0000
0000
0000
,
0001
0000
0000
0000
,
1000
0000
0000
0000
,
0100
0000
0000
0000
,
1000
0000
0000
0000
,
0010
0000
0000
0000
,
0100
0000
0000
0000
,
0001
0000
0000
0000
,
1000
0000
0000
0000
,
0100
0000
0000
0000
,
1000
0000
1000
0000
,
0100
0000
0010
0000
,
0001
0000
1000
0000
,
0001
0000
1000
0000
,
0000
0000
0001
0000
,
0100
0000
0010
0000
,
1000
0000
0001
0000
,
1000
0000
0001
0000
,
0100
0000
0000
1000
1000
0000
0000
0000
,
0000
0000
0001
0000
,
1000
0000
0000
0000
,
1000
0000
0000
0000
,
0001
0000
0001
0000
,
1000
0000
0010
0000
,
1000
0000
0100
0000
,
1000
0000
0001
0000
,
0001
0000
1000
0000
,
0010
0000
0001
0000
,
0100
0000
1000
0000
,
0001
0000
0100
0000
,
0100
0000
1000
0000
,
1000
0000
1000
0000
,
0010
0000
0001
0000
,
0001
0000
1000
0000
,
1000
0000
0010
0000
,
0000
0000
0010
0000
,
1000
0000
1000
0000
,
1000
0000
1000
0000
,
0100
0000
0001
0000
,
0001
0000
0001
0000
,
1000
0000
0000
0000
,
1000
0000
0001
0000
,
0000
0001
1000
0000
,
1000
0000
0100
0000
,
0010
0000
0001
0000
,
1000
0000
2002
0000
,
0000
0000
0000
0000
,
3003
0100
0000
0000
,
0000
0010
0000
0000
,
0000
0010
0000
0000
,
0000
1000
0000
0000
,
0000
1000
0000
0000
,
0000
1000
0000
0000
,
0000
1000
0000
0000
,
0000
0010
0000
0000
,
0000
0100
0000
0000
,
0000
0100
0000
0000
,
0000
0001
0000
0000
,
0000
0010
0000
0100
,
0000
0010
0000
0001
,
0000
1000
0000
0000
,
0000
2002
0000
0000
,
0000
0000
0000
0000
,
0000
0000
0000
0000
,
0000
0000
0000
0000
,
0000
0000
0000
0000
,
3003
0000
0000
0000
;
