#TITLE:-Turkey March Minimal Tunes;
#SUBTITLE:;
#ARTIST:Banya Production;
#TITLETRANSLIT:;
#SUBTITLETRANSLIT:;
#ARTISTTRANSLIT:;
#GENRE:;
#CREDIT:Team Stepmasters;
#BANNER:AV.avi;
#BACKGROUND:Title-bg.png;
#LYRICSPATH:;
#CDTITLE:;
#MUSIC:Turkey March Minimal Tunes - BANYA.mp3;
#OFFSET:-1.390000;
#SAMPLESTART:3.192000;
#SAMPLELENGTH:15.000000;
#SELECTABLE:YES;
#BPMS:0.000000=130.020004
,48.000000=65.010002
,50.000000=130.020004
;
#STOPS:65.500000=0.460000,
66.000000=0.480000
;
#BGCHANGES:0.000=Banya_Production___Turkey_March__Minimal_Tunes__highres_muxed.avi=1.200=1=0=0=StretchNoLoop==CrossFade==,
18.500=Banya_Production___Turkey_March__Minimal_Tunes__highres_muxed.avi=1.000=0=0=1=====,
99999=-nosongbg-=1.000=0=0=0 // don't automatically add -songbackground-
;
#KEYSOUNDS:;
#ATTACKS:;

//---------------pump-single - Beginner----------------
#NOTES:
     pump-single:
     Beginner:
     Beginner:
     3:
     0.263380,0.249313,0.310070,0.092183,0.000000,220.000000,183.000000,37.000000,11.000000,0.000000,0.000000,0.263380,0.249313,0.310070,0.092183,0.000000,220.000000,183.000000,37.000000,11.000000,0.000000,0.000000:
00000
00000
00000
00000
,
00000
00101
00000
00101
,
00000
00001
00100
00101
,
00000
00001
10000
00100
,
10000
00001
10000
10100
,
00000
01100
00000
01100
,
00000
01000
00100
01100
,
00000
01000
00010
00100
,
00010
01000
00010
00110
,
00000
00010
00100
00101
,
00000
00000
00000
01000
,
00100
10100
00000
00000
,
00000
00110
00000
00110
00000
00000
00010
00000
,
00100
00110
00000
00010
,
01000
00100
01000
00010
,
00100
01010
00000
00100
,
00000
00200
00300
10000
,
00001
00100
00010
01000
,
01000
00010
00010
01010
,
00000
01000
00100
10000
,
00001
10001
00000
00001
,
10000
00100
01000
00010
,
00010
01000
01000
01010
,
00000
00010
00100
00001
,
10000
10001
00000
00010
,
00100
00010
00100
00001
,
10000
00001
10000
00100
,
01000
00100
01000
00010
,
00100
00001
00000
01000
,
00100
01000
00100
10000
,
00001
10000
00001
00100
,
00010
00100
00010
01000
,
00100
10000
00000
00010
,
00100
00001
00100
00010
,
01000
00100
00000
01000
,
00100
10000
00100
01000
,
00010
00100
00000
01010
,
00000
00000
00000
00110
,
00000
00110
00000
00010
,
00100
00110
00000
00010
,
01000
00100
01000
00010
,
01000
01100
00000
10100
,
00000
10100
00000
10000
,
00100
10100
00000
10000
,
00001
00100
00001
10000
,
00001
00101
00000
00001
,
00100
00110
00000
01000
,
00100
10100
00000
00001
,
00100
00110
00000
01000
,
00100
10100
00000
00101
,
00000
00101
00000
00001
,
00100
00101
00000
00001
,
10000
00100
10000
00001
,
00100
10001
00000
00020
,
00030
02000
03000
00010
,
01000
02020
03030
00002
,
00003
00000
10000
00001
10000
00001
20000
00000
,
30000
00002
00003
02000
,
03000
00010
00100
00001
,
10000
20002
30003
00000
;

//---------------pump-single - DMNormal----------------
#NOTES:
     pump-single:
     DMNormal:
     Easy:
     5:
     0.458520,0.448763,0.310070,0.092183,0.000000,383.000000,346.000000,37.000000,11.000000,0.000000,0.000000,0.458520,0.448763,0.310070,0.092183,0.000000,383.000000,346.000000,37.000000,11.000000,0.000000,0.000000:
00000
00000
00000
00000
,
00001
00101
10000
10100
,
00001
00101
10100
00101
,
10000
00100
01000
00010
10000
00100
01000
00010
,
10000
00100
01000
00010
00100
00001
10000
00000
,
00010
00110
01000
01100
,
00010
00110
01100
00110
,
01000
00100
10000
00001
01000
00100
10000
00001
,
01000
00100
10000
00001
00100
00010
01000
00000
,
00001
00100
00010
00010
01000
00100
10000
00000
,
00000
00000
00000
00000
10000
00100
01000
01000
,
00010
00100
00001
00000
00000
00000
00000
00000
,
00001
00101
10000
10100
00001
00000
00101
00000
,
10100
00000
00101
00000
10000
00100
01000
00010
,
10000
00100
01000
00010
00100
00001
10000
00000
,
00100
01010
00000
00001
,
00000
10000
00000
00110
,
10000
00100
01000
00100
10000
00100
01000
01000
,
00010
00010
00100
00001
00100
00010
01000
00000
,
00001
00100
00010
00100
00001
10000
00100
01000
,
00100
10000
00001
00000
01000
00100
01100
00000
,
00001
00100
00010
00100
00001
00100
00010
00010
,
01000
01000
00100
10000
00100
01000
00010
00000
,
10000
00100
01000
00100
10000
00001
00100
00010
,
00100
00001
20000
00000
30000
00000
00010
00100
,
00010
00100
00001
00100
00001
00100
00010
00100
,
00001
00100
00010
01000
00100
10000
00001
00100
,
00010
00100
00001
10000
00100
01000
00010
10000
,
00100
01000
00001
00000
00000
00000
01000
00100
,
01000
00100
10000
00100
10000
00100
01000
00100
,
10000
00100
01000
00010
00100
00001
10000
00100
,
01000
00100
10000
00001
00100
00010
01000
00001
,
00100
00010
10000
00000
00000
00000
00010
01000
,
00001
01000
00100
01000
00010
01000
00001
01000
,
00100
01000
00010
00010
00000
00000
01000
00010
,
10000
00010
00100
00010
01000
00010
10000
00010
,
00100
00001
01000
00000
00000
00000
01010
00000
,
00000
00000
00001
00101
,
10000
10100
00001
00101
,
10100
00000
00101
00000
10000
00100
01000
00010
,
10000
00100
01000
00010
10000
00100
01000
00010
,
00100
00001
10000
00000
00010
00000
00110
00000
,
01000
01100
00010
00110
,
01100
00000
00110
00000
01000
00100
10000
00001
,
01000
00100
10000
00001
01000
00100
10000
00001
,
00100
00010
01000
00000
00001
00100
00010
00010
,
01000
00100
10000
00000
10000
00100
01000
01000
,
00010
00100
00001
00000
00001
00100
00010
01000
,
00100
00100
10000
00000
10000
00100
01000
00010
,
00100
00100
00001
00000
10000
00000
10100
00000
,
00001
00101
10000
10100
,
00101
00000
10100
00000
00001
00100
00010
01000
,
00001
00100
00010
01000
00100
10000
00001
00000
,
00100
00000
01010
00000
00002
00003
20000
00000
,
00000
30000
00200
00000
00000
00300
01000
00010
,
00100
00001
20000
00000
00000
30000
00200
00000
,
00000
00300
01000
00010
10000
00001
00200
00000
,
00300
00010
02000
00000
03000
00100
20000
00000
,
30000
00001
00100
00010
01000
00100
10000
00000
,
10001
20002
30003
00000
;

//---------------pump-single - DMHard----------------
#NOTES:
     pump-single:
     DMHard:
     Medium:
     8:
     0.548309,0.687810,0.058662,0.092183,0.310070,458.000000,451.000000,7.000000,11.000000,0.000000,0.000000,0.548309,0.687810,0.058662,0.092183,0.310070,458.000000,451.000000,7.000000,11.000000,0.000000,0.000000:
00000
00000
00000
00000
,
00010
00100
00010
00100
00010
00000
00000
00000
01000
00100
01000
00100
01000
00000
00000
00000
,
00010
00100
00010
00100
00001
00100
00001
00100
00010
00100
00010
00100
00010
00000
00000
00000
,
10000
00100
01000
00010
10000
00100
01000
00010
,
10000
00100
01000
00010
00100
00001
10000
00000
,
00001
00100
00001
00100
00001
00000
00000
00000
10000
00100
10000
00100
10000
00000
00000
00000
,
00001
00100
00001
00100
00010
00100
00010
00100
00001
00100
00001
00100
00001
00000
00000
00000
,
01000
00100
10000
00001
01000
00100
10000
00001
,
01000
00100
10000
00001
00100
00010
01000
00000
,
00001
00000
00100
00000
00010
00000
00010
00000
01000
00100
01000
00100
10000
00000
00000
00000
,
00000
00000
00000
00000
10000
00100
01000
01000
,
00010
00100
00010
00100
00001
00000
00000
00000
00000
00000
00000
00000
00000
00000
00000
00000
,
01000
00100
01000
00100
01000
00000
00000
00000
00010
00100
00010
00100
00010
00000
00000
00000
01000
00000
00100
00000
01000
00000
00100
00000
10000
00000
00100
00000
10000
00000
00100
00000
,
01000
00100
01000
00100
01000
00000
00000
00000
00001
00000
00100
00000
00010
00000
01000
00000
,
00001
00100
00010
01000
00100
10000
00001
00000
,
00100
01010
00000
00001
,
10000
00000
00000
00000
00110
00000
10000
00100
,
01000
00100
10000
00100
01000
01000
00010
00010
,
00100
00001
00100
00010
01000
00000
00001
00100
,
00010
00100
00001
10000
00100
01000
00100
10000
,
00001
00000
01000
00100
01100
00000
00001
00100
,
00010
00100
00001
00100
00010
00010
01000
01000
,
00100
10000
00100
01000
00010
00000
10000
00100
,
01000
00100
10000
00001
00100
00010
00100
00001
,
20000
00000
30000
00000
00010
00100
00010
00100
,
00001
00100
00001
00100
00010
00100
00001
00100
,
00010
01000
00100
10000
00001
00100
00010
00100
,
00001
10000
00100
01000
00010
10000
00100
01000
,
00001
00000
00000
01000
00100
01000
00100
10000
,
00100
10000
00100
01000
00100
10000
00100
01000
,
00010
00100
00001
10000
00100
01000
00100
10000
,
00001
00100
00010
01000
00001
00100
00010
10000
,
00000
00000
00010
01000
00001
01000
00100
01000
,
00010
01000
00001
01000
00100
01000
00010
00010
,
00000
00000
01000
00010
10000
00010
00100
00010
,
01000
00010
10000
00010
00100
00001
01000
00000
,
00000
00000
00000
00000
01010
00000
00000
00000
00000
00000
00010
00100
00010
00100
00010
00000
,
00000
00000
01000
00100
01000
00100
01000
00000
00000
00000
00010
00100
00010
00100
00001
00100
,
00001
00100
00010
00100
00010
00100
00010
00000
00000
00000
10000
00000
00100
00000
01000
00000
,
00010
10000
00100
01000
00010
10000
00100
01000
,
00010
00000
00100
00000
00001
00000
10000
00000
00000
00000
00001
00100
00001
00100
00001
00000
,
00000
00000
10000
00100
10000
00100
10000
00000
00000
00000
00001
00100
00001
00100
00010
00100
,
00010
00100
00001
00100
00001
00100
00001
00000
00000
00000
01000
00000
00100
00000
10000
00000
,
00001
01000
00100
10000
00001
01000
00100
10000
,
00001
00100
00010
01000
00000
00001
00100
00010
,
00010
00000
01000
00100
01000
00100
10000
00000
00000
00000
10000
00000
00100
00000
01000
00000
,
01000
00000
00010
00100
00010
00100
00001
00000
00000
00000
00001
00000
00100
00000
00010
00000
,
01000
00000
00100
10000
00100
10000
00001
00000
00000
00000
10000
00000
00100
00000
01000
00000
,
00010
00000
00100
00001
00100
00001
10000
00000
00000
00000
00010
00100
00010
00100
00010
00000
,
00000
00000
01000
00100
01000
00100
01000
00000
00000
00000
00010
00100
00010
00100
00001
00100
,
00001
00100
00010
00100
00010
00100
00010
00000
00000
00000
10000
00000
00100
00000
01000
00000
,
00010
10000
00100
01000
00010
00100
00001
10000
,
00000
00000
00100
00000
00000
00000
01010
00000
00000
00000
00002
00000
00000
00003
20000
00000
,
00000
00000
00000
00000
00000
30000
00200
00000
00000
00000
00000
00000
00300
00000
01000
00000
,
00010
00100
00001
20000
00000
00000
30000
00200
,
00000
00000
00300
01000
00010
10000
00001
00200
,
00300
00010
01000
00200
00300
10000
00001
00200
,
00300
00010
01000
00100
10000
00001
00100
00010
,
00000
01010
00000
20002
00000
30003
00000
00000
;

//---------------pump-single - DMCrazy----------------
#NOTES:
     pump-single:
     DMCrazy:
     Hard:
     17:
     0.735069,0.815819,0.192746,0.712322,0.800315,614.000000,591.000000,23.000000,85.000000,0.000000,0.000000,0.735069,0.815819,0.192746,0.712322,0.800315,614.000000,591.000000,23.000000,85.000000,0.000000,0.000000:
00000
00000
00000
00000
,
00010
01000
00100
01000
10000
00000
00000
00000
10000
01000
00100
10000
01000
00000
00000
00000
,
01000
10000
00100
01000
10000
00100
00001
00100
10000
01000
00100
10000
01000
00000
00000
00000
,
01000
00000
01000
00000
01000
00100
00010
00000
00010
00000
00010
00000
00010
00100
01000
00000
,
01000
00000
01000
00000
01000
00100
00010
00000
00010
00000
00010
00000
00020
00000
00000
00030
,
01000
00010
00100
00010
00001
00000
00000
00000
00001
00010
00100
00001
00010
00000
00000
00000
,
00010
00001
00100
00010
00001
00100
10000
00100
00001
00010
00100
00001
00010
00000
00000
00000
,
00010
00000
00010
00000
00010
00100
01000
00000
01000
00000
01000
00000
01000
00100
00010
00000
,
00010
00000
00010
00000
00010
00100
01000
00000
01000
00000
01000
00000
02000
00000
00000
03000
,
00001
00000
00010
00000
00100
00000
01000
00000
10000
01000
00100
00010
00001
00000
00000
00000
,
00001
00000
00010
00000
00100
00000
01000
00000
10000
01000
00100
00010
00001
00000
00000
00000
10000
00000
00000
00000
01000
00000
00000
00000
00100
00000
00000
00000
00010
00000
00000
00000
,
00001
00000
00010
00000
00100
00000
01000
00000
10000
00000
00000
00000
00000
00000
00000
00000
10000
00000
01000
00000
00100
00000
00010
00000
00001
00010
00100
01000
10000
00000
00000
00000
,
00100
00001
00010
00100
00001
00000
00000
00000
00100
10000
01000
00100
10000
00000
00000
00000
00100
00000
00001
00000
00010
00000
00100
00000
00001
00000
00010
00000
00100
00000
01000
00000
,
00010
00100
01000
00100
00020
00000
00000
00030
01000
00000
00010
00000
00001
00000
00010
00000
,
01000
00010
00001
00010
01000
00100
10000
00001
,
00100
01010
00000
00002
,
20000
00003
00000
00000
00000
00000
30000
00000
00020
00000
00000
00030
02000
03000
20000
30000
,
00020
00030
00002
00003
02000
03000
20000
30000
00020
00030
00200
00300
02000
03000
00020
00030
,
00002
00003
00200
00300
20000
30000
00002
00003
00020
00000
00000
00030
20000
30000
02000
03000
,
00002
00003
00020
00030
20000
30000
02000
03000
00020
00030
00002
00003
00200
00300
20000
30000
,
00002
00000
00000
00003
00020
00030
00200
00300
02000
00000
00000
03000
00020
00030
00002
00003
,
02000
03000
20000
30000
00020
00030
00002
00003
02000
03000
00200
00300
00020
00030
02000
03000
,
20000
30000
00200
00300
00002
00003
20000
30000
02000
00000
00000
03000
00002
00003
00020
00030
,
20000
30000
02000
03000
00002
00003
00020
00030
02000
03000
20000
30000
00200
00300
00002
00003
,
02000
00000
00000
03000
00010
00100
00010
00100
00001
00010
00001
00010
00100
00010
00001
00100
,
00010
00001
00100
00001
00010
00100
00010
00100
00001
00010
00100
00010
00001
00100
00001
00100
,
00010
00001
00010
00100
00001
00010
00001
00100
00010
00001
00100
00001
00010
00001
00100
00001
,
00010
00100
00001
00010
00100
00010
00001
00010
00100
00010
00001
00100
00010
00001
00100
00001
,
00020
00000
00000
00030
01000
00000
00100
00000
01000
00000
00100
00000
10000
00000
01000
00000
10000
00000
01000
00000
00100
00000
01000
00000
10000
00000
00100
00000
01000
00000
10000
00000
,
00100
10000
01000
00100
01000
00100
10000
01000
00100
01000
10000
00100
10000
00100
01000
10000
,
01000
00100
10000
01000
10000
00100
01000
10000
00100
10000
01000
10000
00100
10000
01000
00100
,
10000
01000
00100
01000
10000
01000
00100
01000
10000
00100
01000
10000
00100
10000
02000
03000
,
00010
00100
01000
00100
00010
00100
00001
00100
10000
00100
00001
00100
00010
00100
01000
00100
,
00010
00100
00001
00100
10000
00100
00001
00100
00010
00100
01000
00100
00010
00000
00010
00000
,
01000
00100
00010
00100
01000
00100
10000
00100
00001
00100
10000
00100
01000
00100
00010
00100
,
01000
00100
10000
00100
00001
00100
10000
00100
01000
00100
00010
00100
02000
00000
03000
00000
,
00000
00000
00000
00000
01000
00100
00000
00000
00101
00000
01000
00100
10000
00020
00000
00030
,
01000
00100
10000
00100
00001
00000
00000
00000
00001
00010
00100
00001
00010
00000
00000
00000
,
00010
00001
00100
00010
00001
00100
10000
00100
00001
00010
00100
00001
00010
00000
00000
00000
,
00010
00000
00010
00000
00010
00100
01000
00000
01000
00000
01000
00000
01000
00100
10000
00000
,
10000
00000
10000
00000
10000
00100
00001
00000
00001
00000
00001
00000
00002
00000
00000
00003
,
00010
00100
00001
00100
10000
00000
00000
00000
10000
01000
00100
10000
01000
00000
00000
00000
,
01000
10000
00100
01000
10000
00100
00001
00100
10000
01000
00100
10000
01000
00000
00000
00000
,
01000
00000
01000
00000
01000
00100
00010
00000
00010
00000
00010
00000
00010
00100
00001
00000
,
00001
00000
00001
00000
00001
00100
10000
00000
10000
00000
10000
00000
20000
00000
00000
30000
,
01000
00000
10000
00000
00100
00000
00001
00000
00100
10000
01000
00100
20000
00000
00000
30000
,
00010
00000
00001
00000
00100
00000
10000
00000
00100
00001
00010
00100
00002
00000
00000
00003
,
01000
00000
00100
00000
00010
00000
00001
00000
00010
00100
01000
00100
20000
00000
00000
30000
,
00010
00000
00100
00000
01000
00000
10000
00000
01000
00100
00010
00100
00002
00000
00000
00003
,
00100
00001
00010
00100
01000
00000
00000
00000
00100
10000
01000
00100
00010
00000
00000
00000
,
00100
00001
00010
00100
01000
00100
00001
00010
01000
00001
00100
00010
20000
00000
00000
30000
,
00010
01000
10000
01000
00010
01000
10000
01000
,
00010
00100
00001
10000
00100
00000
01010
00000
,
00002
00000
00000
00003
20000
00000
00000
00000
00100
00000
00000
30000
00020
00000
00000
00000
,
00100
00000
00000
00030
01000
00100
00010
00001
10000
01000
00100
00010
02000
00000
00000
00000
,
00000
00000
00002
00000
00000
03003
01001
01100
,
01010
00110
20020
30030
10010
10100
20002
30003
,
10001
00101
02002
03003
01001
01100
01010
00110
,
10010
10100
10001
00000
01010
00000
20002
00000
,
30003
00000
00000
00000
;

//---------------pump-double - DMFreestyle----------------
#NOTES:
     pump-double:
     DMFreestyle:
     Medium:
     10:
     0.560280,0.685244,0.100563,0.108943,1.508447,468.000000,456.000000,12.000000,13.000000,0.000000,0.000000,0.560280,0.685244,0.100563,0.108943,1.508447,468.000000,456.000000,12.000000,13.000000,0.000000,0.000000:
0000000000
0000000000
0000000000
0000000000
,
0000000100
0000001000
0000000100
0000001000
0000000100
0000000000
0000000000
0000000000
0010000000
0001000000
0010000000
0001000000
0010000000
0000000000
0000000000
0000000000
,
0000000100
0000001000
0000000100
0000001000
0000010000
0000100000
0000010000
0000100000
0001000000
0010000000
0001000000
0010000000
0000100000
0000000000
0000000000
0000000000
,
1000000000
0000100000
0010000000
0000010000
1000000000
0000100000
0010000000
0000010000
,
1000000000
0000100000
0010000000
0000010000
1000000000
0010000000
0000100000
0000000000
,
0000000100
0000010000
0000000100
0000010000
0000000100
0000000000
0000000000
0000000000
0010000000
0000100000
0010000000
0000100000
0010000000
0000000000
0000000000
0000000000
,
0000000100
0000010000
0000000100
0000010000
0000001000
0001000000
0000001000
0001000000
0000100000
0010000000
0000100000
0010000000
0001000000
0000000000
0000000000
0000000000
,
0100000000
0001000000
0010000000
0000001000
0100000000
0001000000
0010000000
0000001000
,
0100000000
0001000000
0010000000
0000001000
0100000000
0010000000
0001000000
0000000000
,
0000010000
0000000000
0000100000
0000000000
0000001000
0000000000
0001000000
0000000000
0000010000
0000100000
0000010000
0000100000
0000010000
0000000000
0000000000
0000000000
,
0000000000
0000000000
0000000000
0000000000
0000100000
0000010000
0001000000
0000001000
,
0000100000
0000010000
0000100000
0000010000
0000100000
0000000000
0000000000
0000000000
0000000000
0000000000
0000000000
0000000000
0000000000
0000000000
0000000000
0000000000
,
0000000100
0000001000
0000000100
0000001000
0000000100
0000000000
0000000000
0000000000
0010000000
0000100000
0010000000
0000100000
0010000000
0000000000
0000000000
0000000000
0000000100
0000000000
0000001000
0000000000
0000000100
0000000000
0000001000
0000000000
0000010000
0000000000
0001000000
0000000000
0000010000
0000000000
0001000000
0000000000
,
0000100000
0010000000
0000100000
0010000000
0001000000
0000000000
0000000000
0000000000
0100000000
0000000000
0000100000
0000000000
0010000000
0000000000
0000001000
0000000000
,
0000100000
0000000100
0000001000
0000000010
0000000100
0000000001
0000010000
0000000000
,
0000010100
0000110000
0000000000
0001010000
,
0000101000
0000000000
0000000000
0000000000
0000000000
0000000000
0000000000
0000000000
0000000000
0001001000
0000000000
0000000000
0000000000
0000000000
0000000000
0000000000
0000000000
0100000000
0000000000
0000000000
0000000000
0010000000
0000000000
0000000000
0000000000
1000000000
0000000000
0000000000
0000000000
0000100000
0000000000
0000000000
,
0000000000
0010000000
0000000000
0000000000
0000000000
0001000000
0000000000
0000000000
0000000000
0000010000
0000000000
0000000000
0000000000
0000000100
0000000000
0000000000
0000000000
0000001000
0000000000
0000000000
0000000000
0000000010
0000000000
0000000000
0000000000
0000000100
0000000000
0000000000
0000000000
0000000001
0000000000
0000000000
,
0000000000
0000010000
0000000000
0000000000
0000000000
0000001000
0000000000
0000000000
0000000000
0002000000
0000000000
0000000000
0000000000
0003000000
0000000000
0000000000
0000000000
0000010000
0000000000
0000000000
0000000000
0000100000
0000000000
0000000000
0000000000
0001000000
0000000000
0000000000
0000000000
0010000000
0000000000
0000000000
,
0000000000
0000100000
0000000000
0000000000
0000000000
0000001000
0000000000
0000000000
0000000000
0000010000
0000000000
0000000000
0000000000
0000100000
0000000000
0000000000
0000000000
0001000000
0000000000
0000000000
0000000000
0010000000
0000000000
0000000000
0000000000
0000100000
0000000000
0000000000
0000000000
0000000000
0000000000
0000000000
,
0000000000
0001000000
0000000000
0000000000
0000000000
0000001000
0000000000
0000000000
0000000000
0001001000
0000000000
0000000000
0000000000
0000000000
0000000000
0000000000
0000000000
0000000010
0000000000
0000000000
0000000000
0000000100
0000000000
0000000000
0000000000
0000000001
0000000000
0000000000
0000000000
0000010000
0000000000
0000000000
,
0000000000
0000000100
0000000000
0000000000
0000000000
0000001000
0000000000
0000000000
0000000000
0000100000
0000000000
0000000000
0000000000
0010000000
0000000000
0000000000
0000000000
0001000000
0000000000
0000000000
0000000000
0100000000
0000000000
0000000000
0000000000
0010000000
0000000000
0000000000
0000000000
1000000000
0000000000
0000000000
,
0000000000
0000100000
0000000000
0000000000
0000000000
0001000000
0000000000
0000000000
0000000000
0000002000
0000000000
0000000000
0000000000
0000003000
0000000000
0000000000
0000000000
0000100000
0000000000
0000000000
0000000000
0000010000
0000000000
0000000000
0000000000
0000001000
0000000000
0000000000
0000000000
0000000100
0000000000
0000000000
,
0000000000
0000010000
0000000000
0000000000
0000000000
0001000000
0000000000
0000000000
0000000000
0000100000
0000000000
0000000000
0000000000
0000010000
0000000000
0000000000
0000000000
0000001000
0000000000
0000000000
0000000000
0000000100
0000000000
0000000000
0000000000
0000020000
0000000000
0000000000
0000000000
0000000000
0000000000
0000000000
,
0000000000
0000030000
0000000000
0000000000
0000000000
0000000000
0000000000
0000000000
0000000000
0000000010
0000000000
0000000000
0000000000
0000001000
0000000000
0000000000
0000000000
0000000010
0000000000
0000000000
0000000000
0000001000
0000000000
0000000000
0000000000
0000010000
0000000000
0000000000
0000000000
0000001000
0000000000
0000000000
,
0000000000
0000010000
0000000000
0000000000
0000000000
0000001000
0000000000
0000000000
0000000000
0000010000
0000000000
0000000000
0000000000
0000100000
0000000000
0000000000
0000000000
0000010000
0000000000
0000000000
0000000000
0000100000
0000000000
0000000000
0000000000
0001000000
0000000000
0000000000
0000000000
0000100000
0000000000
0000000000
,
0000000000
0001000000
0000000000
0000000000
0000000000
0000100000
0000000000
0000000000
0000000000
0010000000
0000000000
0000000000
0000000000
1000000000
0000000000
0000000000
0000000000
0010000000
0000000000
0000000000
0000000000
0000100000
0000000000
0000000000
0000000000
0001000000
0000000000
0000000000
0000000000
0000100000
0000000000
0000000000
,
0000000000
0010000000
0000000000
0000000000
0000000000
1000000000
0000000000
0000000000
0000000000
0100000000
0000000000
0000000000
0000000000
0010000000
0000000000
0000000000
0000000000
0001000000
0000000000
0000000000
0000000000
0010000000
0000000000
0000000000
0000000000
0000100000
0000000000
0000000000
0000000000
0000000000
0000000000
0000000000
,
0000000000
0000000000
0000000000
0000000000
0000000000
0100000000
0000000000
0000000000
0000000000
0001000000
0000000000
0000000000
0000000000
0100000000
0000000000
0000000000
0000000000
0001000000
0000000000
0000000000
0000000000
0000100000
0000000000
0000000000
0000000000
0001000000
0000000000
0000000000
0000000000
0000100000
0000000000
0000000000
,
0000000000
0001000000
0000000000
0000000000
0000000000
0000100000
0000000000
0000000000
0000000000
0000010000
0000000000
0000000000
0000000000
0000100000
0000000000
0000000000
0000000000
0000010000
0000000000
0000000000
0000000000
0000001000
0000000000
0000000000
0000000000
0000010000
0000000000
0000000000
0000000000
0000001000
0000000000
0000000000
,
0000000000
0000010000
0000000000
0000000000
0000000000
0000000100
0000000000
0000000000
0000000000
0000000001
0000000000
0000000000
0000000000
0000000100
0000000000
0000000000
0000000000
0000010000
0000000000
0000000000
0000000000
0000001000
0000000000
0000000000
0000000000
0000010000
0000000000
0000000000
0000000000
0000000100
0000000000
0000000000
,
0000000000
0000000001
0000000000
0000000000
0000000000
0000000010
0000000000
0000000000
0000000000
0000000100
0000000000
0000000000
0000000000
0000001000
0000000000
0000000000
0000000000
0000000100
0000000000
0000000000
0000000000
0000010000
0000000000
0000000000
0000000000
0000000000
0000000000
0000000000
0000000000
0000000000
0000000000
0000000000
,
0000000000
0001000000
0000000000
0000000000
0000000000
0010000000
0000000000
0000000000
0000000000
0001000000
0000000000
0000000000
0000000000
0000100000
0000000000
0000000000
0000000000
0000001000
0000000000
0000000000
0000000000
0001000000
0000000000
0000000000
0000000000
0000100000
0000000000
0000000000
0000000000
0100000000
0000000000
0000000000
,
0000000000
0001000000
0000000000
0000000000
0000000000
0000100000
0000000000
0000000000
0000000000
0000001000
0000000000
0000000000
0000000000
0001000000
0000000000
0000000000
0000000000
0000100000
0000000000
0000000000
0000000000
1000000000
0000000000
0000000000
0000000000
0010000000
0000000000
0000000000
0000000000
0000000000
0000000000
0000000000
,
0000000000
0000100000
0000000000
0000000000
0000000000
0000000100
0000000000
0000000000
0000000000
0000001000
0000000000
0000000000
0000000000
0000010000
0000000000
0000000000
0000000000
0001000000
0000000000
0000000000
0000000000
0000001000
0000000000
0000000000
0000000000
0000010000
0000000000
0000000000
0000000000
0000000010
0000000000
0000000000
,
0000000000
0000001000
0000000000
0000000000
0000000000
0000010000
0000000000
0000000000
0000000000
0001000000
0000000000
0000000000
0000000000
0000001000
0000000000
0000000000
0000000000
0000020000
0000000000
0000000000
0000000000
0000000000
0000000000
0000000000
0000000000
0000030000
0000000000
0000000000
0000000000
0000000000
0000000000
0000000000
,
0000000000
0000010100
0000000000
0000000000
0000000000
0000000000
0000000000
0000000000
0000000000
0000000000
0000000000
0000000000
0000000000
0000000100
0000000000
0000001000
0000000000
0000000100
0000000000
0000001000
0000000000
0000000100
0000000000
0000000000
0000000000
0000000000
0000000000
0000000000
0000000000
0010000000
0000000000
0001000000
,
0000000000
0010000000
0000000000
0001000000
0000000000
0010000000
0000000000
0000000000
0000000000
0000000000
0000000000
0000000000
0000000000
0000000100
0000000000
0000001000
0000000000
0000000100
0000000000
0000001000
0000000000
0000010000
0000000000
0000100000
0000000000
0000010000
0000000000
0000100000
0000000000
0001000000
0000000000
0010000000
,
0000000000
0001000000
0000000000
0010000000
0000000000
0000100000
0000000000
0000000000
0000000000
0000000000
0000000000
0000000000
0000000000
1000000000
0000000000
0000000000
0000000000
0000100000
0000000000
0000000000
0000000000
0010000000
0000000000
0000000000
0000000000
0000010000
0000000000
0000000000
0000000000
1000000000
0000000000
0000000000
,
0000000000
0000100000
0000000000
0000000000
0000000000
0010000000
0000000000
0000000000
0000000000
0000010000
0000000000
0000000000
0000000000
1000000000
0000000000
0000000000
0000000000
0000100000
0000000000
0000000000
0000000000
0010000000
0000000000
0000000000
0000000000
0000010000
0000000000
0000000000
0000000000
1000000000
0000000000
0000000000
,
0000000000
0010000000
0000000000
0000000000
0000000000
0000100000
0000000000
0000000000
0000000000
0000000000
0000000000
0000000000
0000000000
0000000100
0000000000
0000010000
0000000000
0000000100
0000000000
0000010000
0000000000
0000000100
0000000000
0000000000
0000000000
0000000000
0000000000
0000000000
0000000000
0010000000
0000000000
0000100000
,
0000000000
0010000000
0000000000
0000100000
0000000000
0010000000
0000000000
0000000000
0000000000
0000000000
0000000000
0000000000
0000000000
0000000100
0000000000
0000010000
0000000000
0000000100
0000000000
0000010000
0000000000
0000001000
0000000000
0001000000
0000000000
0000001000
0000000000
0001000000
0000000000
0000100000
0000000000
0010000000
,
0000000000
0000100000
0000000000
0010000000
0000000000
0001000000
0000000000
0000000000
0000000000
0000000000
0000000000
0000000000
0000000000
0100000000
0000000000
0000000000
0000000000
0001000000
0000000000
0000000000
0000000000
0010000000
0000000000
0000000000
0000000000
0000001000
0000000000
0000000000
0000000000
0100000000
0000000000
0000000000
,
0000000000
0001000000
0000000000
0000000000
0000000000
0010000000
0000000000
0000000000
0000000000
0000001000
0000000000
0000000000
0000000000
0100000000
0000000000
0000000000
0000000000
0001000000
0000000000
0000000000
0000000000
0010000000
0000000000
0000000000
0000000000
0000001000
0000000000
0000000000
0000000000
0100000000
0000000000
0000000000
,
0000000000
0010000000
0000000000
0000000000
0000000000
0001000000
0000000000
0000000000
0000000000
0000000000
0000000000
0000000000
0000000000
0000010000
0000000000
0000000000
0000000000
0000100000
0000000000
0000000000
0000000000
0000001000
0000000000
0000000000
0000000000
0001000000
0000000000
0000000000
0000000000
0000010000
0000000000
0000100000
,
0000000000
0000010000
0000000000
0000100000
0000000000
0000010000
0000000000
0000000000
0000000000
0000000000
0000000000
0000000000
0000000000
0001000000
0000000000
0000000000
0000000000
0000001000
0000000000
0000000000
0000000000
0000100000
0000000000
0000000000
0000000000
0000010000
0000000000
0000000000
0000000000
0001000000
0000000000
0000001000
,
0000000000
0001000000
0000000000
0000001000
0000000000
0001000000
0000000000
0000000000
0000000000
0000000000
0000000000
0000000000
0000000000
0000010000
0000000000
0000000000
0000000000
0001000000
0000000000
0000000000
0000000000
0000001000
0000000000
0000000000
0000000000
0000100000
0000000000
0000000000
0000000000
0000010000
0000000000
0001000000
,
0000000000
0000010000
0000000000
0001000000
0000000000
0000010000
0000000000
0000000000
0000000000
0000000000
0000000000
0000000000
0000000000
0000100000
0000000000
0000000000
0000000000
0000001000
0000000000
0000000000
0000000000
0001000000
0000000000
0000000000
0000000000
0000010000
0000000000
0000000000
0000000000
0000100000
0000000000
0000001000
,
0000000000
0000100000
0000000000
0000001000
0000000000
0000100000
0000000000
0000000000
0000000000
0000000000
0000000000
0000000000
0000000000
0000000100
0000000000
0000001000
0000000000
0000000100
0000000000
0000001000
0000000000
0000000100
0000000000
0000000000
0000000000
0000000000
0000000000
0000000000
0000000000
0010000000
0000000000
0000100000
,
0000000000
0010000000
0000000000
0000100000
0000000000
0010000000
0000000000
0000000000
0000000000
0000000000
0000000000
0000000000
0000000000
0000000100
0000000000
0000001000
0000000000
0000000100
0000000000
0000001000
0000000000
0000010000
0000000000
0001000000
0000000000
0000010000
0000000000
0001000000
0000000000
0000100000
0000000000
0010000000
,
0000000000
0000100000
0000000000
0010000000
0000000000
0001000000
0000000000
0000000000
0000000000
0000000000
0000000000
0000000000
0000000000
0100000000
0000000000
0000000000
0000000000
0000100000
0000000000
0000000000
0000000000
0010000000
0000000000
0000000000
0000000000
0000001000
0000000000
0000000000
0000000000
0000100000
0000000000
0000000000
,
0000000000
0000000100
0000000000
0000000000
0000000000
0000001000
0000000000
0000000000
0000000000
0000000010
0000000000
0000000000
0000000000
0000000100
0000000000
0000000000
0000000000
0000000001
0000000000
0000000000
0000000000
0000010000
0000000000
0000000000
0000000000
0000000000
0000000000
0000000000
0000000000
0000010100
0000000000
0000000000
,
0000000000
0000000000
0000000000
0000000000
0000000000
0000100100
0000000000
0000000000
0000000000
0000000000
0000000000
0000000000
0000000000
0000110000
0000000000
0000000000
0000000000
0000000000
0000000000
0000000000
0000000000
2000000000
0000000000
0000000000
0000000000
3000000000
0000000000
0000000000
0000000000
0000010000
0000000000
0000000000
,
0000000000
0000100000
0000000000
0000000000
0000000000
0000000002
0000000000
0000000000
0000000000
0000000003
0000000000
0000000000
0000000000
0000100000
0000000000
0000000000
0000000000
0000010000
0000000000
0000000000
0000000000
1000000000
0000000000
0000000000
0000000000
0010000000
0000000000
0000000000
0000000000
0000100000
0000000000
0000000000
,
0000000000
0000010000
0000000000
0000000000
0000000000
0000002000
0000000000
0000000000
0000000000
0000000000
0000000000
0000000000
0000000000
0000000000
0000000000
0000000000
0000000000
0000003000
0000000000
0000000000
0000000000
0000000200
0000000000
0000000000
0000000000
0000000000
0000000000
0000000000
0000000000
0000000000
0000000000
0000000000
,
0000000000
0000000300
0000000000
0000000000
0000000000
0000010000
0000000000
0000000000
0000000000
0000010000
0000000000
0000000000
0000000000
0001000000
0000000000
0000000000
0000000000
0001000000
0000000000
0000000000
0000000000
0020000000
0000000000
0000000000
0000000000
0030000000
0000000000
0000000000
0000000000
0000100000
0000000000
0000000000
,
0000000000
0000001000
0000000000
0000000000
0000000000
0000000200
0000000000
0000000000
0000000000
0000000300
0000000000
0000000000
0000000000
0000010000
0000000000
0000000000
0000000000
0001000000
0000000000
0000000000
0000000000
0020000000
0000000000
0000000000
0000000000
0030000000
0000000000
0000000000
0000000000
0000100000
0000000000
0000000000
,
0000000000
0000001000
0000000000
0000000000
0000000000
0000000100
0000000000
0000000000
0000000000
0000010000
0000000000
0000000000
0000000000
0001000000
0000000000
0000000000
0000000000
0010000000
0000000000
0000000000
0000000000
0000100000
0000000000
0000000000
0000000000
0000000000
0000000000
0000000000
0000000000
0000001100
0000000000
0000000000
,
0000000000
0000000000
0000000000
0000000000
0000000000
0000200200
0000000000
0000000000
0000000000
0000000000
0000000000
0000000000
0000000000
0000300300
0000000000
0000000000
0000000000
0000000000
0000000000
0000000000
0000000000
0000000000
0000000000
0000000000
0000000000
0000000000
0000000000
0000000000
0000000000
0000000000
0000000000
0000000000
;

//---------------pump-double - DMNightmare----------------
#NOTES:
     pump-double:
     DMNightmare:
     Hard:
     18:
     0.781759,0.821004,0.268168,0.879928,0.858977,653.000000,621.000000,32.000000,105.000000,0.000000,0.000000,0.781759,0.821004,0.268168,0.879928,0.858977,653.000000,621.000000,32.000000,105.000000,0.000000,0.000000:
0000000000
0000000000
0000000000
0000000000
0000000000
0000000000
0000000000
0000000000
0000100000
0000001000
0000100000
0000010000
0002000000
0000000000
0003000000
0000000000
,
0000001000
0000100000
0000001000
0001000000
0000020000
0000000000
0000030000
0000000000
0001000000
0000001000
0000100000
0000010000
0000001000
0000100000
0001000000
0000010000
,
0000100000
0000000000
0001000000
0000000000
0000010000
0000000000
0000001000
0000000000
0002000000
0000000000
0000000000
0000000000
0003000000
0000000000
0000000000
0000000000
0000001000
0000000000
0000000000
0000000000
0001000000
0000000000
0000000000
0000000000
0000100000
0001000000
0000000000
0000000000
0000100000
0000000000
0000000000
0000000000
,
0001000000
0000000000
0000000000
0000000000
0000001000
0000000000
0000000000
0000000000
0000010000
0000001000
0000000000
0000000000
0000010000
0000000000
0000000000
0000000000
0000001000
0000000000
0000000000
0000000000
0001000000
0000000000
0000000000
0000000000
0000100000
0001000000
0000000000
0000000000
0000100000
0000000000
0000000000
0000000000
,
0001000000
0000000000
0000001000
0000000000
0000220000
0000000000
0000330000
0000000000
0001000000
0000100000
0010000000
0001000000
0000200000
0000000000
0000300000
0000000000
,
0001000000
0010000000
0000100000
0001000000
0020000000
0000000000
0030000000
0000000000
0001000000
0000100000
0010000000
0001000000
0000100000
0000001000
0000010000
0000000100
,
0000001000
0000000000
0000010000
0000000000
0000100000
0000000000
0000001000
0000000000
0000020000
0000000000
0000000000
0000000000
0000030000
0000000000
0000000000
0000000000
0000000100
0000000000
0000000000
0000000000
0000001000
0000000000
0000000000
0000000000
0000001000
0000020000
0000000000
0000000000
0001030000
0000000000
0000000000
0000000000
,
0000100000
0000000000
0000000000
0000000000
0010000000
0000000000
0000000000
0000000000
0001000000
0000200000
0000000000
0000000000
0000301000
0000000000
0000000000
0000000000
0000010000
0000000000
0000000000
0000000000
0000000100
0000000000
0000000000
0000000000
0000001000
0000020000
0000000000
0000000000
0001030000
0000000000
0000000000
0000000000
,
0000100000
0000000000
0010000000
0000000000
0002000000
0000000000
0003000000
0000000000
0000100000
0000000000
0000000100
0000000000
0000001100
0000000000
0000000100
0000010000
,
0000000100
0000001000
0000010000
0000100000
0001000000
0000000000
0010000000
0000000000
0000100000
0000000000
1000000000
0000000000
0010000000
0000000000
0010000000
0000000000
,
0100000000
0001000000
0010000000
0000100000
1000000000
0000000000
0010000000
0000000000
0000100000
0000000000
0001000000
0000000000
0011000000
0000000000
0010000000
0000100000
,
0010000000
0001000000
0000100000
0000010000
0000001000
0000000000
0000000100
0000000000
0000010000
0000000000
0000000100
0000000000
0000001000
0000001000
0000001000
0000010000
,
0000100000
0001000000
0020000000
0000000000
0030000000
0000000000
0000001000
0000010000
0000000100
0000001000
0000020000
0000000000
0000030000
0000000000
0000001000
0000000100
0000010000
0000000000
0000001000
0000000000
0000000200
0000000000
0000000000
0000000000
0000000300
0000000000
0000000000
0000000000
0000001000
0000000000
0000010000
0000000000
,
0000000100
0000001000
0000010000
0001000000
0000100000
0010000000
0001000000
0000100000
0000010000
0001000000
0000200000
0000000000
0000300000
0000000000
0010000000
0000000000
,
0001000000
0001020000
0000031000
0001000000
0000100000
0000201000
0001300000
0000001000
,
0000010000
0000000000
0000010100
0000000000
0000000000
0000000000
0010000100
0000000000
0000000000
0000200000
0010000000
0000000000
0000300000
0000000000
0000000000
0000000000
,
0000000000
0000000100
0000000000
0020000000
0000000000
0000000000
0030000000
0000102000
,
0000000000
0000003000
0000020000
0000030000
0000000020
0000000030
0000002000
0000003000
0000020000
0000030000
0002000000
0003000000
0000002000
0000003000
0000020000
0000030000
,
0002000000
0003000000
0020000000
0030000000
0000200000
0000300000
0000002000
0000003000
0000000200
0000000300
0000200000
0000300000
0000001000
0000000000
0002010000
0000000000
,
0000000000
0003000000
0000200000
0000300000
0200000000
0300000000
0002000000
0003000000
0000200000
0000300000
0000002000
0000003000
0002000000
0003000000
0000200000
0000300000
,
0000002000
0000003000
0000000200
0000000300
0000020000
0000030000
0000000020
0000000000
0000000000
0000000030
0000002000
0000003000
0000000100
0000000000
0001020000
0000000000
,
0000000000
0000030000
0000002000
0000003000
0000000020
0000000030
0000000200
0000000300
0000002000
0000003000
0002000000
0003000000
0000200000
0000300000
0200000000
0300000000
,
0002000000
0003000000
0000200000
0000300000
0020000000
0030000000
0200000000
0300000000
0000200000
0000300000
0002000000
0003000000
0000000100
0000000000
0000201000
0000000000
,
0000000000
0000300000
0002000000
0003000000
0200000000
0300000000
0020000000
0030000000
0002000000
0003000000
0000002000
0000003000
0000020000
0000030000
0000000020
0000000030
,
0000002000
0000003000
0000020000
0000030000
0000000200
0000000300
0000000002
0000000000
0000000000
0000000003
0000000010
0000000100
0000000010
0000000100
0000001000
0000000010
,
0000000100
0000001000
0000010000
0000001000
0000000100
0000000010
0000001000
0000000100
0000010000
0000000001
0000010000
0000000100
0000001000
0000000010
0000000100
0000001000
,
0001000000
0000010000
0001000000
0000001000
0000010000
0000000100
0000001000
0000000010
0000010000
0000000010
0000001000
0000000010
0000000100
0000000001
0000010000
0000000100
,
0000001000
0000010000
0000100000
0001000000
0000010000
0001000000
0000100000
0000010000
0000001000
0000000100
0000010000
0000000001
0000000100
0000000010
0000000100
0000000001
,
0000001000
0000000010
0000000100
0000001000
0001000000
0000100000
0020000000
0000000000
0030000000
0000000000
0000100000
0010000000
0001000000
0010000000
0000100000
1000000000
,
0010000000
0000100000
0001000000
0000100000
0010000000
1000000000
0010000000
0100000000
0001000000
0010000000
0001000000
0100000000
0010000000
1000000000
0000100000
0010000000
,
0001000000
0000100000
0000001000
0001000000
0000010000
0010000000
0001000000
1000000000
0001000000
0100000000
0001000000
1000000000
0010000000
0000100000
0000010000
0000001000
,
0000010000
0000001000
0000010000
0000001000
0000010000
0000001000
0000100000
0001000000
0000001000
0000100000
0001000000
0010000000
0000100000
0100000000
0010000000
1000000000
,
0001000000
0100000000
0010000000
0001000000
0000001000
0000010000
0000000200
0000000000
0000000300
0000000000
0000001000
0000000100
0000000010
0000000001
0000000100
0000010000
,
0000100000
0001000000
0000010000
0000001000
0001000000
0000100000
0010000000
0001000000
0000100000
0001000000
0010000000
0100000000
1000000000
0010000000
0100000000
1000000000
,
0010000000
0000100000
1000000000
0010000000
0000100000
0001000000
0010000000
0000000000
0011000000
0000000000
0001000000
0010000000
0100000000
1000000000
0010000000
0000100000
,
0000010000
0000001000
0000100000
0001000000
0000001000
0000010000
0000000100
0000001000
0000010000
0000001000
0000000100
0000000010
0000000001
0000001000
0000000100
0000010000
,
0000000010
0000000100
0000001000
0000010000
0000000100
0000001000
0000020000
0000030000
0000000000
0000000000
0001000000
0000001000
0000000000
0000000000
0000101000
0000000000
,
0000100000
0000001000
0001000000
0000020000
0000030000
0000000000
0000001000
0000010000
0000100000
0001000000
0000010000
0000000000
0000010000
0000000000
0001000000
0000100000
,
0000010000
0000001000
0000100000
0000000000
0000100000
0000000000
0001000000
0000001000
0000100000
0000010000
0000001000
0000100000
0001000000
0000010000
0000100000
0001000000
,
0000010000
0000000000
0000001000
0000000000
0002000000
0000000000
0000000000
0000000000
0003000000
0000000000
0000000000
0000000000
0000010000
0000000000
0000000000
0000000000
0000100000
0000000000
0000000000
0000000000
0001000000
0000010000
0000000000
0000000000
0000001000
0000000000
0000000000
0000000000
0001000000
0000000000
0000000000
0000000000
,
0000100000
0000000000
0000000000
0000000000
0000001000
0000100000
0000000000
0000000000
0001000000
0000000000
0000000000
0000000000
0000001000
0000000000
0000000000
0000000000
0000010000
0000000000
0000000000
0000000000
0001000000
0000010000
0000000000
0000000000
0000001000
0000000000
0000000000
0000000000
0001000000
0000000000
0000000000
0000000000
,
0000100000
0000000000
0020000000
0000000000
0030000000
0000000000
0001000000
0000100000
0000010000
0000001000
0000200000
0000000000
0000301000
0000000000
0000100000
0001000000
,
0000010000
0000100000
0002000000
0000000000
0003010000
0000000000
0001000000
0000100000
0000010000
0000001000
0000100000
0000010000
0000100000
0001000000
0000001000
0000100000
,
0001000000
0000000000
0000100000
0000000000
0000002000
0000000000
0000000000
0000000000
0000003000
0000000000
0000000000
0000000000
0010000000
0000000000
0000000000
0000000000
0011000000
0000000000
0000000000
0000000000
0001000000
0000200000
0000000000
0000000000
0000301000
0000000000
0000000000
0000000000
0000010000
0000000000
0000000000
0000000000
,
0000000100
0000000000
0000000000
0000000000
0000001000
0000020000
0000000000
0000000000
0001030000
0000000000
0000000000
0000000000
0000100000
0000000000
0000000000
0000000000
0010000000
0000000000
0000000000
0000000000
0001000000
0000200000
0000000000
0000000000
0000301000
0000000000
0000000000
0000000000
0000010000
0000000000
0000000000
0000000000
,
0000000100
0000000000
0001000000
0000001000
0000000000
0000001000
0010000000
0000000000
0001000000
0000000000
0011000000
0000000000
0010000000
0000100000
0010000000
0001000000
,
0000100000
0000010000
0000001000
0000000100
0000000000
0000001000
0000000010
0000000000
0000000100
0000000000
0000000110
0000000000
0000000100
0000000000
0000000010
0000001000
,
0000000100
0000010000
0000000001
0000000000
0000000100
0000000000
0000010000
0000001000
0000000100
0000000000
0000001100
0000000000
0000000100
0000010000
0000000100
0000001000
,
0000010000
0000100000
0001000000
0010000000
0000000000
0001000000
0100000000
0000000000
0010000000
0000000000
0110000000
0000000000
0100000000
0010000000
1000000000
0010000000
,
0000100000
0000010000
0000001000
0000000000
0000001000
0000100000
0000001000
0000010000
0000100000
0001000000
0000020000
0000000000
0001030000
0000000000
0000010000
0000001000
,
0000100000
0000010000
0000002000
0000000000
0000103000
0000000000
0000001000
0000010000
0000100000
0001000000
0000010000
0000100000
0000010000
0000001000
0001000000
0000010000
,
0000001000
0000010000
0002000000
0000000000
0003000000
0000000000
0000000100
0000000000
0000001000
0000000000
0000201000
0000000000
0001300000
0000000000
0000001000
0000000000
,
0000010000
0001020000
0000031000
0001000000
0000100000
0010100000
0000000000
0010000100
,
0000000000
0000020000
0000000100
0000000000
0000030000
0000000000
0000001000
0000000000
0001000000
0000010000
0020000000
0000000000
0000000000
0000000000
0031000000
0000000000
,
0000001000
0000100000
0000000200
0000000000
0000000000
0000000000
0000001300
0000000000
0000000000
0000000000
0001000000
0000001000
0010000000
0000010000
0001000000
0000001000
,
0000100000
0000000100
0020000000
0000000000
0000000000
0000000000
0030001000
0000000000
0000000000
0000000000
0000000200
0000000000
0000000000
0000000000
0001000300
0000000000
,
0000000000
0010000100
0010000000
0010000100
0000000100
0000002020
0000003030
0001000000
,
0000010000
0020200000
0030300000
0000001000
0000100000
0000020200
0000030300
0001000000
,
0000010000
0010000000
0010000100
0000000100
0010000100
0000110000
0000000000
0000200020
,
0000300030
0002000002
0000000000
0003000003
0000000000
0000000000
0000000000
0000000000
;

//---------------dance-single - ----------------
#NOTES:
     dance-single:
     :
     Challenge:
     16:
     0.939787,0.904126,0.519576,0.234647,1.206758,785.000000,723.000000,62.000000,28.000000,0.000000,13.000000,0.939787,0.904126,0.519576,0.234647,1.206758,785.000000,723.000000,62.000000,28.000000,0.000000,13.000000:
// measure 0
0000
0000
0000
0000
,  // measure 1
1000
0100
0010
0001
0010
0000
0000
0000
0001
0010
0100
1000
0100
0000
0000
0000
,  // measure 2
1000
0100
0010
0100
1000
0100
0010
0001
0010
0100
1000
0100
0010
0000
0000
0000
,  // measure 3
1000
0000
0100
0000
0010
0000
0001
1000
0010
0000
0100
0000
1000
0000
0100
0000
0010
0000
0001
0000
0010
0000
0100
0010
1000
0000
0100
0000
0010
0000
0100
0000
,  // measure 4
1000
0000
0100
0000
0010
0000
0100
0001
1000
0000
0100
0000
0010
0000
0001
0000
0010
0000
0100
0000
1000
0000
0100
1000
0010
0000
0000
0000
0000
0000
0000
0000
,  // measure 5
1000
0100
0010
0001
0010
0000
0000
0000
0001
0010
0100
1000
0100
0000
0000
0000
,  // measure 6
1000
0100
0010
0001
0010
0100
1000
0100
0010
0001
0010
0100
1000
0000
0000
0000
,  // measure 7
1000
0000
0100
0000
1000
0000
0100
0001
1000
0000
0010
0000
0001
0000
0010
0000
1001
0000
0100
0000
1000
0000
0100
0001
0010
0000
0001
0000
0010
0000
0001
0000
,  // measure 8
1000
0000
0100
0000
1000
0000
0100
0001
0010
0000
0001
0000
0010
0000
1000
0000
0100
0000
0010
0000
0001
0000
0010
1000
0100
0000
0000
0000
0000
0000
0000
0000
,  // measure 9
1100
0000
0011
0000
1100
0000
0011
0000
1000
0100
0010
0001
0010
0000
0100
0000
,  // measure 10
0100
0000
0010
0000
0001
0000
0010
0000
1000
0100
0010
0001
0010
0000
0100
0000
,  // measure 11
1000
0000
0100
0000
0001
0000
0010
0000
1000
0100
0010
0100
1000
0000
0100
0000
,  // measure 12
1010
0000
0001
0000
0010
0000
1000
0000
0100
0010
0100
0010
0100
0000
0000
0000
1001
0000
0100
0000
0010
0000
0100
0000
0010
0000
0000
0000
0000
0000
0000
0000
,  // measure 13
1000
0100
0010
0001
0010
0000
0000
0000
1000
0100
0010
0100
1000
0100
0010
0100
,  // measure 14
1000
0100
0010
0001
0010
0000
0000
0000
1000
0000
0100
0000
0110
0000
0001
0000
,  // measure 15
0110
1100
0100
1001
0101
0010
1001
0000
,  // measure 16
1001
0000
0000
0000
0110
0000
1000
0001
0220
0000
0000
0000
0330
0000
0000
0000
1001
0000
0000
0000
0000
0000
0000
0000
1001
0000
0000
0100
0000
0010
0000
0100
,  // measure 17
0000
1000
0000
0001
0000
0100
0000
0000
1001
0000
0000
0000
0100
0000
0000
0000
1000
0000
0000
0000
0100
0000
0000
0000
0010
0000
1000
0000
0001
0000
0000
0000
,  // measure 18
0020
0000
1030
0000
0100
0010
0001
0000
1000
0001
0100
0000
0010
1000
0001
0000
,  // measure 19
0010
0000
0000
0000
0000
0000
0000
0000
0000
0000
0000
0000
0000
0000
0000
0000
0010
0000
0000
0000
0000
0000
0000
0000
0000
0000
0000
0000
0000
0000
0010
0000
0000
0000
0000
0000
0000
0000
0000
0000
0000
0000
0000
0000
0000
0000
0000
0000
0010
0000
0000
0000
0000
0000
0000
0000
0000
0000
0000
0000
0100
0000
0000
0000
0000
0000
0000
0000
0000
0000
0000
0000
0001
0000
0000
0000
0000
0000
0000
0000
0000
0000
0000
0000
0000
0000
0000
0000
0000
0000
0000
0000
0000
0000
0000
0000
1000
0000
0000
0000
0000
0000
0000
0000
0000
0000
0000
0000
0000
0000
0000
0000
0000
0000
0000
0000
0000
0000
0000
0000
0100
0000
0000
0000
0000
0000
0000
0000
0000
0000
0000
0000
0000
0000
0000
0000
0000
0000
0000
0000
0000
0000
0000
0000
0010
0000
0000
0000
0000
0000
0000
0000
0000
0000
0000
0000
0001
0000
0000
0000
0000
0000
0000
0000
0000
0000
0000
0000
0100
0000
0000
0000
0000
0000
0000
0000
0000
0000
0000
0000
0000
0000
0000
0000
0000
0000
0000
0000
0000
0000
0000
0000
,  // measure 20
1000
0010
0001
1000
0100
0000
0000
0000
0010
0000
1000
0000
0001
0000
0000
0000
0010
0000
0001
0000
0100
0000
0000
0000
0010
1000
0001
0100
0010
0000
0000
0000
,  // measure 21
0010
1000
0100
0001
0100
0000
0000
0000
1000
0000
0100
0000
0001
0000
0000
0000
0100
0000
0000
0000
0010
0000
0000
0000
1000
0000
0001
0000
0100
0000
0000
0000
,  // measure 22
2000
0000
3001
0000
0010
0001
1000
0000
0110
0001
1000
0000
0110
1000
0010
0000
,  // measure 23
0110
0000
0010
0000
1000
0001
0100
0000
1000
0000
0100
0000
0010
1000
0001
0000
,  // measure 24
0010
0000
0000
0000
0000
0000
0000
0000
0000
0000
0000
0000
0000
0000
0000
0000
0010
0000
0000
0000
0000
0000
0000
0000
0100
0000
0000
0000
0000
0000
0010
0000
0000
0000
0000
0000
0000
0000
0000
0000
0000
0000
0000
0000
0000
0000
0000
0000
0010
0000
0000
0000
0000
0000
0000
0000
0000
0000
0000
0000
0001
0000
0000
0000
0000
0000
0000
0000
0000
0000
0000
0000
0100
0000
0000
0000
0000
0000
0000
0000
0000
0000
0000
0000
0000
0000
0000
0000
0000
0000
0000
0000
0000
0000
0000
0000
1000
0000
0000
0000
0000
0000
0000
0000
0000
0000
0000
0000
0010
0000
0000
0000
0000
0000
0000
0000
0000
0000
0000
0000
0100
0000
0000
0000
0000
0000
0000
0000
0000
0000
0000
0000
0000
0000
0000
0000
0000
0000
0000
0000
0000
0000
0000
0000
0020
0000
0000
0000
0000
0000
0000
0000
0000
0000
0000
0000
0000
0000
0000
0000
0000
0000
0000
0000
0000
0000
0000
0000
0000
0000
0000
0000
0000
0000
0000
0000
0000
0000
0000
0000
0000
0000
0000
0000
0000
0000
0000
0000
0000
0000
0000
0000
,  // measure 25
1000
0100
0001
1000
0031
0100
0001
1000
0100
0001
0010
1000
0001
0100
0010
0100
,  // measure 26
1000
0100
0010
0001
0010
1000
0001
0100
0010
0100
0001
0100
1000
0100
0010
0001
,  // measure 27
0010
1000
0001
0100
0010
0100
0001
1000
0010
0100
0001
1000
0010
1000
0100
0010
,  // measure 28
0001
0010
1000
0100
0010
0001
1000
0010
0100
0001
1000
0100
0002
0000
0000
0000
,  // measure 29
0013
0100
0001
0100
1000
0010
0001
1000
0010
0100
0001
0010
1000
0001
0100
0010
,  // measure 30
0001
1000
0010
0100
0001
1000
0010
1000
0100
0010
0001
0010
1000
0100
0001
0010
,  // measure 31
1000
0001
1000
0010
1000
0100
0010
0001
0010
0100
1000
0100
0010
0001
0010
1000
,  // measure 32
0001
0100
0010
1000
0001
1000
0100
0001
0010
0001
1000
0100
2000
0000
0000
0000
,  // measure 33
3100
0001
1000
0100
0010
0001
0100
1000
0100
0001
0010
1000
0100
0010
0001
0010
,  // measure 34
0100
1000
0100
0010
0001
0010
1000
0010
0100
0001
0100
0010
0101
0000
0110
0000
,  // measure 35
1000
0100
0010
0001
0010
1000
0001
0100
0010
0100
0010
1000
0100
0001
1000
0010
,  // measure 36
1000
0001
0100
0010
0100
0001
1000
0100
0010
0001
0010
0100
2000
0000
0000
3000
,  // measure 37
0000
0000
0000
0000
0100
0001
1000
0100
1000
0000
0001
0010
0100
1000
0000
0000
,  // measure 38
0001
0010
0100
1000
0100
0000
0000
0000
1000
0100
0010
0001
0010
0000
0000
0000
,  // measure 39
0001
0010
0100
0010
0001
0010
0100
1000
0100
0010
0001
0010
0100
0000
0000
0000
,  // measure 40
0001
0000
0010
0000
0100
0000
1000
0001
0100
0000
0010
0000
0001
0000
0010
0000
0100
0000
1000
0000
0100
0000
0010
0100
0001
0000
0010
0000
0100
0000
0010
0000
,  // measure 41
0001
0000
0010
0000
0100
0000
0010
1000
0001
0000
0010
0000
0100
0000
1000
0000
0100
0000
0010
0000
0001
0000
0010
0001
0100
0000
0000
0000
0000
0000
0000
0000
,  // measure 42
0001
0010
0100
1000
0100
0000
0000
0000
1000
0100
0010
0001
0010
0000
0000
0000
,  // measure 43
0001
0010
0100
1000
0100
0010
0001
0010
0100
1000
0100
0010
0001
0000
0000
0000
,  // measure 44
0001
0000
0010
0000
0001
0000
0010
1000
0001
0000
0100
0000
1000
0000
0100
0000
1001
0000
0010
0000
0001
0000
0010
1000
0100
0000
1000
0000
0100
0000
1000
0000
,  // measure 45
0001
0000
0010
0000
0001
0000
0010
1000
0100
0000
1000
0000
0100
0000
0001
0000
0010
0000
0100
0000
1000
0000
0100
0001
0010
0000
0000
0000
0000
0000
0000
0000
,  // measure 46
0011
0000
1100
0000
0011
0000
1100
0000
0001
0010
0100
1000
0100
0000
0010
0000
,  // measure 47
0010
0000
0100
0000
1000
0000
0100
0000
0001
0010
0100
1000
0100
0000
0010
0000
,  // measure 48
0001
0000
0010
0000
1000
0000
0100
0000
0001
0010
0100
0010
0001
0000
0010
0000
,  // measure 49
1000
0000
0100
0000
0010
0000
0001
0000
0010
0100
0001
0100
0010
0000
0100
0001
,  // measure 50
1000
0100
0010
0001
0010
0000
0000
0000
0001
0010
0100
1000
0100
0000
0000
0000
,  // measure 51
1000
0100
0010
0100
1000
0100
0010
0001
0010
0100
1000
0100
0010
0000
0000
0000
,  // measure 52
1100
0101
0110
1001
0110
1100
0101
1001
,  // measure 53
0101
0000
0000
0000
0110
0000
0000
0000
1001
0000
0000
0000
0110
0000
0000
0000
1001
0000
0000
0000
0110
0000
1000
0001
0220
0000
0000
0000
1331
0000
0000
0000
,  // measure 54
1001
0100
2001
0100
3010
0001
1020
0101
,  // measure 55
0031
0000
0100
0000
1010
0100
0001
1000
0100
0001
0100
0010
1002
0000
1100
0000
,  // measure 56
0100
0010
2103
0010
0100
0001
3210
0011
,  // measure 57
1000
0010
1302
0010
1000
0023
2030
0110
,  // measure 58
0001
3020
2031
0001
0010
3002
0203
2301
,  // measure 59
3002
0000
0203
0000
0321
0000
1000
0000
0231
0000
0010
0000
2301
0000
0000
3000
;

//---------------dance-single - Copied from----------------
#NOTES:
     dance-single:
     Copied from:
     Hard:
     14:
     0.730280,0.827918,0.318450,0.175986,0.724893,610.000000,572.000000,38.000000,21.000000,0.000000,3.000000,0.730280,0.827918,0.318450,0.175986,0.724893,610.000000,572.000000,38.000000,21.000000,0.000000,3.000000:
0000
0000
0000
0000
,
1000
0100
1000
0100
1000
0000
0000
0000
0001
0010
0001
0010
0001
0000
0000
0000
,
1000
0100
1000
0100
0010
0100
0010
0100
0010
0100
1000
0100
1000
0000
0000
0000
,
1000
0100
1100
0010
0100
0001
0011
0010
,
0100
1000
1100
0010
0100
0001
1001
0000
,
0010
0001
0010
0001
0010
0000
0000
0000
1000
0100
1000
0100
1000
0000
0000
0000
,
0001
0010
0001
0010
0100
0010
0100
0010
0001
0010
0001
0010
0001
0000
0000
0000
,
1000
0100
1100
0010
0100
0001
0011
0010
,
0100
1000
1100
0010
0100
0010
0011
0000
,
1000
0000
0100
0000
0010
0000
0001
0000
0010
0100
0010
0001
0010
0000
0100
0000
,
1000
0000
0010
0000
0100
0000
0010
0000
1000
0100
0010
0100
1000
0000
0000
0000
,
1000
0000
0100
0000
1000
0000
0100
0000
0100
0010
0001
0010
0100
0000
0000
0000
,
0001
0000
0100
0000
0010
0000
0100
0000
1000
0100
1000
0100
1000
0000
0000
0000
0010
0000
1000
0000
0010
0000
1000
0000
0010
0000
0000
0000
0000
0000
0000
0000
,
0100
0001
0100
0001
0100
0000
0000
0000
0010
1000
0010
1000
0001
1000
0001
1000
,
0010
1000
0001
1000
0010
0000
0000
0000
1000
0000
0100
0000
0010
0000
0001
0000
,
0010
0100
1000
0100
0010
0001
0110
0000
,
0110
0110
1001
1001
,
0000
0000
0110
0000
1000
0100
0010
0001
,
0010
0100
1000
0100
1000
0100
0010
0001
,
0010
0100
0110
0000
1000
0100
0010
0100
,
1000
0100
0010
0001
0010
0100
0110
0000
,
1000
0100
0010
0000
0001
0010
0100
1000
,
0100
0010
0001
0010
0100
1000
0010
0100
,
0010
0001
0110
0000
1000
0100
0110
0001
,
0010
0100
1000
0010
0100
0001
2002
0000
,
0000
0000
3003
0000
0010
1000
0001
1000
0100
0010
0001
0100
0010
0100
0001
1000
,
0100
1000
0001
1000
0010
0100
0001
1000
0100
0010
0001
1000
0010
1000
0010
1000
,
0001
1000
0100
1000
0001
0100
0010
1000
0001
0010
0100
1000
0001
1000
0010
1000
,
0001
0100
0010
1000
0010
0100
0010
0100
0010
0100
0010
0100
0010
0000
0000
0000
,
0001
0010
0100
1000
0001
0100
0010
1000
0001
0010
0100
1000
0001
1000
0001
1000
,
0010
1000
0001
0010
0100
0010
0100
0010
0001
1000
0001
1000
0010
1000
0010
1000
,
0001
1000
0001
1000
0100
1000
0001
0100
0010
1000
0001
0010
0100
1000
0001
1000
,
0010
0100
0001
1000
0100
0010
0001
1000
0100
1000
0001
1000
0100
0000
0000
0000
,
0010
1000
0001
1000
0100
0010
0001
1000
0010
0100
0010
0100
0001
1000
0100
0010
,
0001
0010
0001
0010
0100
1000
0001
1000
0010
1000
0001
1000
0100
0000
0010
0000
,
0010
0100
0001
1000
0100
0010
0001
1000
0001
1000
0010
0100
0010
0100
0001
1000
,
0100
0010
0001
1000
0010
0100
0001
1000
0010
1000
0010
1000
0002
0000
0003
0000
,
0000
0000
0000
0000
1000
0100
1000
0100
0010
0000
0010
0100
0000
0010
0000
0000
,
0001
0010
0001
0010
0001
0000
0000
0000
1000
0100
1000
0100
1000
0000
0000
0000
,
0001
0010
0001
0010
0100
0010
0100
0010
0100
0010
0001
0010
0001
0000
0000
0000
,
0001
0010
0011
0100
0010
1000
1100
0100
,
0010
0001
0011
0100
0010
1000
1001
0000
,
0100
1000
0100
1000
0100
0000
0000
0000
0001
0010
0001
0010
0001
0000
0000
0000
,
1000
0100
1000
0100
0010
0100
0010
0100
1000
0100
1000
0100
1000
0000
0000
0000
,
0001
0010
0011
0100
0010
1000
1100
0100
,
0010
0001
0011
0100
0010
0100
1100
0000
,
0001
0000
0010
0000
0100
0000
1000
0000
0100
0010
0100
1000
0100
0000
0010
0000
,
0001
0000
0100
0000
0010
0000
0100
0000
0001
0010
0100
0010
0001
0000
0000
0000
,
0001
0000
0010
0000
0001
0000
0010
0000
0010
0100
1000
0100
0010
0000
0000
0000
,
0001
0000
1000
0000
0010
0000
1000
0000
0100
1000
0100
1000
0100
0000
0000
0000
,
0100
1000
0100
1000
0100
0000
0000
0000
0001
0010
0001
0010
0001
0000
0000
0000
,
0001
0010
0001
0010
0100
0010
0100
0010
0001
0010
0001
0010
0001
0000
0000
0000
,
0010
0100
0010
0100
0001
0010
0100
1000
,
0100
0010
1001
0000
1001
0000
0110
0000
,
0000
1001
0110
1001
,
0110
0000
0000
0000
0100
0010
0100
0010
0100
0010
0100
0010
0002
0000
0010
0000
,
0000
0000
0023
0000
0000
0000
0032
1000
,
0000
0000
0023
0000
0000
0031
0020
0001
,
0000
0130
2000
0000
0000
3002
0023
2032
,
3023
0032
0223
0330
0202
0303
2020
3030
;

//---------------dance-single - Copied from Copied f----------------
#NOTES:
     dance-single:
     Copied from Copied f:
     Medium:
     9:
     0.446548,0.400577,0.083803,0.083803,0.000000,373.000000,363.000000,10.000000,10.000000,0.000000,0.000000,0.446548,0.400577,0.083803,0.083803,0.000000,373.000000,363.000000,10.000000,10.000000,0.000000,0.000000:
1000
0000
0000
0000
,
1000
0100
1000
0000
0010
0100
0010
0000
,
0001
0010
0100
0010
0001
0010
0100
0000
,
1000
0100
0010
0100
1000
0100
0010
0100
,
1000
0100
0010
0100
1000
0200
0310
0000
,
0001
1000
0001
0000
1000
0001
1000
0000
,
0010
1000
0001
1000
0100
1000
0001
0000
,
0010
0100
0001
0100
0010
0100
0001
0100
,
0010
0100
0001
0100
0010
0100
0001
0000
,
1000
0100
1000
0100
1000
0100
1000
0000
,
0001
0001
0001
0001
,
1000
0001
1000
0001
1000
0001
1000
0000
,
0010
0010
0010
0010
0000
0000
1000
0000
,
1000
0001
1000
0000
0010
1000
0100
1000
,
0010
1000
0100
0000
1000
0100
0010
0001
,
1000
0010
0100
0001
1000
0100
0010
0000
,
0010
0010
1000
1000
,
0000
0000
0100
0000
0100
1000
0010
1000
,
0100
1000
0010
1000
0010
1000
0001
1000
,
0010
1000
0001
0000
1000
0100
1000
0001
,
1000
0010
1000
0001
1000
0100
1000
0000
,
0010
0100
0010
0000
1000
0001
1000
0100
,
1000
0001
1000
0010
1000
0001
1000
0010
,
1000
0001
1000
0000
0001
0010
0100
0010
,
0001
1000
0010
0100
0001
1000
0100
0000
,
0000
0000
0100
0000
0100
1000
0100
0000
,
0100
0010
0100
0000
0001
1000
0001
0000
,
0010
1000
0010
0000
0001
1000
0001
0000
,
0100
1000
0001
1000
0001
1000
0002
0000
,
0000
0000
1003
0000
0001
1000
0001
0000
,
1000
0001
1000
0000
0010
0100
0010
0000
,
1000
0001
1000
0100
1000
0001
1000
0010
,
1000
0001
1000
0100
1000
0001
1000
0000
,
0010
0000
0100
0010
0100
0000
0001
1000
,
0001
0000
0010
1000
0010
0000
0001
0000
,
0001
0000
1000
0001
1000
0000
0001
1000
,
0001
0100
0010
0200
,
0000
0310
0000
0010
,
0000
0000
1000
0000
1000
0001
1000
0000
,
0001
1000
0010
1000
0001
1000
0100
0000
,
0010
1000
0100
1000
0010
1000
0100
1000
,
0010
1000
0100
1000
0010
1000
0100
0000
,
0001
1000
0010
0000
0001
1000
0100
0000
,
0001
1000
0010
1000
0001
1000
0100
0000
,
0001
0010
0100
0010
0001
0010
0100
0010
,
0001
0010
0100
0010
0001
0010
0100
0000
,
0001
1000
0010
1000
0010
1000
0010
0000
,
0001
0100
0001
0100
0001
0100
0001
0000
,
0010
0001
0010
0001
0010
0001
0011
0000
,
1000
0001
1000
0001
1000
0001
1000
0000
,
0100
0010
0100
0000
0001
0010
0001
0000
,
0100
0010
0001
0010
0100
0010
0001
0000
,
1000
0010
1000
0001
1000
0100
1000
0010
,
1000
0100
1000
0000
1000
0000
1000
0000
,
0000
1001
0000
1001
,
0000
0000
0010
0100
0010
0100
0020
0000
,
1030
0002
0103
0020
,
1030
2100
3100
0120
,
0130
1002
1003
0210
,
0310
1001
1001
1001
;

//---------------dance-single - Copied from Copied f----------------
#NOTES:
     dance-single:
     Copied from Copied f:
     Easy:
     5:
     0.302887,0.325468,0.025141,0.016761,0.000000,253.000000,250.000000,3.000000,2.000000,0.000000,0.000000,0.302887,0.325468,0.025141,0.016761,0.000000,253.000000,250.000000,3.000000,2.000000,0.000000,0.000000:
0000
0000
0000
0000
,
1000
1000
0001
0001
,
1000
0001
1000
0000
0001
0000
0001
0000
,
0100
0010
0100
0000
0010
0100
0010
0000
,
0100
0010
0100
0000
0010
0000
0010
0000
,
1000
1000
0100
0100
,
1000
1000
0001
0001
,
0010
0100
0010
0000
1000
0001
1000
0000
,
0100
1000
0100
0000
0010
0100
0010
0000
,
0001
0000
1000
0000
1000
0100
1000
0000
,
0010
0000
0010
0000
0010
1000
0010
0000
,
0001
0000
0001
0000
1000
0001
1000
0000
,
0100
0000
0010
0010
,
0001
0000
0001
0000
1000
0100
1000
0000
,
0001
1000
0001
0000
0010
0000
0010
0000
,
0100
0100
0001
0001
,
0010
0010
0010
0010
,
0000
0010
0010
0010
,
0010
1000
1000
0001
,
0001
1000
1000
0010
,
0010
0100
0100
0200
,
0000
0310
0010
0001
,
0001
1000
1000
1000
,
1000
0100
0100
0010
,
0010
0001
0001
0002
,
0000
1003
1000
1000
,
0010
0000
1000
0100
1000
0000
0001
0010
,
0001
0000
0010
1000
0010
0000
0100
1000
,
0100
0001
0001
0001
,
0000
0000
0010
1000
0010
0000
0001
0100
,
0001
0010
0010
1000
,
1000
0000
0001
1000
0001
0000
0010
0100
,
0010
1000
1000
1000
,
0000
0001
0001
0010
,
0010
0100
0100
0001
,
0000
0010
0010
1000
,
1000
0100
0100
0100
,
0000
1001
0000
0000
,
0010
0010
0001
0001
,
1000
0100
1000
0000
0100
1000
0100
0000
,
0001
0010
0010
0100
,
0100
0001
0001
1000
,
0000
0010
0000
0010
,
0000
0010
0100
0010
,
0000
0000
0001
1000
0001
0000
0001
1000
,
0001
0010
0010
0010
,
0000
0100
1000
0100
,
0100
0010
0001
0010
,
0010
0100
0001
0100
,
0100
0001
1000
0001
,
0001
0000
0001
0000
1000
0001
1000
0000
,
0010
0100
0010
0000
0010
0000
0010
0000
,
1000
0100
1000
0000
0010
1000
0010
0000
,
0100
1000
0001
0000
0001
0000
0001
0000
,
0000
0010
0000
0010
,
0000
0000
0010
0100
0010
0100
0010
0000
,
0010
0001
0001
1000
,
1000
0010
0010
0100
,
0100
0010
0010
1000
,
1000
1001
0010
1001
;

//---------------dance-single - Copied from Copied f----------------
#NOTES:
     dance-single:
     Copied from Copied f:
     Beginner:
     3:
     0.142464,0.150216,0.016761,0.000000,0.000000,119.000000,117.000000,2.000000,0.000000,0.000000,0.000000,0.142464,0.150216,0.016761,0.000000,0.000000,119.000000,117.000000,2.000000,0.000000,0.000000,0.000000:
0000
0000
0000
0000
,
1000
1000
0000
0001
,
0000
1000
0000
1000
,
0000
0100
0000
0010
,
0000
0001
0000
0010
,
0000
0100
0000
0100
,
0000
0010
0000
0010
,
0000
1000
0000
1000
,
0000
1000
0000
0001
,
0000
0100
0000
0100
,
0000
0010
0000
0010
,
0000
1000
0000
1000
,
0000
0000
0000
0100
,
0000
0100
0000
0010
,
0000
0010
0000
1000
,
0000
1000
0000
0001
,
0000
0000
0000
0000
,
0000
0001
0000
0001
,
0000
0010
0000
0010
,
0000
1000
0000
1000
,
0000
0100
0000
0100
,
0000
0010
0000
0010
,
0000
0001
0000
0001
,
0000
1000
0000
1000
,
0000
0100
0000
0100
,
0000
0010
0000
0010
,
0000
1000
0000
1000
,
0000
0100
0000
0100
,
0000
0010
0000
0010
,
0000
1000
0000
1000
,
0000
0100
0000
0010
,
0000
0001
0000
0001
,
0000
0100
0000
0010
,
0000
1000
0000
1000
,
0000
0100
0000
0100
,
0000
0010
0000
0010
,
0000
0100
0000
0100
,
0000
0110
0000
0000
,
0000
0001
0000
0001
,
0000
1000
0000
1000
,
0000
0100
0000
0100
,
0000
0100
0000
0100
,
0000
0010
0000
0010
,
0000
1000
0000
0100
,
0000
1000
0000
1000
,
0000
1000
0000
0001
,
0000
0100
0000
0100
,
0000
0010
0000
0010
,
0000
1000
0000
1000
,
0000
0100
0000
0100
,
0000
0010
0000
0010
,
0000
0010
0000
0010
,
0000
1000
0000
0100
,
0000
0010
0010
0010
,
0000
0100
0000
0100
,
0000
1000
1000
1000
,
0000
0010
0000
0001
,
0000
0010
0000
0010
,
0000
1000
0000
0100
,
0000
1000
0000
1100
;
