#VERSION:0.83;
#TITLE:The Way i are (Dance with Somebody);
#SUBTITLE:;
#ARTIST:Bebe Rexha;
#TITLETRANSLIT:;
#SUBTITLETRANSLIT:;
#ARTISTTRANSLIT:;
#GENRE:;
#ORIGIN:;
#CREDIT:;
#BANNER:PV.avi;
#BACKGROUND:The Way i Are-bg.png;
#PREVIEWVID:;
#JACKET:;
#CDIMAGE:;
#DISCIMAGE:The Way i Are-bn.png;
#LYRICSPATH:;
#CDTITLE:;
#MUSIC:The way i are - Bebe Rexha.mp3;
#OFFSET:-0.420000;
#SAMPLESTART:40.060001;
#SAMPLELENGTH:10.500000;
#SELECTABLE:YES;
#BPMS:0.000=93.000;
#STOPS:27.500=2.560,
121.000=1.280;
#DELAYS:;
#WARPS:;
#TIMESIGNATURES:0.000=4=4;
#TICKCOUNTS:0.000=4;
#COMBOS:0.000=1;
#SPEEDS:0.000=1.000=0.000=0;
#SCROLLS:0.000=1.000;
#FAKES:;
#LABELS:0.000=Song Start;
#BGCHANGES:0.000=Dance With Somebody.avi=1.800=1=1=1=StretchRewind==CrossFade==,
1.000=Dance With Somebody.avi=1.000=0=0=1=====,
86.500=Dance With Somebody.avi=0.800=0=0=1=====,
89.500=Dance With Somebody.avi=1.000=0=0=1=====,
99999=-nosongbg-=1.000=0=0=0 // don't automatically add -songbackground-
;
#KEYSOUNDS:;
#ATTACKS:
;

//---------------dance-single - ----------------
#NOTEDATA:;
#CHARTNAME:;
#STEPSTYPE:dance-single;
#DESCRIPTION:;
#CHARTSTYLE:;
#DIFFICULTY:Challenge;
#METER:15;
#RADARVALUES:0.548753,0.605655,1.373016,0.380952,0.468254,484.000000,311.000000,173.000000,48.000000,0.000000,40.000000,0.000000,0.000000,0.000000,0.548753,0.605655,1.373016,0.380952,0.468254,484.000000,311.000000,173.000000,48.000000,0.000000,40.000000,0.000000,0.000000,0.000000;
#CREDIT:;
#NOTES:
0000
0000
0000
0000
,
0000
0000
0000
0000
,
0002
0000
0000
0000
,
0000
0000
0000
0000
,
0203
0000
0000
0000
,
0000
0000
0000
0000
,
0320
0000
0000
0000
0000
0000
0000
0000
0000
0000
0000
0000
0000
0030
0000
0000
,
2100
0000
0000
0000
3110
0000
0000
1100
0000
0000
1100
0000
0110
0000
0000
0000
,
2100
0000
0000
0000
3110
0000
0000
0101
0000
0000
0101
0000
0110
0000
1100
0000
,
2010
0000
0000
0000
3101
0000
0000
0110
0000
0000
0110
0000
0101
0000
0000
0000
,
2100
0000
0000
0000
3110
0000
0000
1001
0000
0000
1001
0000
0110
0000
0101
0000
,
0210
0000
0000
0000
1310
0000
0000
0101
0000
0000
0101
0000
0110
0000
0000
0000
,
0012
0000
0000
0000
0113
0000
0000
1100
0000
0000
1100
0000
0110
0000
0000
0000
,
0021
0000
0000
0000
0131
0000
0000
0110
0000
0000
0110
0000
1100
0000
0000
0000
,
0210
0000
0000
0000
1301
0000
1000
0010
0100
0001
1000
0000
0010
0000
0100
0000
,
2001
0000
0000
0000
0000
0000
0001
0100
3010
0000
0000
0000
0000
0000
0110
0000
0000
0000
0000
0000
0110
0000
0000
0000
1001
0000
0000
0000
0000
0000
0000
0000
,
0110
0000
0000
0000
0000
0000
0010
1000
0101
0000
0000
0000
0000
0000
1100
0000
0000
0000
0000
0000
1100
0000
0000
0000
0110
0000
0000
0000
0101
0000
0000
0000
,
0110
0000
0000
0000
0000
0010
0100
0000
1001
0000
0000
0000
0000
0000
1100
0000
0000
0000
0000
0000
1100
0000
0000
0000
0011
0000
0000
0000
0000
0000
0000
0000
,
0110
0000
0000
0000
0000
0000
0001
0010
1100
0000
0000
0000
0000
0000
0110
0000
0000
0000
0000
0000
0110
0000
0000
0000
0101
0000
0000
0000
0000
0000
0000
0000
,
0110
0000
0000
0000
0000
0000
0001
0010
1100
0000
0000
0000
0000
0000
0110
0000
0000
0000
0000
0000
0110
0000
0000
0000
0101
0000
0000
0000
0000
0000
0000
0000
,
1001
0000
0000
0000
0000
0000
0001
1000
0110
0000
0000
0000
0000
0000
0101
0000
0000
0000
0000
0000
0101
0000
0000
0000
0110
0000
0000
0000
0000
0000
0000
0000
,
1100
0000
0000
0000
0000
0000
0001
1000
0110
0000
0000
0000
1000
0000
0010
0000
0100
0000
0001
0000
1000
0000
0000
0000
0110
0000
0000
0000
0101
0000
0000
0000
,
0110
0000
0000
0000
0000
0000
0010
0100
1001
0000
0000
0000
0000
0000
0110
0000
0000
0000
0000
0000
0110
0000
0000
0000
0011
0000
0000
0000
1100
0000
0000
0000
,
0011
0000
0000
0000
0000
0000
0000
0000
0001
0010
1000
0000
0100
0000
0000
0010
0000
0000
0000
0000
0000
0010
0000
0000
0000
0000
0000
0010
0000
0000
0100
0000
0000
0000
0000
0000
0110
0000
0000
0000
0000
0000
0000
0000
0000
0000
0000
0000
,
0110
0000
0000
0000
1000
0010
0000
0010
0000
0010
0100
0000
0101
0000
0000
0000
,
0110
0000
0000
0000
0000
0000
0000
0000
0000
0001
0010
0100
1000
0000
0000
0010
0000
0000
0000
0000
0000
0010
0000
0000
0000
0000
0000
0010
0000
0000
0100
0000
0000
0000
0000
0000
0101
0000
0000
0000
0000
0000
0000
0000
0000
0000
0000
0000
,
0110
0000
0000
0000
1001
0000
1100
0011
0000
1100
0011
0000
0110
0000
1000
1000
,
0011
0000
0000
0000
0000
0000
0000
0000
0000
0001
0010
0100
1000
0000
0000
0010
0000
0000
0000
0000
0000
0010
0000
0000
0000
0000
0000
0010
0000
0000
0100
0000
0000
0000
0000
0000
0101
0000
0000
0000
0000
0000
0000
0000
0000
0000
0000
0000
,
0110
0000
0000
0000
0001
1000
0000
1000
0000
1000
0000
0000
0101
0000
0000
0000
,
0110
0000
0000
0000
0000
0000
0000
0000
0000
0100
1000
0001
0010
0000
0000
0100
0000
0000
0000
0000
0000
0100
0000
0000
0000
0000
0000
0100
0000
0000
0010
0000
0000
0000
0000
0000
1001
0000
0000
0000
0000
0000
0000
0000
0000
0000
0000
0000
,
1010
0000
0000
0000
0000
0000
0000
0000
0000
0000
0000
0000
0000
0000
0000
0000
2001
0000
0000
0000
0000
0000
0001
0100
3010
0000
0000
0000
0000
0000
0110
0000
,
0000
0000
0000
0000
0110
0000
0000
0000
1001
0000
0000
0000
0000
0000
0000
0000
0110
0000
0000
0000
0000
0000
0010
1000
0101
0000
0000
0000
0000
0000
1100
0000
,
0000
0000
0000
0000
1100
0000
0000
0000
0110
0000
0000
0000
0101
0000
0000
0000
0110
0000
0000
0000
0000
0010
0100
0000
1001
0000
0000
0000
0000
0000
1100
0000
,
0000
0000
0000
0000
1100
0000
0000
0000
0011
0000
0000
0000
0000
0000
0000
0000
0110
0000
0000
0000
0000
0000
0001
0010
1100
0000
0000
0000
0000
0000
0110
0000
,
0000
0000
0000
0000
0110
0000
0000
0000
0101
0000
0000
0000
2000
0000
0000
0000
0110
0000
3000
0000
0020
0000
2030
0100
3011
0000
0000
0000
0002
0000
0110
0000
,
2003
0000
0000
0000
3020
0000
0000
0000
2030
0000
0000
0000
3200
0000
0000
0000
1301
0000
0000
0000
0200
0000
0302
1000
0113
0000
0000
0000
2000
0000
0201
0000
,
3020
0000
0302
0000
0130
0000
0003
0000
0020
0000
0000
0000
0230
0000
0000
0000
0320
0000
0000
0000
0030
0000
0002
1000
0110
0000
0003
0000
1000
0000
0010
0000
,
0100
0000
0001
0000
1000
0000
0000
0000
2010
0000
0000
0000
3201
0000
0000
0000
2310
0000
0000
0000
0000
0000
3010
0100
0011
0000
0000
0000
2000
0000
0110
0000
,
3002
0000
0000
0000
0110
0000
0000
0000
2013
0000
0000
0000
0110
0000
3000
0000
0102
0000
0000
0000
0000
0000
1003
0100
2010
0000
0000
0000
0000
0000
0101
0000
,
0000
0000
0000
0000
0101
0000
0000
0000
0110
0000
0000
0000
0000
0000
0000
0000
0101
0000
0000
0000
3000
0000
0010
0100
1001
0000
0000
0000
0200
0000
1001
0000
,
0320
0000
0000
0000
1001
0000
0000
0000
2130
0000
0000
0000
0000
0000
0000
0000
3012
0000
0000
0000
0000
0010
0100
0000
1010
0000
0103
0000
0020
0000
1100
0000
,
0000
0000
0000
0000
0100
0000
0030
0000
2100
0000
0000
0000
3002
0000
0000
0000
0110
0000
0003
0000
0000
0000
0100
0010
1001
0000
0000
0000
0000
0000
0110
0000
,
2000
0000
0000
0000
0011
0000
0000
0000
0110
0000
0000
0000
3002
0000
0000
0000
0110
0000
0000
0000
0000
0000
1000
0010
1100
0000
0000
0000
0000
0000
1100
0000
,
0000
0000
0003
0000
0110
0000
0000
0000
1010
0000
0000
0000
0000
0000
0000
0000
0101
0000
0000
0000
0000
0000
1000
0001
0110
0000
0000
0000
0000
0000
1010
0000
,
0000
0000
0000
0000
1010
0000
0000
0000
0110
0000
0000
0000
0000
0000
0000
0000
0101
0000
0000
0000
0000
0000
1000
0001
0110
0000
0000
0000
0000
0000
1100
0000
,
0000
0000
0000
0000
1100
0000
0000
0000
0110
0000
0000
0000
0000
0000
0000
0000
0101
0000
0000
0000
0000
0000
0001
0100
1010
0000
0000
0000
0000
0000
0110
0000
,
0000
0110
1001
0000
0000
0000
0000
0000
;

//---------------dance-single - Copied from----------------
#NOTEDATA:;
#CHARTNAME:Copied from;
#STEPSTYPE:dance-single;
#DESCRIPTION:Copied from;
#CHARTSTYLE:;
#DIFFICULTY:Hard;
#METER:9;
#RADARVALUES:0.360544,0.422123,0.134921,0.261905,0.329365,318.000000,301.000000,17.000000,33.000000,0.000000,0.000000,0.000000,0.000000,0.000000,0.360544,0.422123,0.134921,0.261905,0.329365,318.000000,301.000000,17.000000,33.000000,0.000000,0.000000,0.000000,0.000000,0.000000;
#CREDIT:Copied from;
#NOTES:
// measure 0
0000
0000
0000
0000
,  // measure 1
0000
0000
0000
0000
,  // measure 2
0002
0000
0000
0000
,  // measure 3
0000
0000
0000
0000
,  // measure 4
0203
0000
0000
0000
,  // measure 5
0000
0000
0000
0000
,  // measure 6
0320
0000
0000
0000
0000
0000
0000
0000
0000
0000
0000
0000
0000
0030
0000
0000
,  // measure 7
2010
0000
0000
3000
0010
0000
0100
0000
0001
0000
0000
0100
0000
0000
0020
0000
,  // measure 8
0130
0000
0000
0000
1000
0000
0100
0000
0010
0000
0000
0100
0000
0000
0020
0000
,  // measure 9
0031
0000
0000
0000
0010
0000
0100
0000
0010
0000
0000
1000
0000
0000
0002
0000
,  // measure 10
0010
0000
0000
0000
0013
0000
0000
1000
0000
0000
0100
0000
0000
0000
0100
0000
,  // measure 11
0010
0000
0000
0000
0000
0000
0000
0000
0000
0000
0000
0000
0000
0000
0000
0000
0000
0000
0000
0000
0000
0000
0000
0000
0000
0000
0000
0000
0000
0000
0000
0000
0000
0000
0000
0000
1000
0000
0000
0000
0000
0000
0000
0000
0000
0000
0000
0000
0001
0000
0000
0000
0000
0000
0000
0000
0000
0000
0000
0000
0000
0000
0000
0000
0100
0000
0000
0000
0000
0000
0000
0000
0000
0000
0000
0000
0000
0000
0000
0000
0000
0000
0000
0000
0010
0000
0000
0000
0000
0000
0000
0000
0000
0000
0000
0000
0000
0000
0000
0000
0000
0000
1000
0000
0000
0000
0000
0000
0000
0000
0000
0000
0000
0000
0000
0000
0000
0000
0000
0000
0001
0000
0000
0000
0000
0000
0000
0000
0000
0000
0000
0000
0000
0000
0000
0000
0000
0000
0100
0000
0000
0000
0000
0000
0000
0000
0000
0000
0000
0000
0000
0000
0000
0000
0000
0000
0010
0000
0000
0000
0000
0000
0000
0000
0000
0000
0000
0000
0000
0000
0000
0000
0000
0000
0000
0000
0000
0000
0000
0000
0000
0000
0000
0000
0000
0000
0000
0000
0000
0000
0000
0000
,  // measure 12
0000
0000
0000
0000
0000
0000
1000
0100
0010
0001
0010
0000
0100
0000
0010
0000
,  // measure 13
0200
0000
0000
0310
0000
0000
1000
0100
0010
0001
0010
0000
0100
0000
0010
0000
,  // measure 14
0200
0000
0000
0310
0000
0000
1000
0100
0010
0001
0010
0000
0100
0000
0010
0000
,  // measure 15
0200
0000
0000
0310
0000
0000
0001
0010
0100
1000
0100
0000
0010
0000
0100
0000
,  // measure 16
0020
0000
0000
0130
0000
0000
0000
0000
1000
0100
0010
0000
0100
0000
0010
0000
,  // measure 17
0200
0000
0000
0310
0000
0000
0000
0000
0001
0010
0100
1000
0100
0000
1000
0000
,  // measure 18
0200
0000
0000
0000
0310
0000
0000
1000
0000
0000
1000
0000
0010
0000
0200
0000
,  // measure 19
0000
0000
0301
0100
0000
0000
1000
0000
0100
0000
0010
0000
0100
0000
0020
0000
,  // measure 20
0000
0000
0130
0010
0000
0000
1000
0100
0010
0001
0010
0000
0100
0000
0010
0000
,  // measure 21
2000
0000
0000
3010
0000
0000
1000
0100
0010
0001
0010
0000
0100
0000
0001
0000
,  // measure 22
0200
0000
0000
0301
0000
0000
0000
1000
0000
0000
1000
0000
0000
0000
0001
0000
,  // measure 23
0100
0000
1000
0100
0010
0000
0010
0000
0100
0000
0010
0000
1001
0000
0000
0000
,  // measure 24
1001
0000
0001
0010
0100
0000
0100
0000
0010
0000
0100
0000
0110
0000
0000
0000
,  // measure 25
1001
0000
1000
0100
0010
0000
0010
0000
0100
0000
0010
0000
0110
0000
0000
0000
,  // measure 26
1001
0000
0001
0010
0100
0000
1000
0100
0000
0100
0010
0000
0110
0000
0000
0000
,  // measure 27
1001
0000
0000
0000
1000
0100
0000
0100
0000
0100
0000
0000
0110
0000
0000
0000
,  // measure 28
1001
0000
0000
0000
0100
0000
1000
0100
0010
0001
0010
0000
0110
0000
0000
0000
,  // measure 29
1001
0000
0000
0000
0010
0000
1000
0100
0010
0001
0010
0000
1001
0000
0000
0000
,  // measure 30
0110
0000
0000
0000
0000
0000
0000
0000
2010
0000
0000
0000
3010
0000
0010
0100
,  // measure 31
0010
0100
0010
0000
0100
0000
0001
0000
2000
0000
0000
3100
0000
0000
0000
0000
,  // measure 32
1000
0100
0010
0000
0001
0000
0010
0000
0200
0000
0000
0310
0000
0000
0000
0000
,  // measure 33
0001
0010
0100
0010
0100
0000
0010
0000
0200
0000
0000
0000
0301
0000
0000
0000
,  // measure 34
1000
0000
0100
0000
0010
0000
0002
0000
0000
0000
0013
0001
0000
0000
0001
0000
,  // measure 35
0100
0000
0010
0000
0100
0000
0002
0000
0000
0000
1003
0001
0000
0000
1000
0100
,  // measure 36
0010
0001
0010
0000
0100
0000
0010
0000
0200
0000
0000
0310
0000
0000
0001
0010
,  // measure 37
0100
1000
0100
0000
0010
0000
0100
0000
0020
0000
0000
0130
0000
0000
1000
0100
,  // measure 38
0010
0001
0010
0000
0100
0000
0010
0000
0200
0000
0000
0310
0000
0000
0001
0010
,  // measure 39
0100
1000
0100
0000
0010
0000
0100
0000
0020
0000
0000
0130
0000
0000
0100
0000
,  // measure 40
1000
0100
0010
0000
0100
0000
0010
0000
0002
0000
0000
0013
0000
0000
0000
0000
,  // measure 41
1000
0100
0010
0001
0010
0000
0100
0000
0020
0000
0000
0000
0130
0000
0000
0000
,  // measure 42
1000
0000
0100
0000
0010
0000
2000
0000
0000
0000
3001
0100
0000
0000
1000
0000
,  // measure 43
0010
0000
0100
0000
0001
0000
0200
0000
0000
0000
0310
0100
0000
0000
1000
0100
,  // measure 44
0010
0001
0010
0000
0100
0000
0001
0000
0020
0000
0000
0031
0000
0000
0001
0010
,  // measure 45
0100
1000
0100
0000
0010
0000
0100
0000
0020
0000
0000
0130
0000
0000
0000
1000
,  // measure 46
0000
1000
1001
0000
0000
0000
0000
0000
;

//---------------dance-single - Copied from Copied f----------------
#NOTEDATA:;
#CHARTNAME:Copied from Copied f;
#STEPSTYPE:dance-single;
#DESCRIPTION:Copied from Copied f;
#CHARTSTYLE:;
#DIFFICULTY:Medium;
#METER:6;
#RADARVALUES:0.214286,0.220238,0.007937,0.055556,0.087302,189.000000,188.000000,1.000000,7.000000,0.000000,0.000000,0.000000,0.000000,0.000000,0.214286,0.220238,0.007937,0.055556,0.087302,189.000000,188.000000,1.000000,7.000000,0.000000,0.000000,0.000000,0.000000,0.000000;
#CREDIT:Copied from Copied f;
#NOTES:
0000
0000
0000
0000
,
0000
0000
0000
0000
,
0002
0000
0000
0000
,
0000
0000
0000
0000
,
0203
0000
0000
0000
,
0000
0000
0000
0000
,
0320
0000
0000
0000
0000
0000
0000
0000
0000
0000
0000
0000
0000
0030
0000
0000
,
0100
0000
0000
0000
0010
0000
0000
1000
0000
0000
1000
0000
0001
0000
0000
0000
,
0100
0000
0000
0000
0010
0000
0000
0100
0000
0000
0100
0000
0010
0000
0000
0000
,
1000
0000
0000
0000
0001
0000
0000
1000
0000
0000
1000
0000
0001
0000
0000
0000
,
0200
0000
0000
0300
,
1000
0000
0000
0000
0010
0000
0000
0100
0000
0000
0100
0000
0001
0000
0000
0000
,
1000
0000
0000
0000
0001
0000
0000
1000
0000
0000
1000
0000
0001
0000
0000
0000
,
0100
0000
0000
0000
0010
0000
0000
0100
0000
0000
0100
0000
0010
0000
0000
0000
,
0200
0000
0000
0000
,
0310
0000
0000
0000
1000
0000
0000
0001
0000
0000
0001
0000
1000
0000
0000
0000
,
0100
0000
0000
0000
1000
0000
0000
0100
0000
0000
0100
0000
0010
0000
0000
0000
,
0100
0000
0000
0000
0010
0000
0000
0100
0000
0000
0100
0000
0010
0000
0000
0000
,
2000
0000
0000
0000
3001
0000
0000
0100
0000
0000
0100
0000
0010
0000
0000
0000
,
0001
0000
0000
0000
1000
0000
0000
0001
0000
0000
0001
0000
1000
0000
0000
0000
,
0010
0000
0000
0000
0100
0000
0000
0010
0000
0000
0010
0000
0100
0000
0000
0000
,
0100
0000
0000
0000
0010
0000
0000
0100
0000
0000
0100
0000
0010
0000
0000
0000
,
2000
0000
0000
3001
0000
0000
0000
0000
0000
0000
0000
0000
0000
0000
0000
0000
,
0010
0000
0010
0000
0010
0100
0010
0000
,
0001
0000
1000
0000
1000
0001
1000
0000
,
0100
0000
0100
0000
0010
0100
0010
0000
,
1000
0000
1000
0000
1000
0001
1000
0000
,
0100
0000
0100
0000
0010
0100
0010
0000
,
1000
0000
1000
0000
0001
1000
0001
0000
,
0100
0000
0100
0000
0010
0100
0010
0000
,
1010
0000
0100
0010
,
0100
0100
0010
0000
1000
0000
0001
0000
,
1000
1000
0001
0000
0100
0000
0010
0000
,
0100
0100
0010
0000
1000
0000
0001
0000
,
1000
1000
0001
0000
0001
0000
1000
0000
,
0001
0001
1000
0000
0100
0000
0010
0000
,
0100
0100
0010
0000
1000
0000
0001
0000
,
1000
1000
0001
0000
0100
0000
0001
0000
,
0100
0000
0100
0000
0001
0000
0000
0000
1000
0000
0000
0000
0001
0000
0000
0100
,
0000
0000
0100
0000
0010
0000
0000
0000
1000
0000
0000
0000
0001
0000
0000
1000
,
0000
0000
1000
0000
0001
0000
0000
0000
0100
0000
0000
0000
0010
0000
0000
1000
,
0000
0000
1000
0000
0001
0000
0000
0000
0100
0000
0000
0000
0010
0000
0000
0100
,
0000
0000
0100
0000
0010
0000
0000
0000
1000
0000
0000
0000
0001
0000
0000
0100
,
0000
0000
0100
0000
0001
0000
0000
0000
1000
0000
0000
0000
0001
0000
0000
1000
,
0000
0000
1000
0000
0001
0000
0000
0000
0100
0000
0000
0000
0010
0000
0000
0100
,
0000
0000
0100
0000
0010
0000
0000
0000
1000
0000
0000
0000
0001
0000
0000
1000
,
0000
1000
0001
0000
0000
0000
0000
0000
;

//---------------dance-single - Copied from Copied f----------------
#NOTEDATA:;
#CHARTNAME:Copied from Copied f;
#STEPSTYPE:dance-single;
#DESCRIPTION:Copied from Copied f;
#CHARTSTYLE:;
#DIFFICULTY:Easy;
#METER:3;
#RADARVALUES:0.178005,0.183532,0.119048,0.023810,0.000000,157.000000,142.000000,15.000000,3.000000,0.000000,0.000000,0.000000,0.000000,0.000000,0.178005,0.183532,0.119048,0.023810,0.000000,157.000000,142.000000,15.000000,3.000000,0.000000,0.000000,0.000000,0.000000,0.000000;
#CREDIT:Copied from Copied f;
#NOTES:
0000
0000
0000
0000
,
0000
0000
0000
0000
,
0002
0000
0000
0000
,
0000
0000
0000
0000
,
0203
0000
0000
0000
,
0000
0000
0000
0000
,
0320
0000
0000
0000
0000
0000
0000
0000
0000
0000
0000
0000
0000
0030
0000
0000
,
0100
1000
0100
0010
,
1000
0010
0100
0010
,
1000
0010
0001
0010
,
0100
0010
1000
0010
,
0100
0010
1000
0010
,
0001
0010
0100
0010
,
1000
0010
0100
0010
,
0001
0010
0100
0010
,
1000
0010
1000
0010
,
0100
0001
0100
0010
,
1000
0001
1000
0010
,
0100
0001
1000
0010
,
0100
0001
1000
0010
,
0100
0001
1000
0010
,
0100
0001
1000
0010
,
0100
0001
1000
0010
,
0100
0000
0000
0110
,
0110
0000
0000
1001
,
1001
0000
0000
0110
,
0110
0000
0000
1100
,
1100
0000
0000
0011
,
0011
0000
0000
0110
,
0110
0000
0000
1001
,
1001
0000
0000
0010
,
0010
0010
0000
0100
,
0100
0100
0000
0010
,
0010
0010
0000
1000
,
1000
1000
0001
0001
,
1000
1000
0100
0100
,
0010
0010
0100
0100
,
0001
0001
1000
1000
,
0010
0010
0100
0100
,
0010
0010
1000
1000
,
0001
0001
0100
0100
,
0010
0010
1000
1000
,
0001
0001
0100
0100
,
0010
0010
1000
1000
,
0010
0010
0100
0001
,
0100
0001
0100
0010
,
0100
1001
0000
0000
;

//---------------dance-single - Copied from Copied f----------------
#NOTEDATA:;
#CHARTNAME:Copied from Copied f;
#STEPSTYPE:dance-single;
#DESCRIPTION:Copied from Copied f;
#CHARTSTYLE:;
#DIFFICULTY:Beginner;
#METER:1;
#RADARVALUES:0.092971,0.110119,0.000000,0.023810,0.000000,82.000000,82.000000,0.000000,3.000000,0.000000,0.000000,0.000000,0.000000,0.000000,0.092971,0.110119,0.000000,0.023810,0.000000,82.000000,82.000000,0.000000,3.000000,0.000000,0.000000,0.000000,0.000000,0.000000;
#CREDIT:Copied from Copied f;
#NOTES:
0000
0000
0000
0000
,
0000
0000
0000
0000
,
0002
0000
0000
0000
,
0000
0000
0000
0000
,
0203
0000
0000
0000
,
0000
0000
0000
0000
,
0320
0000
0000
0000
0000
0000
0000
0000
0000
0000
0000
0000
0000
0030
0000
0000
,
0000
1000
0000
1000
,
0000
0001
0000
0001
,
0000
0100
0000
0100
,
0000
0010
0000
0010
,
0000
0100
0000
0100
,
0000
0010
0000
0010
,
0000
0001
0000
0001
,
0000
1000
0000
1000
,
0000
0001
0000
0001
,
0000
1000
0000
1000
,
0000
0100
0000
0100
,
0000
0010
0000
0010
,
0000
0001
0000
0001
,
0000
1000
0000
1000
,
0000
0100
0000
0100
,
0000
0010
0000
0010
,
0000
0000
0000
1000
,
1000
0000
0000
0001
,
0001
0000
0000
0100
,
0100
0000
0000
0100
,
0100
0000
0000
0100
,
0010
0000
0000
0100
,
0010
0000
0000
0100
,
0010
0000
0001
1000
,
0000
1000
0000
1000
,
0000
0001
0000
0100
,
0000
1000
0000
0001
,
0000
0100
0000
0001
,
0000
1000
0000
0100
,
0000
0010
0000
0001
,
0000
1000
0000
0001
,
0000
0100
0000
0010
,
0000
1000
0000
0001
,
0000
0100
0000
0010
,
0000
0100
0000
0001
,
0000
0100
0000
0010
,
0000
0100
0000
0010
,
0000
0100
0000
0001
,
0000
1000
0000
0001
,
0000
1000
0000
0000
;
