#VERSION:0.83;
#TITLE:The Night Is Still Young;
#SUBTITLE:;
#ARTIST:Nicki Minaj;
#TITLETRANSLIT:;
#SUBTITLETRANSLIT:;
#ARTISTTRANSLIT:;
#GENRE:;
#ORIGIN:;
#CREDIT:;
#BANNER:PV.avi;
#BACKGROUND:TheNightIsStillYoung-BG.png;
#PREVIEWVID:;
#JACKET:;
#CDIMAGE:;
#DISCIMAGE:TheNightIsStillYoung-bn.png;
#LYRICSPATH:;
#CDTITLE:;
#MUSIC:Nicki Minaj - The Night Is Still Young.mp3;
#OFFSET:-0.104000;
#SAMPLESTART:44.400002;
#SAMPLELENGTH:16.400000;
#SELECTABLE:YES;
#BPMS:0.000=128.000,
160.000=64.000,
192.000=128.000;
#STOPS:;
#DELAYS:;
#WARPS:;
#TIMESIGNATURES:0.000=4=4;
#TICKCOUNTS:0.000=4;
#COMBOS:0.000=1;
#SPEEDS:0.000=1.000=0.000=0;
#SCROLLS:0.000=1.000;
#FAKES:;
#LABELS:0.000=Song Start;
#BGCHANGES:0.000=MV.avi=1.000=1=1=1=StretchRewind==CrossFade==,
99999=-nosongbg-=1.000=0=0=0 // don't automatically add -songbackground-
;
#KEYSOUNDS:;
#ATTACKS:
;

//---------------dance-single - Copied from----------------
#NOTEDATA:;
#CHARTNAME:Copied from;
#STEPSTYPE:dance-single;
#DESCRIPTION:Copied from;
#CHARTSTYLE:;
#DIFFICULTY:Hard;
#METER:9;
#RADARVALUES:0.333900,0.490148,0.437428,0.613705,0.052230,358.000000,291.000000,67.000000,94.000000,0.000000,0.000000,0.000000,0.000000,0.000000,0.333900,0.490148,0.437428,0.613705,0.052230,358.000000,291.000000,67.000000,94.000000,0.000000,0.000000,0.000000,0.000000,0.000000;
#CREDIT:Copied from;
#NOTES:
// measure 0
0000
0000
0000
0000
,  // measure 1
0000
0000
0000
0000
,  // measure 2
0000
0000
0000
0000
,  // measure 3
0000
0000
0000
0000
,  // measure 4
0000
0000
0000
0000
,  // measure 5
0000
0000
0000
0000
,  // measure 6
0000
0000
0000
0000
,  // measure 7
0000
0000
0000
0000
,  // measure 8
1000
0100
1000
0010
0100
0001
0020
0000
,  // measure 9
0031
1000
0010
0100
0001
0010
0200
0000
,  // measure 10
1300
0010
0100
0001
0010
0100
2000
0000
,  // measure 11
3010
0100
0001
1000
0010
0100
0002
0000
,  // measure 12
0013
0100
0010
0001
1000
0010
0200
0000
,  // measure 13
0310
1000
0001
0010
0100
1000
0002
0000
,  // measure 14
0103
0010
1000
0001
0100
0010
2000
0000
,  // measure 15
3010
0100
0020
0000
0130
0000
0010
0000
,  // measure 16
1100
0110
0011
1001
,  // measure 17
0110
0000
1000
0100
0010
0001
1000
0000
,  // measure 18
0011
0110
1100
0110
,  // measure 19
1001
0000
0011
0100
0010
0001
1000
0010
,  // measure 20
1010
0110
0011
1100
,  // measure 21
1001
0000
0110
0001
0010
0100
1000
0001
,  // measure 22
0011
0110
1100
0110
,  // measure 23
1001
0110
1001
0020
,  // measure 24
2030
3200
0302
0023
,  // measure 25
0130
0000
1001
0200
,  // measure 26
0320
0032
2003
3020
,  // measure 27
1030
0000
0000
0000
0000
0000
0100
1000
0100
0020
0000
0000
,  // measure 28
2030
3020
0230
0302
,  // measure 29
0003
0000
2000
0000
0000
3000
0000
0000
,  // measure 30
0220
0330
2200
3300
,  // measure 31
2002
0000
0000
3003
0000
0000
1000
0100
0010
0200
0000
0000
,  // measure 32
0320
2030
3002
0203
,  // measure 33
0310
0000
1100
0002
,  // measure 34
2003
0000
3020
0000
0230
0000
0320
0030
,  // measure 35
1100
0000
0000
0000
0000
0000
1000
0100
0010
0200
0000
0000
,  // measure 36
0320
2030
3002
0023
,  // measure 37
1030
0000
0110
0000
,  // measure 38
2200
3300
0220
0330
,  // measure 39
2002
3003
0110
0000
,  // measure 40
1001
1100
1001
0110
,  // measure 41
0011
1010
0110
1001
,  // measure 42
0011
0110
1010
1100
,  // measure 43
0011
0110
1001
1100
,  // measure 44
1000
0001
1000
0001
1000
0001
1000
0001
,  // measure 45
0100
0010
0100
0010
0100
0010
0100
0010
,  // measure 46
1000
0001
0100
0000
1000
0100
0010
0000
0001
1000
0010
0000
0001
0100
0010
0000
,  // measure 47
2000
0000
0100
0000
0010
0000
0001
0000
0100
0000
0010
0000
0001
3000
0010
0000
,  // measure 48
0200
0302
0023
2030
,  // measure 49
3100
0000
1001
0020
,  // measure 50
0230
2300
3002
0203
,  // measure 51
0301
0000
0000
0000
0000
0000
0010
0001
0010
0200
0000
0000
,  // measure 52
0302
0203
0320
2030
,  // measure 53
3000
0000
0002
0000
0000
0003
0000
0000
,  // measure 54
0220
0330
0022
0033
,  // measure 55
2002
0000
0000
3003
0000
0000
0001
0010
0100
0020
0000
0000
,  // measure 56
0230
0302
2003
3020
,  // measure 57
0130
0000
0011
2000
,  // measure 58
3002
0000
0203
0000
0320
0000
0230
0300
,  // measure 59
0011
0000
0000
0000
0000
0000
0001
0010
0100
0020
0000
0000
,  // measure 60
0230
0302
2003
3200
,  // measure 61
0301
0000
0110
0000
,  // measure 62
0022
0033
0220
0330
,  // measure 63
2002
3003
0110
0000
,  // measure 64
1001
0010
0100
0000
1000
0000
0100
0010
,  // measure 65
0001
0000
0000
0000
1001
0000
0010
0100
,  // measure 66
0000
0100
0010
0000
1000
0000
0010
0000
,  // measure 67
0100
0100
0100
0000
1010
0000
0001
0010
,  // measure 68
0000
0010
0100
0000
1000
0000
1000
0010
,  // measure 69
0100
0000
0000
0000
1001
0000
0010
0100
,  // measure 70
0000
0100
0010
0000
1000
0000
0001
0000
,  // measure 71
0100
0100
0100
0000
0011
0000
0000
0000
;

//---------------dance-single - Copied from Copied f----------------
#NOTEDATA:;
#CHARTNAME:Copied from Copied f;
#STEPSTYPE:dance-single;
#DESCRIPTION:Copied from Copied f;
#CHARTSTYLE:;
#DIFFICULTY:Medium;
#METER:4;
#RADARVALUES:0.177210,0.302364,0.182806,0.065288,0.000000,190.000000,162.000000,28.000000,10.000000,0.000000,0.000000,0.000000,0.000000,0.000000,0.177210,0.302364,0.182806,0.065288,0.000000,190.000000,162.000000,28.000000,10.000000,0.000000,0.000000,0.000000,0.000000,0.000000;
#CREDIT:Copied from Copied f;
#NOTES:
0000
0000
0000
0000
,
0000
0000
0000
0000
,
0000
0000
0000
0000
,
0000
0000
0000
0000
,
0000
0000
0000
0000
,
0000
0000
0000
0000
,
0000
0000
0000
0000
,
0000
0000
0000
0000
,
1000
0001
0100
0010
,
1000
0001
0100
0001
,
1000
0001
0100
0001
,
0010
1000
0001
0100
,
1000
0100
0010
0001
,
1000
0100
0010
0001
,
0100
0010
1000
0001
,
1000
0001
0100
0010
,
0011
0110
1100
0000
,
0000
0000
0000
0000
0000
0002
0000
0003
,
1100
0110
0011
0000
,
0000
0000
0000
0000
0000
2000
0000
3000
,
0011
0110
0110
0000
,
0000
0000
0000
0000
0000
0002
0000
0003
,
1100
0110
0011
0000
,
1001
0110
1001
0000
,
0010
0000
0001
0000
,
1000
0000
0100
0000
,
0010
0000
1000
0000
,
0001
0000
0002
0000
,
1003
0000
1000
0000
,
0100
0000
0010
0000
,
1001
0000
1001
0000
,
1001
0000
0002
0000
,
1003
0000
0100
0000
,
0010
0000
1000
0000
,
0001
0000
0100
0000
,
0010
0000
2000
0000
,
3001
0000
1000
0000
,
0010
0000
0100
0000
,
1001
0000
1001
0000
,
1001
0000
0010
0000
,
0110
1000
0100
0001
,
0010
0001
0010
0100
,
1000
0100
0001
1000
,
0100
0010
0001
1000
,
0001
0100
0010
1000
,
0001
0100
0010
1000
,
0001
0001
0100
0010
,
0200
0000
0000
0000
,
0310
0000
1000
0000
,
0001
0000
1000
0000
,
0010
0000
0100
0000
,
0001
0000
0200
0000
,
1300
0000
1000
0000
,
0100
0000
0010
0000
,
1001
0000
1001
0000
,
1001
0000
0200
0000
,
0310
0000
1000
0000
,
0001
0000
0100
0000
,
1000
0000
0001
0000
,
1000
0000
0200
0000
,
0310
0000
0001
0000
,
1000
0000
0001
0000
,
1001
0000
1001
0000
,
1001
0000
0001
0000
,
1000
0000
0010
0000
,
0100
0000
0010
0000
,
0001
0000
1000
0000
,
0100
0100
0100
0000
0001
0000
0000
0000
,
1000
0000
0010
0000
,
0001
0000
0100
0000
,
1000
0000
0010
0000
,
0001
0001
0001
0000
0000
0000
0000
0000
;

//---------------dance-single - Copied from Copied f----------------
#NOTEDATA:;
#CHARTNAME:Copied from Copied f;
#STEPSTYPE:dance-single;
#DESCRIPTION:Copied from Copied f;
#CHARTSTYLE:;
#DIFFICULTY:Easy;
#METER:3;
#RADARVALUES:0.114720,0.162811,0.000000,0.045701,0.000000,123.000000,123.000000,0.000000,7.000000,0.000000,0.000000,0.000000,0.000000,0.000000,0.114720,0.162811,0.000000,0.045701,0.000000,123.000000,123.000000,0.000000,7.000000,0.000000,0.000000,0.000000,0.000000,0.000000;
#CREDIT:Copied from Copied f;
#NOTES:
0000
0000
0000
0000
,
0000
0000
0000
0000
,
0000
0000
0000
0000
,
0000
0000
0000
0000
,
0000
0000
0000
0000
,
0000
0000
0000
0000
,
0000
0000
0000
0000
,
0000
0000
0000
0000
,
1000
0000
0100
0000
,
1000
0000
0100
0000
,
1000
0000
0100
0000
,
0010
0000
0001
0000
,
1000
0000
0010
0000
,
1000
0000
0010
0000
,
0100
0000
1000
0000
,
1000
0000
0100
0000
,
0001
0010
0100
0000
,
0000
0000
0000
0000
,
0100
0010
0001
0000
,
0000
0000
0000
0000
,
0001
0010
0010
0000
,
0000
0000
0000
0000
,
0100
0010
0001
0000
,
1000
0100
1000
0000
,
0010
0000
0001
0000
,
1000
0000
0100
0000
,
0010
0000
1000
0000
,
0001
0000
0002
0000
,
0003
0000
1000
0000
,
0100
0000
0010
0000
,
0001
0000
0001
0000
,
0001
0000
0002
0000
,
0003
0000
0100
0000
,
0010
0000
1000
0000
,
0001
0000
0100
0000
,
0010
0000
2000
0000
,
3000
0000
1000
0000
,
0010
0000
0100
0000
,
1000
0000
1000
0000
,
1000
0000
0010
0000
,
0100
0000
0100
0000
,
0010
0000
0010
0000
,
1000
0000
0001
0000
,
0100
0000
0001
0000
,
0001
0000
0010
0000
,
0001
0000
0010
0000
,
0001
0000
0100
0010
,
0200
0000
0000
0000
,
0300
0000
1000
0000
,
0001
0000
1000
0000
,
0010
0000
0100
0000
,
0001
0000
0200
0000
,
0300
0000
1000
0000
,
0100
0000
0010
0000
,
1000
0000
1000
0000
,
1000
0000
0200
0000
,
0300
0000
1000
0000
,
0001
0000
0100
0000
,
1000
0000
0001
0000
,
1000
0000
0200
0000
,
0300
0000
0001
0000
,
1000
0000
0001
0000
,
1000
0000
1000
0000
,
1000
0000
0001
0000
,
1000
0000
0010
0000
,
0100
0000
0010
0000
,
0001
0000
1000
0000
,
0100
0100
0100
0000
0001
0000
0000
0000
,
1000
0000
0010
0000
,
0001
0000
0100
0000
,
1000
0000
0010
0000
,
0001
0001
0001
0000
0000
0000
0000
0000
;

//---------------dance-single - Copied from Copied f----------------
#NOTEDATA:;
#CHARTNAME:Copied from Copied f;
#STEPSTYPE:dance-single;
#DESCRIPTION:Copied from Copied f;
#CHARTSTYLE:;
#DIFFICULTY:Beginner;
#METER:1;
#RADARVALUES:0.093268,0.139553,0.000000,0.045701,0.000000,100.000000,100.000000,0.000000,7.000000,0.000000,0.000000,0.000000,0.000000,0.000000,0.093268,0.139553,0.000000,0.045701,0.000000,100.000000,100.000000,0.000000,7.000000,0.000000,0.000000,0.000000,0.000000,0.000000;
#CREDIT:Copied from Copied f;
#NOTES:
0000
0000
0000
0000
,
0000
0000
0000
0000
,
0000
0000
0000
0000
,
0000
0000
0000
0000
,
0000
0000
0000
0000
,
0000
0000
0000
0000
,
0000
0000
0000
0000
,
0000
0000
0000
0000
,
1000
0000
0000
0000
,
1000
0000
0000
0000
,
1000
0000
0000
0000
,
0010
0000
0000
0000
,
1000
0000
0000
0000
,
1000
0000
0000
0000
,
0100
0000
0000
0000
,
1000
0000
0000
0000
,
0010
0100
1000
0000
,
0000
0000
0000
0000
,
0100
0010
0001
0000
,
0000
0000
0000
0000
,
0010
0100
0100
0000
,
0000
0000
0000
0000
,
1000
0100
0010
0000
,
1000
0000
0100
0000
,
0000
0000
0001
0000
,
0000
0000
0100
0000
,
0000
0000
1000
0000
,
0000
0000
0002
0000
,
1003
0000
1000
0000
,
0000
0000
0010
0000
,
0001
0000
0001
0000
,
0001
0000
0002
0000
,
1003
0000
0000
0000
,
0010
0000
0000
0000
,
0000
0000
0100
0000
,
0000
0000
2000
0000
,
3001
0000
1000
0000
,
0000
0000
0100
0000
,
1000
0000
1000
0000
,
1000
0000
0010
0000
,
0100
0000
0100
0000
,
0010
0000
0010
0000
,
1000
0000
0001
0000
,
0100
0000
0001
0000
,
0001
0000
0010
0000
,
0001
0000
0010
0000
,
0001
0000
0100
0010
,
0200
0000
0000
0000
,
0310
0000
1000
0000
,
0000
0000
1000
0000
,
0000
0000
0100
0000
,
0000
0000
0200
0000
,
1300
0000
1000
0000
,
0000
0000
0010
0000
,
1000
0000
0000
0000
,
1000
0000
0200
0000
,
0310
0000
1000
0000
,
0000
0000
0100
0000
,
0000
0000
0001
0000
,
1000
0000
0200
0000
,
0310
0000
0001
0000
,
0000
0000
0001
0000
,
1000
0000
1000
0000
,
1000
0000
0001
0000
,
1000
0000
0010
0000
,
0000
0000
0010
0000
,
0001
0000
1000
0000
,
0100
0100
0001
0000
,
1000
0000
0010
0000
,
0001
0000
0100
0000
,
1000
0000
0010
0000
,
0001
0001
0000
0000
;

//---------------dance-single - Copied from Copied f----------------
#NOTEDATA:;
#CHARTNAME:Copied from Copied f;
#STEPSTYPE:dance-single;
#DESCRIPTION:Copied from Copied f;
#CHARTSTYLE:;
#DIFFICULTY:Challenge;
#METER:15;
#RADARVALUES:0.608109,1.143679,1.455918,1.697482,0.290531,652.000000,429.000000,223.000000,260.000000,0.000000,69.000000,0.000000,0.000000,0.000000,0.608109,1.143679,1.455918,1.697482,0.290531,652.000000,429.000000,223.000000,260.000000,0.000000,69.000000,0.000000,0.000000,0.000000;
#CREDIT:Copied from Copied f;
#NOTES:
0000
0000
0000
0000
,
0000
0000
0000
0000
,
0000
0000
0000
0000
,
0000
0000
0000
0000
,
0000
0000
0000
0000
,
0000
0000
0000
0000
,
0000
0000
0000
0000
,
0000
0000
0000
0000
2002
0000
0000
0000
3003
0000
0000
0000
0000
0100
1000
0100
,
0011
0000
0001
0010
1100
0000
0002
0100
1013
0100
0010
0000
0110
0000
1001
0000
,
0110
0000
0000
0001
0000
0000
0010
0000
1000
0000
0000
0000
1010
0000
0000
0000
0000
0000
0002
0000
0000
0100
0000
0000
1013
0000
0000
0100
0000
0000
0010
0000
0000
0001
0000
0000
0110
0000
0000
0000
0000
0000
1001
0000
0000
0000
0000
0000
,
1001
0000
0100
0010
1001
0000
0200
0001
1310
0100
0001
0010
1100
0000
0010
0000
,
0101
0000
1000
0010
1100
0010
0002
1000
0113
1000
0001
0010
1001
0000
0001
0000
,
1100
0000
0010
1000
0011
0100
0002
0100
1013
0100
0001
0000
1010
0000
0000
0100
,
1001
0100
0010
1000
0101
1000
0020
0100
1031
0100
1000
0000
1100
0000
0000
1000
,
0110
0000
0010
0001
1010
0001
0200
0010
1301
0010
0100
0000
0101
0000
0000
1000
,
0110
0001
1000
0000
1001
0000
0002
0000
0113
0000
0010
0000
1001
0000
0001
0000
,
0011
0001
1010
2000
3110
0001
0011
0100
,
1001
0000
0010
0000
1100
0000
0002
1000
0113
0000
0002
0000
1100
0000
0010
0003
,
1010
0001
0110
2000
3110
0001
1001
0010
,
0101
0000
0010
0000
1100
0000
0002
0010
1103
0000
0020
0000
0100
0000
0001
0030
,
1100
0010
0011
0020
0131
0010
1100
0100
,
1001
0000
0010
0000
0110
0000
0002
0100
1003
0000
0020
0000
0100
0000
0001
0030
,
1100
0010
0110
2000
3011
0010
1001
0010
,
0110
0000
0001
0000
1001
0000
0020
1000
0131
0000
0020
0000
2000
0030
0000
3000
,
2200
0000
0000
3300
2002
0000
0000
3003
0202
0000
0000
0303
2200
0000
0000
3300
,
0011
0000
0000
0000
0000
0000
0000
0000
0110
0000
0000
0000
2002
0000
0000
3003
,
2200
0000
0000
3300
0220
0000
0000
0330
2002
0000
0000
3003
0220
0000
0000
0330
,
1001
0000
0000
0000
0000
0000
0000
0000
0000
0000
0000
0000
0000
0000
0000
0000
1000
0000
0000
0010
0000
1000
0000
0000
2002
0000
0000
0000
0000
0000
3003
0000
,
0220
0000
0000
0330
0022
0000
0000
0033
2020
0000
0000
3030
2002
0000
0000
3003
,
0110
0000
0000
0000
2002
0000
0000
3003
0110
0000
0000
0000
0000
0000
0000
0000
,
2200
0000
0000
3300
0000
0000
0000
0000
0220
0000
0000
0330
0000
0000
0000
0000
,
0202
0000
0000
0000
0000
0000
0303
0000
0000
0000
0000
0000
0000
0000
0000
0000
0100
0000
0000
1000
0000
0100
0000
0000
0022
0000
0000
0000
0100
0000
0033
0000
,
2020
0000
0001
3030
0022
0000
0000
0033
2020
0000
0000
3030
2020
0000
0001
3030
,
0101
0000
0000
0000
0000
0000
0000
0000
1001
0000
0000
0000
0022
0000
0100
0033
,
2002
0000
0010
3003
2200
0000
0000
3300
0022
0000
0000
0033
2200
0000
0000
3300
,
1001
0000
0000
0000
1001
0000
0000
0000
1001
0000
0000
0000
0000
0000
0000
0000
1000
0000
0000
1000
0000
0100
0000
0000
0022
0000
0000
0000
0100
0000
0033
0000
,
2200
0000
0001
3300
0220
0000
0000
0330
2200
0000
0000
3300
0022
0000
1000
0033
,
1100
0000
1010
0000
,
2002
0000
0000
3003
0000
0000
0000
0000
2200
0000
0000
3300
0000
0000
0000
0000
,
2020
0000
0000
0000
0000
0000
3030
0000
0000
0000
0000
0000
0000
0000
0000
0000
0100
0000
0000
1000
0000
0100
0000
0000
0001
0000
0000
0000
0000
0000
0000
0000
,
0101
0000
0000
0000
0000
0000
0000
0000
2002
0000
3203
0000
0320
0000
2030
0000
3202
0000
0000
0000
0323
0000
2030
0000
3022
0000
0233
0000
0000
0000
0000
0300
,
0011
0000
0000
0000
0000
0000
0000
0000
1100
0000
0020
0000
0230
0000
0302
0000
2203
0000
3320
0000
0230
0000
0302
0000
2203
0000
3302
0000
0000
0000
0000
0003
,
1100
0000
0000
0000
0000
0000
0000
0000
2200
0000
3302
0000
0023
0000
0032
0000
0223
0000
0330
2000
0000
0000
3002
0000
2203
0000
3320
0000
0000
0000
0030
0000
,
1010
0000
0000
0200
2320
3032
0023
0032
2203
3300
0020
2030
0220
3332
0000
0003
,
0011
1010
0110
0011
1100
0110
0011
0110
,
1100
0000
0110
0000
0011
0000
1100
0000
0011
0000
0110
0000
1001
0000
0102
0020
,
2033
3010
0200
0001
1000
0010
1000
0001
1000
0010
1000
0001
1000
0010
1000
0301
,
2010
0110
0011
0101
0110
0011
0101
0110
0101
0110
0101
0110
3101
0110
2002
3003
,
2200
0000
0000
3300
2002
0000
0000
3003
0202
0000
0000
0303
2020
0000
0000
3030
,
1100
0000
0000
0000
0000
0000
0000
0000
0110
0000
0000
0000
2002
0000
0000
3003
,
0022
0000
0000
0033
0220
0000
0000
0330
2002
0000
0000
3003
0220
0000
0000
0330
,
1001
0000
0000
0000
0000
0000
0000
0000
0000
0000
0000
0000
0000
0000
0000
0000
0001
0000
0000
0100
0000
0001
0000
0000
2002
0000
0000
0000
0000
0000
3003
0000
,
0220
0000
0000
0330
2200
0000
0000
3300
0202
0000
0000
0303
2002
0000
0000
3003
,
0110
0000
0000
0000
2002
0000
0000
3003
0110
0000
0000
0000
0000
0000
0000
0000
,
0022
0000
0000
0033
0000
0000
0000
0000
0220
0000
0000
0330
0000
0000
0000
0000
,
2020
0000
0000
0000
0000
0000
3030
0000
0000
0000
0000
0000
0000
0000
0000
0000
0010
0000
0000
0001
0000
0010
0000
0000
2200
0000
0000
0000
0010
0000
3300
0000
,
0202
0000
1000
0303
2200
0000
0000
3300
0022
0000
0000
0033
0202
0000
1000
0303
,
1010
0000
0000
0000
0000
0000
0000
0000
1001
0000
0000
0000
2200
0000
0010
3300
,
2002
0000
0100
3003
0022
0000
0000
0033
2200
0000
0000
3300
0022
0000
0000
0033
,
1001
0000
0000
0000
1001
0000
0000
0000
1001
0000
0000
0000
0000
0000
0000
0000
0001
0000
0000
0001
0000
0010
0000
0000
2200
0000
0000
0000
0010
0000
3300
0000
,
0022
0000
1000
0033
0220
0000
0000
0330
0022
0000
0000
0033
2200
0000
0010
3300
,
0011
0000
0101
0000
,
2002
0000
0000
3003
0000
0000
0000
0000
0022
0000
0000
0033
0000
0000
0000
0000
,
0202
0000
0303
0000
1001
0000
0202
2323
,
3030
0000
0002
0000
0023
0000
0030
0000
0220
0000
0330
0000
2002
3003
0020
0000
,
0232
0000
0000
0000
1303
0000
0020
0230
,
0300
0020
0230
0300
0200
0300
0002
0003
,
1001
1001
1001
0000
0220
0330
2002
3223
,
0330
0020
0230
0300
0002
0003
0002
0023
,
0232
0000
0000
0000
1303
0000
2000
3020
,
0030
0020
0230
0300
0002
0003
0020
0030
,
1100
0110
0011
0000
1001
0000
0000
0000
;
