#TITLE:Shower;
#SUBTITLE:;
#ARTIST:Becky G;
#TITLETRANSLIT:;
#SUBTITLETRANSLIT:;
#ARTISTTRANSLIT:;
#GENRE:;
#CREDIT:;
#BANNER:AV.avi;
#BACKGROUND:shower-bg.png;
#LYRICSPATH:;
#CDTITLE:;
#MUSIC:Shower - Becky G.mp3;
#OFFSET:0.217000;
#SAMPLESTART:111.139999;
#SAMPLELENGTH:15.000000;
#SELECTABLE:YES;
#BPMS:0.000000=120.010002
,129.000000=30.003000
,133.000000=60.002998
,171.750000=120.004990
,204.000000=60.001995
;
#STOPS:171.750000=1.115000
;
#BGCHANGES:0.000=Shower.avi=1.000=1=0=1===CrossFade==,
125.000=Shower.avi=0.600=0=0=1=====,
125.750=Shower.avi=1.000=0=0=1=====,
99999=-nosongbg-=1.000=0=0=0 // don't automatically add -songbackground-
;
#KEYSOUNDS:;
#ATTACKS:;

//---------------dance-single - ----------------
#NOTES:
     dance-single:
     :
     Challenge:
     15:
     0.496112,0.700908,0.814354,0.323050,0.528321,516.000000,395.000000,121.000000,48.000000,0.000000,0.000000,0.496112,0.700908,0.814354,0.323050,0.528321,516.000000,395.000000,121.000000,48.000000,0.000000,0.000000:
// measure 0
0000
0000
0000
0000
,  // measure 1
0000
0000
0000
0000
,  // measure 2
0000
0000
0000
0000
,  // measure 3
0000
0000
0000
0000
,  // measure 4
0000
0000
0000
0000
1001
0000
0100
0000
0010
0000
1000
0100
0010
0000
0100
0010
,  // measure 5
0100
0000
0010
0000
0110
0000
0001
0010
0100
0000
1000
0100
1000
0000
0100
1000
,  // measure 6
0010
0000
0100
0000
1010
0000
1000
0100
0010
0000
0001
0010
0100
0000
1000
0010
,  // measure 7
1000
0000
0000
0000
1001
0000
0100
0010
0100
0000
0100
0001
0100
0000
0100
0010
,  // measure 8
0100
0000
0100
0000
1001
0000
1000
0010
0100
0000
0010
1000
0100
0000
0001
0000
,  // measure 9
0100
0000
0000
0000
1001
0000
0100
0010
0100
0000
0100
0010
0100
0000
0001
0000
,  // measure 10
1000
0000
0000
0000
0101
0000
0100
0010
0100
0000
1000
0010
0100
0000
0010
0000
,  // measure 11
0100
0000
1000
0000
0110
0000
0010
0100
0001
0000
1000
0100
0010
0000
0100
0000
,  // measure 12
1001
0000
0000
1100
0001
1000
0110
0000
0110
0010
0100
0001
,  // measure 13
1001
0000
0000
0110
0010
0100
0101
0000
0101
1000
0001
0100
,  // measure 14
0110
0000
0000
1001
0001
0100
1010
0000
1010
1000
0010
0100
,  // measure 15
0001
0000
0000
0000
0110
0000
0000
1001
0000
0000
0110
0000
0000
0000
1000
0000
,  // measure 16
0010
0000
0100
0000
0110
0000
0000
1001
0000
0000
0210
0000
0000
0000
0310
0000
,  // measure 17
1000
0000
0001
0000
0110
0000
0000
0101
0000
0000
0102
0000
0000
0000
0103
0000
,  // measure 18
0010
0000
1000
0000
1100
0000
0000
1001
0000
0000
0210
0000
0000
0000
0310
0000
,  // measure 19
0001
0000
1000
0000
1010
0000
0000
1100
0000
0000
0120
0000
0000
0000
0130
0000
,  // measure 20
1000
0000
0100
0000
0110
0000
0000
1001
0000
0000
0210
0000
0000
0300
0010
0000
,  // measure 21
0001
0000
1000
0000
1100
0000
0000
0110
0000
0000
0202
0000
0000
0303
0000
0000
,  // measure 22
2002
0000
0000
3003
0110
0000
0000
1001
0000
0000
0110
0000
0010
0000
0100
0000
,  // measure 23
0010
0000
0000
0000
1000
0000
0000
0000
0001
0000
0000
0000
0100
0000
0000
0000
0000
0000
0000
0000
0000
1001
0000
0000
0000
0000
0000
0000
0000
0000
0110
0000
0000
0000
0000
0000
0100
0000
0000
0000
0000
0000
0010
0000
0000
0000
0000
0000
,  // measure 24
0100
0000
0000
0000
0010
0000
0000
0000
0100
0000
0000
0000
1010
0000
0000
0000
0000
0000
0000
0000
0000
1001
0000
0000
0000
0000
0000
0000
0000
0000
0210
0000
0000
0000
0000
0000
0000
0000
0000
0000
0000
0000
0000
0000
0000
0000
0000
0000
,  // measure 25
0310
0010
0000
0000
2001
0000
0000
0000
3100
0100
0000
0000
0210
0000
0000
0000
,  // measure 26
1300
1000
0000
0000
0210
0000
0000
0001
0000
0000
0010
0000
0000
0000
0000
0300
,  // measure 27
1010
0000
0000
0000
0110
0000
0000
1001
0000
0000
0110
0000
0001
0000
1000
0000
,  // measure 28
1000
0000
0000
0000
0100
0000
0000
0000
0010
0000
0000
0000
0001
0000
0000
0000
0000
0000
0000
0000
0000
0101
0000
0000
0000
0000
0000
0000
0000
0000
2010
0000
0000
0000
0000
0000
0000
0000
0000
0000
0000
0000
0000
0000
0000
3000
0000
0000
,  // measure 29
0100
0100
0000
0000
0210
0000
0000
0000
0310
0010
0000
0000
1002
0000
0000
0000
,  // measure 30
1000
1003
0000
0000
0210
0000
0000
0010
0000
0000
0001
0000
0000
0000
0300
0000
,  // measure 31
1010
0000
0000
0000
0110
0000
0000
1001
0000
0000
0110
0000
0010
0000
0100
0000
,  // measure 32
0001
0010
0100
0220
0000
0000
0000
0000
0000
0000
0000
0000
,  // measure 33
0000
0000
0000
0000
0000
0000
0000
0000
0000
0000
0000
0000
0000
0000
0000
0000
0000
0000
0000
0000
0000
0000
0000
0000
0000
0000
0000
0000
0000
0000
0000
0000
0330
0000
0000
0000
0000
0000
0000
0000
0000
0000
0000
0000
0000
0000
0000
0000
0000
0000
0000
0000
0000
0000
0000
0000
0000
0000
0000
0000
0010
0000
0000
0000
0000
0000
0000
0000
0000
0000
0000
0000
0100
0000
0000
0000
0000
0000
0000
0000
0000
0000
0000
0000
1000
0000
0000
0000
0000
0000
0000
0000
0000
0000
0000
0000
0001
0000
0000
0000
0000
0000
0000
0000
0000
0000
0000
0000
0000
0000
0000
0000
0000
0000
0110
0000
0000
0000
0000
0000
0000
0000
0000
0000
0000
0000
0000
0000
0000
0000
0000
0000
0001
0000
0000
0000
0000
0000
0000
0000
0000
0000
0000
0000
0000
0000
0000
0000
0000
0000
0100
0000
0000
0000
0000
0000
0010
0000
0000
0000
0000
0000
0000
0000
0000
0000
0000
0000
1000
0000
0000
0000
0000
0000
0000
0000
0000
0000
0000
0000
0010
0000
0000
0000
0000
0000
0000
0000
0000
0000
0000
0000
,  // measure 34
0100
0000
0000
0001
0000
0000
0010
0000
0000
0000
0010
0000
0100
0000
0010
0000
0100
0000
0000
0100
0000
0000
0110
0000
0000
0000
0000
0000
0110
0000
0000
0000
,  // measure 35
1000
0000
0000
0100
0000
0000
0010
0000
0100
0000
1000
0000
0002
0000
0000
0000
0000
0000
0000
0000
0000
0000
0000
0000
0000
0000
0000
1003
0000
0000
0010
0000
0000
0100
0000
0000
0020
0000
0000
0000
0000
0000
0000
0000
0000
0000
0000
0000
,  // measure 36
0000
1030
0001
0100
0020
0000
0000
0000
0000
1030
0100
0010
0200
0000
0000
0302
,  // measure 37
0000
0003
0100
0000
0010
0000
0100
0000
0020
0000
0000
0000
0000
0000
0000
0000
0000
0000
1030
0000
0001
0000
0100
0000
2000
0000
0000
0000
0000
0000
0000
0000
,  // measure 38
0000
3100
0010
0100
0020
0000
0000
0000
0000
1030
0010
0100
0020
0000
0000
2030
,  // measure 39
0000
0000
3100
0000
0100
0000
0010
0000
0110
0000
0000
0101
0000
0000
0110
0000
0000
0000
1000
0000
0010
0000
0100
0000
1100
0000
0000
0110
0000
0000
0101
0000
,  // measure 40
0000
0000
0010
0000
0100
0000
0001
0000
0011
0000
0000
0110
0000
0000
1100
0000
0000
0000
1000
0000
0100
0000
0010
0000
1100
0000
0000
0110
0000
0000
0101
0000
,  // measure 41
0000
0000
0010
0000
0100
0000
0010
0000
1010
0000
0000
0101
0000
0000
0110
0000
0000
0000
1000
0000
0010
0000
0100
0000
1001
0000
0000
0110
0000
0000
1100
0000
,  // measure 42
0000
0000
0000
0000
0000
0000
0210
0000
0000
0000
0000
0000
0310
0000
0000
0000
0000
0000
0010
0000
0000
0000
0000
0000
1000
0000
0000
0100
0000
0000
0010
0000
1000
0000
0001
0000
0020
0000
0000
0000
0000
0000
0030
0000
0000
0000
0000
0000
,  // measure 43
1010
0000
0000
1001
0000
0000
0210
0000
0000
0000
0000
0000
0310
0010
0000
0000
,  // measure 44
2001
0000
0000
0000
3001
0001
0000
0000
0210
0000
0000
0000
0310
0010
0000
0000
,  // measure 45
0210
0000
0000
0001
0000
0000
0010
0000
0000
0000
0000
0300
1010
0000
0000
0000
,  // measure 46
0110
0000
0000
0000
0000
0000
0000
0000
0000
1001
0000
0000
0000
0000
0000
0000
0000
0000
0110
0000
0000
0000
0000
0000
0001
0000
0000
0000
0000
0000
1000
0000
0000
0000
0000
0000
1000
0000
0000
0000
0100
0000
0000
0000
0010
0000
0000
0000
,  // measure 47
0001
0000
0000
0101
0000
0000
2010
0000
0000
0000
0000
3000
0100
0100
0000
0000
,  // measure 48
0210
0000
0000
0000
0310
0010
0000
0000
1002
0000
0000
0000
1000
1003
0000
0000
,  // measure 49
0210
0000
0000
0010
0000
0000
0001
0000
0000
0000
0300
0000
1010
0000
0000
0000
,  // measure 50
0110
0000
0000
0000
0000
0000
0000
0000
0000
0101
0000
0000
0000
0000
0000
0000
0000
0000
1010
0000
0000
0000
0000
0000
1000
0000
0000
0000
0000
0000
0100
0000
0000
0000
0000
0000
1000
0000
0000
0000
0100
0000
0000
0000
0010
0000
0000
0000
,  // measure 51
2001
0000
0000
0010
0000
0000
3010
0000
0000
0000
0000
0000
0010
0010
0000
0000
0210
0000
0000
0000
0310
0010
0000
0000
0200
0000
0000
0000
0310
0010
0000
0000
,  // measure 52
0200
0000
0000
0000
0000
0000
0000
0000
0000
0000
0000
0000
0000
0000
0000
0000
0000
0000
0010
0000
0000
0000
0000
0000
0000
0000
0000
0000
0000
0000
0000
0000
0000
0000
0000
0000
0010
0000
0000
0000
0000
0000
0000
0000
0000
0000
0000
0000
0000
0000
0000
0000
0000
0000
0000
0000
0000
0000
0000
0000
0300
0000
0000
0000
0000
0000
0000
0000
0000
0000
0000
0000
1001
0000
0000
0000
0000
0000
0000
0000
0000
0000
0000
0000
0000
0000
0000
0000
0000
0000
0000
0000
0000
0000
0000
0000
0110
0000
0000
0000
0000
0000
0000
0000
0000
0000
0000
0000
0000
0000
0000
0000
0000
0000
1001
0000
0000
0000
0000
0000
0000
0000
0000
0000
0000
0000
0000
0000
0000
0000
0000
0000
0110
0000
0000
0000
0000
0000
0000
0000
0000
0000
0000
0000
1000
0000
0000
0000
0000
0000
0000
0000
0000
0000
0000
0000
0010
0000
0000
0000
0000
0000
0000
0000
0000
0000
0000
0000
0100
0000
0000
0000
0000
0000
0000
0000
1000
0000
0000
0000
0000
0000
0000
0000
0100
0000
0000
0000
0000
0000
0000
0000
,  // measure 53
0010
0000
0000
0110
0000
0000
2000
0000
0000
0000
0000
3000
0100
0100
0000
0000
0210
0000
0000
0000
0310
0010
0000
0000
2000
0000
0000
0000
3001
0001
0000
0000
,  // measure 54
1001
0000
0000
0110
0000
0000
0110
0000
0000
0000
0000
0000
0110
0000
0000
0000
2002
0000
0000
0000
0000
0000
0000
0000
0000
0000
3003
0000
0000
0000
0000
0000
;

//---------------dance-single - Copied from----------------
#NOTES:
     dance-single:
     Copied from:
     Hard:
     11:
     0.332664,0.461650,0.026921,0.275938,0.349970,346.000000,342.000000,4.000000,41.000000,0.000000,0.000000,0.332664,0.461650,0.026921,0.275938,0.349970,346.000000,342.000000,4.000000,41.000000,0.000000,0.000000:
0000
0000
0000
0000
,
0000
0000
0000
0000
,
0000
0000
0000
0000
,
0000
0000
0000
0000
,
0000
0000
0000
0000
0000
0000
0100
0000
1000
0000
0100
1000
0100
0000
1000
0100
,
1000
0000
0100
0000
0000
0000
0010
0100
0010
0000
0100
0010
0100
0000
0010
0100
,
0010
0000
0100
0000
0000
0000
0001
1000
0001
0000
1000
0001
1000
0000
0001
1000
,
0001
0000
0000
0000
1001
0000
0001
1000
0001
0000
1000
0001
1000
0000
0001
1000
,
0001
0000
0010
0000
0100
0000
0100
0010
0100
0000
0010
0100
0010
0000
0100
0000
,
0010
0000
0000
0000
0110
0000
1000
0100
0010
0000
0001
0010
0100
0000
1000
0000
,
0010
0000
0000
0000
1001
0000
1000
0100
0010
0000
0001
0010
0100
0000
1000
0000
,
0001
0000
0100
0000
0010
0000
1000
0010
1000
0000
0001
0100
0001
0000
0100
0000
,
0010
0000
0000
0000
1000
0000
0000
0100
0000
0000
0010
0000
0000
0001
0000
0000
,
0100
0000
0000
0000
0010
0000
0000
1000
0000
0000
0010
0000
0000
0100
0000
0000
,
0010
0000
0000
0000
1000
0000
0000
0001
0000
0000
0010
0000
0000
0100
0000
0000
,
1000
0000
0000
0000
0100
0000
0000
0100
0000
0000
0100
0000
0000
0000
1000
0000
,
0010
0000
0100
0000
0001
0000
0000
0001
0000
0000
0002
0000
0000
0000
0103
0000
,
0010
0000
1000
0000
0100
0000
0000
0100
0000
0000
0200
0000
0000
0000
1300
0000
,
0010
0000
0100
0000
0001
0000
0000
0001
0000
0000
0002
0000
0000
0000
0013
0000
,
0100
0000
1000
0000
0010
0000
0000
0010
0000
0000
0020
0000
0000
0000
0130
0000
,
0001
0000
1000
0000
0001
0000
0000
0001
0000
0000
0002
0000
0000
0000
0103
0000
,
0010
0000
1000
0000
0100
0000
0000
0100
0000
0000
0200
0000
0000
0000
0000
0000
,
0302
0000
0000
0000
1003
0000
0000
1000
0000
0000
1000
0000
0100
0000
1000
0000
,
0010
0000
1000
0000
0001
0000
0000
0001
0000
0000
0001
0000
1000
0000
0010
0000
,
0100
0000
0001
0000
1000
0000
0000
1000
0000
0000
1000
0000
0000
0000
0000
0000
,
0010
0100
0000
0000
0002
0000
0000
0000
0013
1000
0000
0000
0200
0000
0000
0000
,
0301
1000
0000
0000
0001
0000
0000
0001
0000
0000
0002
0000
0000
0000
0000
0000
,
0103
0000
0000
0000
0010
0000
0000
0010
0000
0000
0010
0000
1000
0000
0100
0000
,
0010
0000
0001
0000
1000
0000
0000
1000
0000
0000
1000
0000
0000
0000
0000
0000
,
0010
0100
0000
0000
0002
0000
0000
0000
0013
0100
0000
0000
2000
0000
0000
0000
,
3010
0001
0000
0000
0200
0000
0000
0010
0000
0000
0320
0000
0000
0000
0000
0000
,
0130
0000
0000
0000
1000
0000
0000
1000
0000
0000
1000
0000
0010
0000
0100
0000
,
0001
1000
0002
0000
0000
0000
0000
0000
,
0000
0000
0003
1000
0000
1000
0000
1000
,
0000
1000
0000
1000
0000
1000
0000
1000
,
0000
0010
0100
0010
0200
0000
0000
0000
0000
0310
1000
0010
2000
0000
0000
0000
,
0000
3001
1000
0001
2000
0000
0000
0000
0000
3001
0100
0001
0200
0000
0000
0302
,
0000
1003
0001
1000
0002
0000
0000
0000
0000
0103
0010
0100
0020
0000
0000
0000
,
0000
0000
1030
0000
0010
0000
1000
0000
0020
0000
0000
0000
0000
0000
0000
0000
0000
0030
1000
0000
0010
0000
0100
0000
0002
0000
0000
0000
0000
0003
2000
0000
,
0000
0000
3010
0000
0100
0000
0001
0000
1000
0000
0000
1000
0000
0000
1000
0000
0000
0000
0010
0000
0100
0000
0010
0000
0100
0000
0000
0100
0000
0000
0100
0000
,
0000
0000
0001
0000
1000
0000
0001
0000
1000
0000
0000
1000
0000
0000
1000
0000
0000
0000
0010
0000
0100
0000
0010
0000
0100
0000
0000
0100
0000
0000
0100
0000
,
0000
0000
0001
0000
1000
0000
0001
0000
1000
0000
0000
1000
0000
0000
1000
0000
0000
0000
0010
0000
0100
0000
0010
0000
0100
0000
0000
0100
0000
0000
0100
0000
,
0000
0000
0000
0000
0010
0000
0000
0000
1000
0000
0000
1000
0000
0000
1000
0000
0000
0000
0000
0000
0000
0000
0000
0000
0001
0000
0000
0001
0000
0000
0001
0000
,
1000
0000
0000
1000
0000
0000
1000
0000
0000
0000
0000
0000
0010
0100
0000
0000
,
0002
0000
0000
0000
0013
1000
0000
0000
0200
0000
0000
0000
0301
1000
0000
0000
,
0001
0000
0000
0001
0000
0000
0002
0000
0000
0000
0000
0000
0103
0000
0000
0000
,
0010
0000
0000
0010
0000
0000
0010
0000
1000
0000
0100
0000
0010
0000
0001
0000
,
1000
0000
0000
1000
0000
0000
1000
0000
0000
0000
0000
0000
0010
0100
0000
0000
,
0002
0000
0000
0000
0013
0100
0000
0000
2000
0000
0000
0000
3010
0001
0000
0000
,
0200
0000
0000
0010
0000
0000
0320
0000
0000
0000
0000
0000
0130
0000
0000
0000
,
1000
0000
0000
1000
0000
0000
1000
0000
0010
0000
0100
0000
0001
0000
1000
0000
,
0010
0010
0010
0020
0230
0310
0020
1030
,
2000
0000
0000
3001
0100
0100
0100
0010
,
1000
1000
1000
0001
0002
0103
0200
0310
,
0020
0000
0000
0030
2002
0000
0000
3003
;

//---------------dance-single - Copied from Copied f----------------
#NOTES:
     dance-single:
     Copied from Copied f:
     Medium:
     5:
     0.160563,0.203126,0.013460,0.242287,0.050476,167.000000,165.000000,2.000000,36.000000,0.000000,0.000000,0.160563,0.203126,0.013460,0.242287,0.050476,167.000000,165.000000,2.000000,36.000000,0.000000,0.000000:
0000
0000
0000
0000
,
0000
0000
0000
0000
,
0000
0000
0000
0000
,
0000
0000
0000
0000
,
0000
1000
0001
1000
,
0010
0100
0010
0001
,
0100
0010
0100
0001
,
1000
0010
1000
0001
,
1000
0010
0100
1000
,
0010
1000
0001
1000
,
0010
0100
0001
1000
,
0001
0010
0100
1000
,
0001
0000
0000
0000
1000
0000
0000
1000
0000
0000
0001
0000
0000
0001
0000
0000
,
0010
0000
0000
0000
0100
0000
0000
0100
0000
0000
1000
0000
0000
1000
0000
0000
,
0010
0000
0000
0000
0001
0000
0000
0001
0000
0000
0100
0000
0000
0100
0000
0000
,
0010
0000
0000
0000
1000
0000
0000
0001
0000
0000
1000
0000
0000
0000
0000
0000
,
0010
0000
0000
0000
0100
0000
0000
0010
0000
0000
1000
0000
0000
0000
0000
0000
,
0001
0000
0000
0000
1000
0000
0000
0001
0000
0000
1000
0000
0000
0000
0000
0000
,
0010
0000
0000
0000
1000
0000
0000
1000
0000
0000
1000
0000
0000
0000
0000
0000
,
1000
0000
0000
0000
0010
0000
0000
0010
0000
0000
0010
0000
0000
0000
0000
0000
,
0010
0000
0000
0000
0100
0000
0000
0100
0000
0000
0100
0000
0000
0000
0000
0000
,
0010
0000
0000
0000
0100
0000
0000
0100
0000
0000
0100
0000
0000
0000
0000
0000
,
1000
0000
0000
0000
0010
0000
0000
0010
0000
0000
0010
0000
0000
0000
0000
0000
,
0001
0000
0000
0000
0010
0000
0000
0010
0000
0000
0010
0000
0000
0000
0000
0000
,
1000
1001
0010
0100
,
0010
2000
3000
0002
,
0003
0020
0000
0000
,
0130
0000
1000
0001
,
1000
0010
0100
0010
,
1000
0002
0000
2003
,
0000
3200
0000
0000
,
0310
0001
1000
0001
,
1000
0020
0000
0000
,
0000
0000
0030
1000
0000
0001
0000
1000
,
0000
0010
0000
0100
0000
1000
0000
0001
,
0000
1000
0002
0000
0000
0000
0203
0000
,
0000
0320
0000
2030
,
0000
3002
0000
0023
,
0000
0230
0000
2300
,
0000
3002
0000
0023
,
0000
0032
0000
2003
,
0000
3200
0000
2300
,
0000
3002
0000
0023
,
0030
1000
0001
1000
,
0020
0000
0000
0030
2000
0000
0000
3000
,
0002
0000
0000
1003
,
0100
0010
1000
0001
,
1000
0010
0100
0010
,
2000
0000
3200
0000
,
0320
0000
0000
0030
,
0001
1000
0001
1000
,
1001
0000
0020
0032
,
2003
0000
0000
3001
0000
0000
0000
0000
,
1000
0000
0001
1000
0020
0000
2030
0000
,
3002
0000
0000
0003
2000
0000
0000
3000
;

//---------------dance-single - Copied from Copied f----------------
#NOTES:
     dance-single:
     Copied from Copied f:
     Easy:
     4:
     0.117298,0.184660,0.000000,0.188446,0.003365,122.000000,122.000000,0.000000,28.000000,0.000000,0.000000,0.117298,0.184660,0.000000,0.188446,0.003365,122.000000,122.000000,0.000000,28.000000,0.000000,0.000000:
0000
0000
0000
0000
,
0000
0000
0000
0000
,
0000
0000
0000
0000
,
0000
0000
0000
0000
,
0000
0000
1000
0000
,
1000
0000
0001
0000
,
0010
0000
1000
0000
,
0100
0000
1000
0000
,
0010
0000
1000
0000
,
0001
0000
1000
0000
,
0100
0000
1000
0000
,
0010
0000
1000
0000
,
0001
0000
1000
0000
0000
1000
0000
0000
,
0000
0000
0010
0000
0000
0010
0000
0000
,
0000
0000
0001
0000
0000
0001
0000
0000
,
0000
1000
0001
1000
,
0010
0200
0000
0302
,
0000
2003
0000
3002
,
0000
0203
0000
0320
,
0000
2030
0000
3002
,
0000
0003
1000
0000
0100
0000
0010
0000
,
0001
1000
0001
1000
,
0010
0100
0000
0010
,
0000
0001
0000
1000
,
0000
0001
1000
0001
,
0000
0020
0030
2000
,
3000
0002
0000
0000
,
0003
1000
0001
1000
,
0010
0100
0000
0010
,
1000
0002
0003
2000
,
3000
0200
0000
0000
,
0300
0010
1000
0001
,
1000
0002
0000
0000
,
0000
0000
0003
1000
0000
0000
0000
1000
,
0000
0000
0000
1000
0000
0000
0000
0001
,
0000
0000
0000
0010
0000
0000
0000
1000
,
0000
0000
0000
0100
0000
0000
0000
1000
,
0000
0000
0000
0001
0000
0000
0000
0010
,
0000
0000
0000
1000
0000
0000
0000
0001
,
0000
0000
0000
0010
0000
0000
0000
0100
,
0000
0000
0000
1000
0000
0000
0000
0010
,
0000
0000
0000
0001
0000
0000
0000
1000
,
0000
0000
0000
0000
0000
0000
0010
0000
0000
0000
0000
0000
0000
0000
0000
1000
,
0100
1000
0010
1000
,
0002
0003
2000
3000
,
0200
0000
0000
0300
,
1000
0001
1000
0010
,
0100
0000
0001
1000
,
0002
0003
0020
0030
,
0200
0000
0000
0300
,
0010
1000
0001
1000
,
0100
0000
0000
0000
2000
3000
0200
0300
,
0020
0000
0000
0030
0001
1000
0001
0100
,
0010
0000
1000
0000
0002
0003
2000
3000
,
0020
0000
0030
0000
2000
0000
0000
3000
;

//---------------dance-single - Copied from Copied f----------------
#NOTES:
     dance-single:
     Copied from Copied f:
     Beginner:
     2:
     0.095184,0.147728,0.000000,0.188446,0.003365,99.000000,99.000000,0.000000,28.000000,0.000000,0.000000,0.095184,0.147728,0.000000,0.188446,0.003365,99.000000,99.000000,0.000000,28.000000,0.000000,0.000000:
0000
0000
0000
0000
,
0000
0000
0000
0000
,
0000
0000
0000
0000
,
0000
0000
0000
0000
,
0000
0000
0010
0000
,
0000
0000
0100
0000
,
0000
0000
0010
0000
,
0000
0000
0010
0000
,
0000
0000
0010
0000
,
0000
0000
0010
0000
,
0000
0000
0010
0000
,
0000
0000
0010
0000
,
0000
0000
0010
0000
0000
0010
0000
0000
,
0000
0000
0001
0000
0000
0001
0000
0000
,
0000
0000
0100
0000
0000
0100
0000
0000
,
0000
0010
0000
0010
,
0000
2000
0000
3200
,
0000
0320
0000
0230
,
0000
2300
0000
3002
,
0000
0023
0000
0230
,
0000
0300
0010
0000
0000
0000
0001
0000
,
0000
0010
0000
0010
,
0001
0000
0000
0001
,
0000
0100
0000
0010
,
0000
0100
0000
0100
,
0000
0002
0003
0020
,
0030
0200
0000
0000
,
0300
0010
0000
0010
,
0001
0000
0000
0001
,
0010
0200
0300
0020
,
0030
2000
0000
0000
,
3000
0001
0010
0000
,
0010
0200
0000
0000
,
0000
0000
0300
0010
0000
0000
0000
0010
,
0000
0000
0000
0010
0000
0000
0000
0100
,
0000
0000
0000
0001
0000
0000
0000
0010
,
0000
0000
0000
1000
0000
0000
0000
0010
,
0000
0000
0000
0100
0000
0000
0000
0001
,
0000
0000
0000
0010
0000
0000
0000
0100
,
0000
0000
0000
0001
0000
0000
0000
1000
,
0000
0000
0000
0010
0000
0000
0000
0001
,
0000
0000
0000
0100
0000
0000
0000
0010
,
0000
0000
0000
0000
0000
0000
0001
0000
0000
0000
0000
0000
0000
0000
0000
0010
,
1000
0010
0000
0010
,
0200
0300
0020
0030
,
2000
0000
0000
3000
,
0010
0000
0010
0000
,
1000
0000
0100
0010
,
0200
0300
0002
0003
,
2000
0000
0000
3000
,
0001
0010
0100
0010
,
1000
0000
0000
0000
0020
0030
2000
3000
,
0002
0000
0000
0003
0100
0000
0100
0000
,
0001
0000
0010
0000
0200
0300
0020
0030
,
0002
0000
0003
0000
0020
0000
0000
0030
;
