#TITLE:Seoleim(Flutter);
#SUBTITLE:;
#ARTIST:ND Lee;
#TITLETRANSLIT:;
#SUBTITLETRANSLIT:;
#ARTISTTRANSLIT:;
#GENRE:;
#CREDIT:;
#BANNER:AV.avi;
#BACKGROUND:bg.png;
#LYRICSPATH:;
#CDTITLE:;
#MUSIC:Seoleim.mp3;
#OFFSET:0.820000;
#SAMPLESTART:39.260002;
#SAMPLELENGTH:15.000000;
#SELECTABLE:YES;
#BPMS:0.000000=155.000000
;
#STOPS:
;
#BGCHANGES:0.000=MV.avi=1.000=1=0=1===CrossFade==,
4.000=MV.avi=1.000=0=0=1=====,
99999=-nosongbg-=1.000=0=0=0 // don't automatically add -songbackground-
;
#KEYSOUNDS:;
#ATTACKS:;

//---------------dance-single - ----------------
#NOTES:
     dance-single:
     :
     Beginner:
     1:
     0.124084,0.159593,0.000000,0.016085,0.000000,108.000000,108.000000,0.000000,2.000000,0.000000,0.000000,0.124084,0.159593,0.000000,0.016085,0.000000,108.000000,108.000000,0.000000,2.000000,0.000000,0.000000:
// measure 0
0000
0000
0000
0000
,  // measure 1
0000
0000
0000
0000
,  // measure 2
1000
0000
0000
0000
,  // measure 3
0100
0000
0000
0000
,  // measure 4
0010
0000
0000
0000
,  // measure 5
0001
0000
0000
0000
,  // measure 6
0100
0000
0000
0000
,  // measure 7
0010
0000
0000
0000
,  // measure 8
1000
0000
0000
0000
,  // measure 9
0001
0000
0000
0000
,  // measure 10
0100
0000
0000
0000
,  // measure 11
0010
0000
0000
0000
,  // measure 12
1000
0000
0000
0000
,  // measure 13
0001
0000
0000
0000
,  // measure 14
0010
0000
0000
0000
,  // measure 15
1000
0000
0000
0000
,  // measure 16
0001
0000
0000
0000
,  // measure 17
0100
0000
0000
0000
,  // measure 18
0100
0000
0000
0000
,  // measure 19
0001
0000
0000
0000
,  // measure 20
1000
0000
0000
0000
,  // measure 21
0010
0000
0000
0000
,  // measure 22
0001
0000
0000
0000
,  // measure 23
0010
0000
0000
0000
,  // measure 24
0100
0000
0000
0000
,  // measure 25
1000
0000
0000
0000
,  // measure 26
0000
1000
0000
1000
,  // measure 27
0000
0001
0000
0001
,  // measure 28
0000
0100
0000
0100
,  // measure 29
0000
0010
0000
0010
,  // measure 30
0000
0100
0000
0100
,  // measure 31
0000
0001
0000
0001
,  // measure 32
0000
0010
0000
0010
,  // measure 33
0000
1000
0000
1000
,  // measure 34
0000
0100
0000
0100
,  // measure 35
0000
0010
0000
0010
,  // measure 36
0000
1000
0000
1000
,  // measure 37
0000
0001
0000
0001
,  // measure 38
0000
0100
0000
0100
,  // measure 39
0000
0010
0000
0010
,  // measure 40
0000
0001
0000
0001
,  // measure 41
2000
0000
0000
0000
,  // measure 42
3000
0000
0000
0000
,  // measure 43
0001
0000
0000
0000
,  // measure 44
0010
0000
0000
0000
,  // measure 45
0100
0000
0000
0000
,  // measure 46
1000
0000
0000
0000
,  // measure 47
0010
0000
0000
0000
,  // measure 48
0100
0000
0000
0000
,  // measure 49
0001
0000
0000
0000
,  // measure 50
1000
0000
0000
0000
,  // measure 51
0100
0000
0000
0000
,  // measure 52
0010
0000
0000
0000
,  // measure 53
1000
0000
0000
0000
,  // measure 54
0001
0000
0000
0000
,  // measure 55
0100
0000
0000
0000
,  // measure 56
1000
0000
0000
0000
,  // measure 57
0010
0000
0000
0000
,  // measure 58
0001
0000
0000
0000
,  // measure 59
0000
0001
0000
0001
,  // measure 60
0000
1000
0000
1000
,  // measure 61
0000
0100
0000
0100
,  // measure 62
0000
0010
0000
0010
,  // measure 63
0000
0100
0000
0100
,  // measure 64
0000
0001
0000
0001
,  // measure 65
0000
0010
0000
0010
,  // measure 66
0000
1000
0000
1000
,  // measure 67
0000
0100
0000
0100
,  // measure 68
0000
0001
0000
0001
,  // measure 69
0000
1000
0000
1000
,  // measure 70
0000
0010
0000
0010
,  // measure 71
0000
0100
0000
0100
,  // measure 72
0000
0010
0000
0010
,  // measure 73
0000
1000
0000
1000
,  // measure 74
0002
0000
0000
0000
,  // measure 75
0003
0000
0000
0000
,  // measure 76
1000
0000
0000
0000
,  // measure 77
0001
0000
0000
0000
,  // measure 78
0100
0000
0000
0000
0000
0000
0000
0010
,  // measure 79
0000
0010
0000
0010
0000
0000
0000
0000
;

//---------------dance-single - ----------------
#NOTES:
     dance-single:
     :
     Easy:
     4:
     0.218295,0.287267,0.000000,0.016085,0.000000,190.000000,190.000000,0.000000,2.000000,0.000000,0.000000,0.218295,0.287267,0.000000,0.016085,0.000000,190.000000,190.000000,0.000000,2.000000,0.000000,0.000000:
0000
0000
0000
0000
,
0000
0000
0000
0000
,
1000
0000
0000
0000
,
0001
0000
0000
0000
,
0010
0000
0000
0000
,
0100
0000
0000
0000
,
0010
0000
0000
0000
,
0001
0000
0000
0000
,
0100
0000
0000
0000
0000
0000
0000
1000
,
0000
1000
0000
1000
0000
0000
0000
0000
,
1000
0000
1000
0000
,
0001
0000
0001
0000
,
0100
0000
0100
0000
,
0010
0000
0010
0000
,
0100
0000
0100
0000
,
0010
0000
0010
0000
,
0001
0000
0001
0000
,
1000
0000
1000
0000
,
0001
0000
0001
0000
,
1000
0000
1000
0000
,
0100
0000
0100
0000
,
0010
0000
0010
0000
,
0001
0000
0001
0000
,
0010
0000
0010
0000
,
0100
0000
0100
0000
,
1000
0000
1000
0000
,
0001
0010
0001
0010
,
1000
0100
1000
0100
,
0010
0100
0010
0100
,
0001
1000
0001
1000
,
0001
0010
0100
1000
,
1000
0100
0010
0001
,
1000
0100
1000
0100
,
0010
0001
0010
0001
,
0010
0000
0001
0001
,
0001
0000
1000
1000
,
0100
0000
0100
0000
,
0010
0000
0010
0000
,
0001
0000
1000
1000
,
1000
0000
0100
0100
,
0100
0000
0010
0010
,
0020
0000
0000
0000
,
0130
0000
0000
0000
,
1000
0000
1000
0000
,
0001
0000
0001
0000
,
0100
0000
0100
0000
,
0010
0000
0010
0000
,
0001
0000
0001
0000
,
0100
0000
0100
0000
,
0010
0000
0000
0000
0010
0000
0000
1000
,
0000
1000
0000
1000
0000
0000
0000
0000
,
0001
0000
0001
0000
,
0100
0000
0100
0000
,
0010
0000
0010
0000
,
1000
0000
1000
0000
,
0100
0000
0100
0000
,
0001
0000
0001
0000
,
0010
0000
0010
0000
,
1000
0000
1000
0000
,
1000
0100
1000
0100
,
0001
0010
0001
0010
,
0100
0010
0100
0010
,
1000
0001
1000
0001
,
1000
0100
0010
0001
,
0001
0010
0100
1000
,
0001
0010
0001
0010
,
0100
1000
0100
1000
,
0100
0000
1000
1000
,
1000
0000
0001
0001
,
0010
0000
0010
0000
,
0100
0000
0100
0000
,
1000
0000
0001
0001
,
0001
0000
0010
0010
,
0010
0000
0100
0100
,
0200
0000
0000
0000
,
0310
0000
0000
0000
,
0001
0000
0001
0000
,
1000
0000
1000
0000
,
0010
0000
0000
0000
0010
0000
0000
0100
,
0000
0100
0000
0100
0000
0000
0000
0000
;

//---------------dance-single - ----------------
#NOTES:
     dance-single:
     :
     Medium:
     5:
     0.396379,0.443341,0.000000,0.016085,0.000000,345.000000,345.000000,0.000000,2.000000,0.000000,0.000000,0.396379,0.443341,0.000000,0.016085,0.000000,345.000000,345.000000,0.000000,2.000000,0.000000,0.000000:
0000
0000
0000
0000
,
0000
0000
0000
0000
,
0000
1000
0100
1000
0001
1000
0000
0100
,
0000
0000
0000
0100
0000
1000
0001
1000
,
0000
0001
0100
0001
0100
0001
0000
0100
,
0000
0000
0000
0000
0010
1000
0001
1000
,
0000
0010
0100
0010
0100
0010
0000
1000
,
0000
0000
0000
0000
0000
0001
1000
0001
,
0000
1000
0100
1000
0100
1000
0000
0010
,
0000
0100
0000
0010
0000
0000
0000
0000
,
0001
0001
1000
0000
,
0100
0000
0100
1000
0000
1000
0000
1000
,
0010
0000
0010
0000
,
0100
0001
0100
0000
0001
0000
0001
0000
,
1000
1000
1000
0000
,
0100
0000
0100
0000
0000
0100
0000
0000
,
0010
0000
0010
0000
0000
0010
0000
0000
,
1000
0001
1000
0001
,
0100
0100
0100
0001
,
1000
1000
1000
0010
,
0100
0100
0100
0001
,
1000
0100
1000
0000
0001
0100
0001
0000
,
1000
1000
1000
0001
,
0010
0010
0010
0100
,
1000
0100
1000
0000
0001
0010
0001
0000
,
1000
0100
1000
0001
1000
0000
0001
0000
,
0100
0100
0001
0001
,
1000
1000
0010
0010
,
1000
0100
1000
0000
0001
0010
0001
0000
,
1000
0100
1000
0000
0100
0000
0100
0000
,
1000
1000
0001
0001
,
0100
0100
0010
0010
,
1000
0001
1000
0000
0001
1000
0001
0000
,
0010
0100
0010
0000
0001
1000
0001
0000
,
1000
0100
1000
0000
0001
0000
0001
0000
,
1000
0001
1000
0000
0100
0000
0010
0000
,
1000
0100
1000
0000
0001
0010
0001
0000
,
0100
1000
0100
0000
1000
0000
1000
0000
,
0001
0100
0001
0000
0010
0000
0010
0000
,
1000
0001
1000
0000
0100
0000
0010
0000
,
0001
1000
0001
0000
0010
0100
0010
0000
,
2000
0000
0100
0000
,
3010
0000
0000
0000
,
1000
1000
1000
0001
,
0100
0001
0100
0000
0001
0000
0000
0000
,
0010
0010
0010
0001
,
1000
0001
1000
0000
0100
0000
0010
0000
,
1000
1000
1000
0001
,
0100
0001
0100
0000
0001
0000
1000
0000
,
0010
0010
0010
1000
,
0001
1000
0001
0000
1000
0000
0000
0000
,
0100
0100
0100
0001
,
1000
0001
1000
0000
0001
1000
0001
0000
,
0010
0010
0010
0001
,
1000
0100
1000
0000
0001
0010
0001
0000
,
1000
1000
1000
0010
,
1000
0100
1000
0000
0001
1000
0001
0000
,
0100
0100
0010
0010
,
1000
0100
1000
0100
1000
0100
1000
0000
,
0001
0100
0001
0000
1000
0100
1000
0000
,
0010
0010
0001
0001
,
1000
0001
1000
0000
0100
0010
0100
0000
,
1000
1000
0100
0100
,
1000
0010
1000
0000
0001
1000
0001
0000
,
0100
0100
0001
0001
,
1000
0001
1000
0000
0010
0100
0010
0000
,
1000
0100
1000
0100
,
0001
1000
0001
0000
1000
0000
1000
0000
,
0010
0100
0010
0000
0100
0000
0100
0000
,
0001
1000
0001
0000
1000
0001
1000
0000
,
0100
0100
0010
0000
,
0001
1000
0001
0000
1000
0000
1000
0000
,
0001
0010
0001
0000
0010
0000
0010
0000
,
1000
0100
1000
0000
0010
0000
0010
0000
,
2000
0000
0000
0000
,
3001
0000
0000
0000
,
0100
0100
0001
0000
,
1000
1000
0001
0000
,
0100
0010
0100
0000
0001
1000
0001
0000
;

//---------------dance-single - Copied from----------------
#NOTES:
     dance-single:
     Copied from:
     Hard:
     9:
     0.512420,0.542615,0.064340,0.024127,0.008042,446.000000,438.000000,8.000000,3.000000,0.000000,0.000000,0.512420,0.542615,0.064340,0.024127,0.008042,446.000000,438.000000,8.000000,3.000000,0.000000,0.000000:
0000
0000
0000
0000
,
0000
0000
0000
0000
,
0000
1000
0100
1000
0001
1000
0000
1000
,
0100
0000
0000
0100
0000
1000
0001
1000
,
0000
0010
0100
0010
0100
0010
0000
1000
,
0001
0000
0000
0001
0001
0010
0100
0010
,
0000
0001
1000
0001
1000
0001
0000
0100
,
0000
0010
0000
0100
0000
0010
1000
0010
,
0000
0001
1000
0001
1000
0001
0000
1001
,
0000
1001
0000
1001
0000
0000
0000
0000
,
0110
0000
0110
0000
0000
0010
0000
0000
,
0100
0000
0100
0010
0000
0010
0000
1000
,
0001
0000
0001
0000
0000
0001
0000
0000
,
1000
1000
1000
0000
0100
0000
0100
0000
,
0010
0010
0010
0000
,
0001
0000
0001
1000
0000
0001
0000
0100
,
0001
0000
0001
0000
0000
0100
0000
0000
,
0010
0010
0010
1000
0002
0000
1003
0000
,
0010
0000
0010
0000
0010
1000
0100
1000
,
0010
0000
0010
0010
0000
1000
0000
0001
,
1000
0000
1000
0000
0000
1000
0000
0001
,
1000
0010
0100
0001
1000
0000
0011
0000
,
0100
0000
0100
0000
0100
1000
0100
1000
,
0010
0000
0010
1000
0000
1000
0000
1000
,
0001
0000
0000
0001
0000
0000
0001
0000
,
0100
0000
0001
0000
1000
0000
0001
0000
0100
0000
0001
0000
1000
0001
0000
0000
,
0000
0001
0001
1000
0001
1000
0000
0001
,
1000
1000
0001
1000
0001
1000
0001
1000
,
0000
0010
0010
0100
0010
0100
0000
0010
,
1000
1000
1000
0100
1000
0100
1000
0100
,
0000
0010
0010
0001
0010
0001
0000
0010
,
0000
0100
1000
0100
1000
0100
1000
0100
,
0000
0010
0010
0100
0010
0100
0000
0000
,
0000
0001
0001
1000
0001
1000
0001
1000
,
0010
0100
0001
1000
0100
0010
0001
0000
,
1000
0010
0100
0001
1000
0100
0010
0000
,
0001
1000
0001
1000
0010
1000
0001
0000
,
0010
0100
0001
1000
0100
0000
0001
0000
,
0100
0010
0001
0010
0100
0010
0001
0000
,
0010
1000
0001
1000
0100
1000
0100
0000
,
0010
0100
0001
1000
0100
0010
0001
2000
,
0001
0000
0010
3000
,
1001
0000
0000
0000
0000
0000
0000
0000
0000
0000
1000
0100
0010
0000
0000
0000
,
1000
0001
1000
0001
1000
0001
0000
0100
,
0001
0000
0000
0001
0000
0010
0001
0010
,
0000
0100
1000
0100
1000
0100
0000
1000
,
0001
0000
0000
0001
0001
0100
0001
0100
,
0000
0010
1000
0001
0010
0100
0000
0001
,
0000
0001
0000
0001
0000
0010
1000
0001
,
0000
0100
1000
0100
1000
0010
0000
0100
,
0000
0100
0000
0100
0000
0000
0000
0001
,
0000
0000
0001
0000
0001
1000
0010
0001
,
0100
0000
0100
0100
0001
1000
0100
0010
,
0001
0000
0001
0000
0000
0010
0000
1000
,
0100
0010
0001
1000
0010
0000
1001
0000
,
0100
0000
0100
0000
0100
0010
1000
0001
,
0010
0000
0010
0010
0000
0100
1000
0001
,
1000
0000
0000
1000
0000
0000
1000
0000
,
1000
0100
0010
0001
1000
0010
0100
0001
,
0000
1000
1000
0100
1000
0100
0000
0001
,
1000
1000
0001
1000
0001
1000
0001
1000
,
0000
0010
0010
0100
0010
0100
0000
0100
,
0010
0010
0010
1000
0001
0010
0100
1000
,
0000
0001
0001
1000
0001
1000
0000
0010
,
0000
0100
0100
0010
0100
0100
0010
0100
,
0000
0001
0001
1000
0001
1000
0000
0000
,
0000
1000
0100
0010
0001
1000
0010
0100
,
0001
1000
0100
1000
0001
0000
0000
0000
,
0010
0100
1000
0100
0010
0000
0010
0000
,
0001
1000
0001
0010
0100
1000
0001
0000
,
0010
1000
0010
1000
0010
0000
0001
0000
,
1000
0010
1000
0001
0100
0010
1000
0100
,
0010
0100
1000
0100
1000
0010
0100
0010
,
0001
0010
0001
0100
0010
0100
0010
0100
,
2000
0000
0000
0000
,
3010
0000
0000
0000
,
1000
0000
0010
1000
0001
1000
0000
0010
,
0100
1000
0000
1000
0000
1000
0100
0010
,
0000
0001
1000
0010
0100
0001
0000
1000
,
0000
1000
0000
1000
0000
0000
0000
0000
;

//---------------dance-single - Copied from Copied f----------------
#NOTES:
     dance-single:
     Copied from Copied f:
     Challenge:
     14:
     0.736460,0.797963,1.391346,0.176934,0.036191,641.000000,468.000000,173.000000,22.000000,0.000000,0.000000,0.736460,0.797963,1.391346,0.176934,0.036191,641.000000,468.000000,173.000000,22.000000,0.000000,0.000000:
0000
0000
0000
0000
,
0000
0000
0000
0000
,
1001
0100
0011
0010
0100
1100
0000
0100
,
1001
0000
0000
1001
0000
0100
0011
0100
,
0001
0100
0011
0100
0010
1100
0000
0001
,
0110
0000
0000
1001
1001
0100
0011
0100
,
1001
1000
1100
0010
0001
0110
0000
0010
,
1001
0110
0000
0110
0000
0110
0100
0010
,
0000
0100
1010
0100
0010
0101
0000
0110
,
0000
0000
0110
0000
0000
0000
0110
0000
0000
0000
1000
0100
0010
0000
0100
0000
,
1001
0000
1001
0000
0000
1001
0000
0000
,
1001
0000
1100
1100
0100
1100
1000
1100
,
1100
0000
1001
0000
0000
1001
0000
0000
,
0110
0110
0110
0000
0110
0001
0110
0001
,
0110
0000
1100
0010
1100
1000
0000
0100
,
1100
0000
1100
1100
1000
1100
1000
1100
,
1100
0000
0100
0010
0000
1000
0000
0010
,
1100
1100
1100
0010
0001
0000
1001
0000
,
1100
0000
1100
0000
1100
0010
0001
0010
,
1100
0000
1100
1100
1000
1100
0100
1100
,
1100
0000
1100
0000
0000
1100
0010
1100
,
1100
1001
1001
0100
0011
0100
1100
0000
,
1100
0000
1100
0000
1100
0001
0010
0001
,
1100
0000
1100
1100
0000
1100
0010
1100
,
1100
0000
0000
1001
0000
0000
1001
0000
,
0110
0000
0110
0000
0110
0000
0110
0000
0110
0000
0110
0000
0100
0010
0000
0000
,
0000
1000
1000
0100
1000
0100
0000
0010
,
0001
0010
0010
0001
0010
0001
0010
0001
,
0000
0100
0100
1000
0100
0010
0000
1000
,
1100
1100
1100
0100
1100
0100
1100
1000
,
0002
1000
0023
0100
0032
0100
0023
0032
,
0003
0200
0310
1000
0100
0100
0010
0100
,
0000
0100
0100
1000
0100
1000
0000
0000
,
0000
0010
0001
0010
0010
0001
0010
0100
,
1001
0000
0100
0010
0100
0000
0002
0000
0100
0000
0013
0000
0100
0000
1000
0000
,
0000
0000
0100
2000
0100
3010
0001
0010
,
0000
0000
0100
1000
0100
0010
0000
1000
,
0000
1000
0001
1000
0000
0000
0011
0000
,
1001
0000
0000
2001
0100
3010
0001
0010
,
0000
0000
0000
0201
0000
1300
0000
0010
,
1000
0000
0100
0010
0001
0010
0100
1000
,
0002
0000
0000
0000
0000
0000
0000
0010
,
1003
0000
0000
0000
0000
0000
0000
0000
0000
0000
1000
0100
0010
0000
0100
0000
,
1001
0100
0011
0100
0010
0011
0000
0100
,
0011
0000
0000
0011
0000
0100
0011
0100
,
1000
0100
0011
0100
0010
1100
0000
0001
,
0110
0000
0000
1001
1001
0100
1001
0100
,
0001
1000
0011
0010
0001
0011
0000
0010
,
1001
0110
0000
0110
0000
0110
0100
0010
,
0000
0100
0011
0100
0010
1100
0000
0110
,
0000
0000
0110
0000
0000
0000
0110
0000
0000
0000
1000
0100
0010
0000
0100
0000
,
1001
0000
0001
0010
0100
0000
0000
0000
1010
0000
0001
0000
0100
0000
0001
0000
,
1010
0000
1010
1010
1000
1010
0010
1010
,
1010
0000
1010
0000
0000
1010
0010
1010
,
1010
1001
1001
1000
0001
1000
1010
0000
,
1010
0000
1010
0000
1010
0100
1000
0100
,
1010
0000
1010
1010
0000
1010
0010
1010
,
1010
0000
0000
0110
0000
0000
0110
0000
,
1001
0000
1001
0000
1001
0000
1001
0000
1001
0000
1001
0000
1000
0001
0000
0000
,
0000
0010
0010
1000
0010
1000
0000
0001
,
0100
0001
0001
0100
0001
0100
0001
0100
,
0000
1000
1000
0010
1000
0001
0000
0010
,
1010
1010
1010
1000
1010
0010
1010
1000
,
2000
0010
3200
0001
0302
1000
0203
0302
,
0000
2003
3001
0010
1000
1000
0010
0100
,
0000
0100
0100
0010
0010
1000
0000
0000
,
0000
1000
1000
0001
0001
0100
0010
0100
,
1001
0000
0100
0010
0100
0000
0002
0000
0100
0000
0013
0000
0100
0000
1000
0000
,
0000
0000
0100
2000
0100
3010
0001
0010
,
0000
0000
0100
1000
0100
0010
0000
1000
,
0000
1000
0001
1000
0000
0000
0011
0000
,
1001
0000
0000
2001
0100
3010
0001
0010
,
0000
0000
0000
0201
0000
1300
0000
0010
,
1000
0000
0100
0010
0001
0010
0100
1000
,
0002
0000
0000
0000
0000
0000
0000
0010
,
1003
0000
0000
0000
0000
0000
0000
0000
0000
0000
1000
0100
0010
0000
0010
0000
,
1001
0100
0011
0100
0010
0011
0000
0100
,
1000
0011
0000
0011
0000
0011
0010
0100
,
1000
0100
0011
1000
0100
0011
0000
1001
,
0000
1001
0000
1001
0000
0000
0000
0000
;
