#TITLE:Ponytail To Shushu;
#SUBTITLE:;
#ARTIST:AKB48;
#TITLETRANSLIT:;
#SUBTITLETRANSLIT:;
#ARTISTTRANSLIT:;
#GENRE:;
#CREDIT:;
#BANNER:AV.avi;
#BACKGROUND:PonyTail-bg.png;
#LYRICSPATH:;
#CDTITLE:;
#MUSIC:Ponytail To Shushu - AKB48.mp3;
#OFFSET:-0.224000;
#SAMPLESTART:66.120010;
#SAMPLELENGTH:17.000000;
#SELECTABLE:YES;
#DISPLAYBPM:79.000000:161.000000;
#BPMS:0.000000=80.010002
,16.000000=160.020004
,220.000000=80.010002
,236.000000=160.020004
,268.000000=80.010002
,276.000000=160.020004
,302.000000=80.010002
,318.000000=160.020004
,394.500000=150.020004
,395.000000=140.020004
,395.500000=130.020004
,396.000000=120.019997
,396.500000=110.019997
,397.000000=100.019997
,397.500000=90.019997
,398.000000=40.020000
,398.500000=320.019989
,399.000000=320.029999
,400.000000=160.029999
;
#STOPS:300.000000=0.200000,
300.500000=0.200000,
301.000000=0.200000,
301.500000=0.160000,
400.000000=0.400000
;
#BGCHANGES:0.000=MV.avi=1.000=1=1=1=StretchRewind==CrossFade==,
99999=-nosongbg-=1.000=0=0=0 // don't automatically add -songbackground-
;
#KEYSOUNDS:;
#ATTACKS:;

//---------------dance-single - ----------------
#NOTES:
     dance-single:
     :
     Challenge:
     13:
     0.622518,0.997952,1.360023,0.260902,0.152656,785.000000,540.000000,245.000000,47.000000,0.000000,0.000000,0.622518,0.997952,1.360023,0.260902,0.152656,785.000000,540.000000,245.000000,47.000000,0.000000,0.000000:
0000
0000
0000
0000
,
0000
0000
0000
0000
,
0000
0000
0000
0000
,
0000
0000
0000
0000
,
1001
0110
0110
1001
,
1010
0101
0110
1001
,
0110
0110
0011
1100
,
2020
3030
0220
0330
0202
0303
0220
0330
,
0202
0303
1010
0000
0101
0000
0110
0000
,
1010
0110
0101
0110
,
1001
1010
0101
0110
,
0101
0110
0101
0110
,
0101
1000
0100
1000
0100
0010
1000
0010
,
0100
0001
0010
0100
0001
1001
1001
1001
,
0100
0010
0001
1000
0010
0100
1000
0100
,
0010
0100
0001
0100
0010
1001
1001
1001
,
2010
0000
0001
0000
3010
0000
0100
0010
,
0100
1010
0101
0110
,
0101
0000
1010
0000
0010
1010
1010
1010
,
0110
0101
0110
0101
,
2010
0000
0010
0000
0010
0000
3001
0100
,
0010
1001
1010
1001
,
1010
0000
0110
0000
0101
0000
0110
0101
,
0000
1000
0100
0010
0001
0010
0100
0001
,
0110
1010
0101
0110
,
0101
0110
1010
0110
,
0110
0000
0101
0000
0110
1001
1001
1010
,
1010
0000
1001
0010
1000
0001
0100
0010
,
0101
0000
0010
1000
0001
0000
0100
0010
,
0100
0000
1000
0001
1000
0000
0010
0100
,
0101
0010
1000
0001
0100
0010
0100
0110
,
0001
1010
0001
0110
0110
1000
1010
0001
,
1100
0000
0000
0000
0000
0000
0110
0000
0000
0000
1000
0100
0010
0000
0101
0000
,
0000
0110
0000
0101
0110
0000
0101
0000
,
0110
0000
0000
0000
0000
0000
1001
0000
0000
0000
1000
0100
0010
0000
0101
0000
,
0000
0110
0000
0101
0110
0000
0101
0000
,
1010
0000
0000
1000
0010
0000
0000
0100
,
0000
0010
0000
1000
0001
0000
0100
0000
,
1010
0000
0110
0000
0101
0000
0110
0101
,
0000
0000
0110
0000
0000
0000
1000
0100
1000
0000
1000
0000
0001
0000
1000
0000
,
0210
0010
0001
0310
,
1002
1000
0100
1003
,
2010
0010
0100
3010
,
0102
1000
0100
0013
,
0210
0010
0001
1300
,
2010
0001
0010
3001
,
0210
0001
1000
0310
,
0102
1000
0100
0013
,
2100
0100
0010
3001
,
0120
1000
0100
0031
,
0201
0010
1000
0301
,
1002
0100
1000
0013
,
2100
0010
0010
3010
,
0201
0010
0001
0310
,
1002
0100
1000
0013
,
1001
0000
0000
1010
1010
0000
0000
0110
0000
0101
0000
0110
0101
0000
0110
0000
,
1001
0000
0000
1010
1010
0000
0000
0110
0000
0101
0000
0100
0010
0100
0010
0100
,
1001
0000
0000
1100
1100
0000
0000
1010
0000
1001
0000
0110
0101
0000
0110
0000
,
1001
0000
1010
0000
1001
0000
1010
1001
0000
1000
0100
0010
0001
0010
0100
0001
,
0110
0001
1000
0100
1000
0001
1000
0010
,
0100
0010
1000
0100
0001
0010
0100
0001
,
0100
0010
0100
0001
1000
0100
0010
0001
,
2100
0010
0001
0010
,
3100
0000
0110
1001
0000
0000
0110
0000
,
0101
0000
1001
1001
0000
0000
0110
0000
,
1000
0100
0010
0001
1000
0010
0100
0010
,
0110
1001
0000
0110
0000
0110
0000
0000
,
1001
0000
0010
0000
0100
0000
0010
1001
0000
1000
0010
0100
0001
0100
0010
0100
,
0101
0000
0010
0000
1001
1001
0000
0110
0000
0110
0000
0100
1000
0100
0001
1000
,
0010
0100
0010
0100
0001
0100
0010
1001
,
0100
0010
0100
0001
0100
0010
0100
2010
,
0001
0001
0010
0100
0001
0001
0010
3100
,
0102
0010
0100
0010
1000
0100
0010
0103
,
2010
0001
0100
0010
0001
0100
0010
3100
,
0102
1000
0100
0010
0100
0010
0100
0013
,
1010
1001
0110
1010
2002
0000
0000
3003
,
0220
0000
0000
0330
2020
0000
0000
3030
,
0101
0000
0000
0000
0000
0000
1000
0010
1000
0000
0000
0000
1001
0000
0000
0000
0110
0000
0000
0000
1001
0000
0000
0000
1010
0000
0000
0000
1001
0000
0000
0000
,
1100
0000
0101
0000
0110
0000
0101
0000
0110
0000
0101
0000
0110
0000
0101
0110
,
0000
1001
0000
1010
0000
1001
1001
0000
0210
0000
0000
0000
0001
0000
0000
0000
,
0010
1300
1002
0100
,
1000
0013
2010
0100
,
0010
3001
0102
0100
,
1000
0103
2010
0100
,
0010
3001
0102
0100
,
1000
0103
2001
0100
,
0010
0000
3100
0001
0101
0110
0000
0110
,
0000
1001
1001
0000
1010
0000
1001
0000
,
1010
1001
0110
0101
,
0110
1001
1100
0000
,
1001
0000
0110
1001
,
1010
1001
0110
0101
,
0110
0101
1010
1100
,
1010
1001
1100
0110
,
0011
0110
1100
0110
,
1001
1010
0101
0110
,
0101
0000
0000
0000
0110
0000
0000
0000
1001
0010
1000
0001
0010
0100
0001
1000
,
0010
0100
0001
1000
0010
0100
1000
0100
0010
0001
0010
0100
1000
0100
0010
0001
,
0010
0100
1000
0010
0100
0001
1000
0010
2002
0000
0000
0000
0000
0000
0000
0000
,
0000
0000
0000
0000
0000
0000
0000
3003
;

//---------------dance-single - Copied from----------------
#NOTES:
     dance-single:
     Copied from:
     Hard:
     9:
     0.446468,0.554447,0.349720,0.294209,0.024980,563.000000,500.000000,63.000000,53.000000,0.000000,0.000000,0.446468,0.554447,0.349720,0.294209,0.024980,563.000000,500.000000,63.000000,53.000000,0.000000,0.000000:
// measure 0
0000
0000
0000
0000
,  // measure 1
0000
0000
0000
0000
,  // measure 2
0000
0000
0000
0000
,  // measure 3
0000
0000
0000
0000
,  // measure 4
2100
3100
0120
0130
,  // measure 5
0012
0013
2100
3100
,  // measure 6
0120
0130
0012
0013
,  // measure 7
1001
1100
0110
0011
,  // measure 8
2100
3100
0120
0130
,  // measure 9
0012
0013
2100
3100
,  // measure 10
0001
1000
0010
1000
0001
1000
0100
0000
,  // measure 11
0100
0010
0100
0001
0100
0010
0100
0000
,  // measure 12
0001
1000
0100
0010
0001
1000
0010
0100
,  // measure 13
0001
1000
0100
0010
0001
0010
0010
0010
,  // measure 14
0001
1000
0100
1000
0001
0100
0010
1000
,  // measure 15
0001
0010
0100
1000
0001
0100
0100
0100
,  // measure 16
0001
0000
1000
0000
0010
0000
0100
0010
,  // measure 17
0100
0010
1000
0100
,  // measure 18
0010
0000
0001
0000
1000
0100
1000
0001
,  // measure 19
1000
0010
0100
0001
,  // measure 20
0010
0000
0100
0000
1000
0000
0001
1000
,  // measure 21
0001
0100
0010
1000
,  // measure 22
0001
0000
0010
0000
0100
0000
1000
0001
,  // measure 23
0000
1000
0100
0010
0001
1000
0100
0100
,  // measure 24
0002
1003
0020
0130
,  // measure 25
2000
3001
0020
0130
,  // measure 26
1000
0100
1000
0000
0001
0010
0001
0000
,  // measure 27
0100
1000
0001
0100
0010
0000
1001
0000
,  // measure 28
0100
1000
0100
0000
0010
0001
0010
0000
,  // measure 29
0100
1000
0001
0000
0100
0010
0100
0000
,  // measure 30
1000
0100
0010
0001
1000
0010
0100
0001
,  // measure 31
0000
0001
0000
0001
0100
0000
0010
0000
,  // measure 32
1000
0000
0000
0000
0000
0000
1000
0000
0000
0000
0100
1000
0100
0000
0000
0000
,  // measure 33
0010
0000
0010
0100
,  // measure 34
0001
0000
0000
0000
0000
0000
0000
0000
0001
0000
1000
0001
1000
0000
0010
0000
,  // measure 35
0000
0010
0000
0010
0100
0000
0010
0000
,  // measure 36
0110
0000
1000
0100
1000
0000
0001
0010
,  // measure 37
0001
0000
0100
1000
0001
0000
1000
0000
,  // measure 38
0110
0011
1100
1001
,  // measure 39
0110
0000
0011
0000
0100
0010
0100
0010
,  // measure 40
0002
0013
2000
3100
,  // measure 41
0020
0000
0130
0000
0001
1000
0001
1000
,  // measure 42
0002
0013
2000
3010
,  // measure 43
0020
0000
0130
0000
0001
1000
0100
0010
,  // measure 44
0002
0013
2000
3100
,  // measure 45
0020
0000
0130
0000
0001
1000
0001
1000
,  // measure 46
0002
0013
0200
0310
,  // measure 47
2000
0000
3010
0000
0100
0010
0100
0010
,  // measure 48
0200
0310
0002
0013
,  // measure 49
0200
0000
1300
0000
0010
1000
0001
1000
,  // measure 50
0020
0130
2000
3001
,  // measure 51
0002
0000
0013
0000
0100
1000
0001
1000
,  // measure 52
0020
0130
2000
3001
,  // measure 53
0020
0000
0130
0000
1000
0100
0010
0001
,  // measure 54
2000
3010
0002
0103
,  // measure 55
1000
0000
1000
0000
0100
0010
0100
0000
,  // measure 56
0001
0000
0001
0000
1000
0001
1000
0000
,  // measure 57
0001
0000
0100
0000
0010
0100
0010
0000
,  // measure 58
1100
0000
0110
0000
1001
0001
1000
0001
,  // measure 59
1001
0010
0100
0010
,  // measure 60
1100
0001
0010
0100
,  // measure 61
1001
0010
0100
0001
,  // measure 62
1000
1000
0100
0100
,  // measure 63
0011
0000
0100
1000
0000
0000
0010
0000
,  // measure 64
0100
0000
0001
1000
0000
0000
0010
0000
,  // measure 65
0110
0001
1000
0100
,  // measure 66
0110
0000
0001
0000
1000
0010
1000
0010
,  // measure 67
1000
0000
0010
0000
0100
0000
0010
0000
1000
0000
0100
0000
1000
0100
1000
0100
,  // measure 68
1000
0000
0010
0000
0100
0000
0001
0000
0010
0000
0100
0000
1000
0100
1000
0000
,  // measure 69
0010
0000
0100
0000
0001
0100
0001
0000
,  // measure 70
1000
0000
0010
0000
0100
0010
0100
0000
,  // measure 71
2000
3010
0020
0130
,  // measure 72
0002
0013
2000
3100
,  // measure 73
0020
0130
2000
3100
,  // measure 74
0110
1010
1001
1010
,  // measure 75
1000
0100
0010
0001
2000
0000
3100
0000
,  // measure 76
0020
0130
0002
0013
,  // measure 77
1010
0110
1002
1003
,  // measure 78
0120
0000
0000
0000
0130
0000
0000
0000
0012
0000
0000
0000
0013
0000
0000
1000
,  // measure 79
0000
0100
0000
0010
0000
0001
1000
0000
1001
0000
0000
0000
0100
0000
0000
0000
,  // measure 80
0010
0100
0010
0000
1000
0000
0001
0000
,  // measure 81
0010
0100
0010
0000
0001
1000
0001
0000
,  // measure 82
0100
0010
0100
0000
1000
0100
0010
0001
,  // measure 83
1000
0100
0010
0000
0001
1000
0010
0000
,  // measure 84
0100
0010
0100
0000
0001
1000
0001
0000
,  // measure 85
0010
0100
0001
0000
0010
0100
0010
0000
,  // measure 86
0001
1000
0010
0000
1000
0100
0010
0001
,  // measure 87
1000
0100
0010
0000
1001
0000
0110
0000
,  // measure 88
0011
1100
1001
0110
,  // measure 89
0011
0100
1000
0000
1002
0000
0000
0003
,  // measure 90
2001
0000
0000
3000
0110
0000
0011
0000
,  // measure 91
0100
1000
0001
1000
1100
0000
0110
0000
,  // measure 92
0001
0010
0100
1000
1001
0000
0110
0000
,  // measure 93
0001
0010
0100
1000
1100
0000
0110
0000
,  // measure 94
0011
0000
1100
0000
1001
0010
0100
0000
,  // measure 95
0001
1000
0100
0000
0001
0010
0100
1000
,  // measure 96
0002
0000
1003
0000
0110
0001
0010
0100
,  // measure 97
1000
0001
0100
0010
1000
0001
0010
0100
,  // measure 98
1001
0100
0010
0100
2000
0000
0000
0000
,  // measure 99
0000
0000
0000
0000
0000
0000
0000
0000
0000
0000
0000
0000
0000
0000
0000
0000
0000
0000
0000
0000
0000
0000
0000
0000
0000
0000
0000
0000
0000
0000
0000
0000
0000
0000
0000
0000
0000
0000
0000
0000
0000
0000
0000
0000
0000
0000
0000
0000
0000
0000
0000
0000
0000
0000
0000
0000
0000
0000
0000
0000
0000
0000
0000
0000
0000
0000
0000
0000
0000
0000
0000
0000
0000
0000
0000
0000
0000
0000
0000
0000
0000
0000
0000
0000
0000
0000
0000
0000
0000
0000
0000
0000
0000
0000
0000
0000
0000
0000
0000
0000
0000
0000
0000
0000
0000
0000
0000
0000
0000
0000
0000
0000
0000
0000
0000
0000
0000
0000
0000
0000
0000
0000
0000
0000
0000
0000
0000
0000
0000
0000
0000
0000
0000
0000
0000
0000
0000
0000
0000
0000
0000
0000
0000
0000
0000
0000
0000
0000
0000
0000
0000
0000
0000
0000
0000
0000
0000
0000
0000
0000
0000
0000
0000
0000
0000
0000
0000
0000
0000
3000
0000
0000
0000
0000
0000
0000
0000
0000
0000
0000
0000
0000
0000
0000
0000
0000
0000
0000
0000
0000
0000
0000
;

//---------------dance-single - Copied from Copied f----------------
#NOTES:
     dance-single:
     Copied from Copied f:
     Medium:
     5:
     0.223631,0.360371,0.022204,0.011102,0.000000,282.000000,278.000000,4.000000,2.000000,0.000000,0.000000,0.223631,0.360371,0.022204,0.011102,0.000000,282.000000,278.000000,4.000000,2.000000,0.000000,0.000000:
0000
0000
0000
0000
,
0000
0000
0000
0000
,
0000
0000
0000
0000
,
0000
0000
0000
0000
,
1000
1000
1000
0000
,
0100
0100
0100
0000
,
0010
0010
0010
0000
,
1000
0100
0010
0001
,
0010
0010
0010
0000
,
0001
0001
0001
0000
,
1000
0100
0010
0001
,
0010
0100
0010
1000
,
0001
0000
0000
0000
,
0000
0000
0000
0000
0000
1000
0001
1000
,
0000
0000
0000
0000
,
0000
0000
0000
0000
0000
0010
0100
0010
,
1000
0000
0001
0000
,
1000
0001
1000
0000
,
0010
0000
0100
0000
,
1000
0001
1000
0000
,
0010
0000
1000
0000
,
0001
1000
0001
0000
,
0100
0010
1000
0000
,
0001
1000
0001
1000
,
0010
0010
0100
0000
,
1000
1000
0001
0000
,
0100
0100
0010
0000
,
0001
1000
0001
0000
,
0100
1000
0010
0000
,
0001
1000
0001
0000
,
0010
0000
0100
0000
,
0010
1000
0001
0000
,
1000
0000
1000
0000
,
1001
0000
0000
0000
,
0010
0000
0010
0000
,
0011
0000
0000
0000
,
1000
0000
1000
0000
,
1001
0000
0000
0000
,
1000
0000
1000
0000
,
0001
0001
1000
0001
,
0100
0000
0010
0000
,
1000
0000
0001
0000
,
0100
0000
1000
0000
,
0010
0000
1000
0000
,
0001
1000
0001
0000
,
0100
0010
0100
0000
,
1000
0001
1000
0000
,
0001
0010
0001
0000
,
0100
1000
0100
0000
,
0010
0001
0010
0000
,
1000
0001
1000
0000
,
0100
1000
0100
0000
,
0010
0001
0010
0000
,
1000
0001
1000
0000
,
0100
1000
0100
0000
,
1000
0001
1000
0000
0010
1000
0001
0000
,
1000
0001
1000
0000
0001
1000
0001
0000
,
0100
0010
0100
0000
0001
1000
0001
0000
,
1000
0000
0001
0000
0010
0100
0010
0100
,
0001
0000
0010
0000
,
1000
0000
0010
0000
,
1000
0000
0010
0000
,
1000
0100
0010
0001
,
0010
0000
0100
0000
,
0001
0000
0100
0000
,
0001
0000
1000
0000
,
0010
0010
0010
0001
,
0010
0000
0010
0001
,
1000
0000
0010
1000
,
0001
0000
1000
0000
,
0100
0000
1000
0000
,
0010
0001
0010
0000
,
1000
0100
1000
0000
,
0010
0001
0010
0000
,
1000
1000
1000
0000
,
0010
0010
0010
0010
0001
0000
0000
0000
,
0100
0000
0010
0000
,
0001
1000
0001
0100
,
0010
1000
0001
1000
,
0100
1000
0001
0001
,
0001
0000
0010
0010
,
0010
0000
1000
1000
,
1000
0000
0100
0010
,
0100
0000
0001
1000
,
0001
0000
0100
0010
,
1000
0000
0001
1000
,
0001
0000
0100
1000
,
0100
0000
0010
0010
,
0100
0100
0001
0001
,
1000
1000
0100
0000
,
1000
0000
0010
0010
,
0001
0000
1000
1000
,
0100
0000
1000
1000
,
0010
0000
1000
0100
,
0010
0001
0010
0000
,
0100
0000
1000
0000
,
0001
0000
1000
1000
,
0001
0001
0100
0100
,
0010
0010
0220
0000
,
0000
0000
0000
0000
0000
0000
0000
0330
;

//---------------dance-single - Copied from Copied f----------------
#NOTES:
     dance-single:
     Copied from Copied f:
     Easy:
     3:
     0.122125,0.194046,0.011102,0.011102,0.000000,154.000000,152.000000,2.000000,2.000000,0.000000,0.000000,0.122125,0.194046,0.011102,0.011102,0.000000,154.000000,152.000000,2.000000,2.000000,0.000000,0.000000:
0000
0000
0000
0000
,
0000
0000
0000
0000
,
0000
0000
0000
0000
,
0000
0000
0000
0000
,
0001
0000
0010
0000
,
0100
0000
0010
0000
,
1000
0000
0001
0000
,
0100
0010
0100
0010
,
0100
0000
0000
0000
,
0001
0000
0000
0000
,
1000
0000
0100
0000
,
1000
0000
1000
0000
,
0001
0000
0000
0000
,
0000
0000
1000
0000
,
0000
0000
0000
0000
,
0000
0000
0001
0000
,
1000
0000
0100
0000
,
1000
0000
0010
0000
,
0100
0000
0001
0000
,
0001
0000
0000
0000
,
1000
0000
0010
0000
,
1000
0000
0100
0000
,
1000
0000
0001
0000
,
1000
0000
0000
0000
,
0100
0000
1000
0000
,
0100
0000
1000
0000
,
0001
0000
1000
0000
,
0010
0000
0000
0000
,
1000
0000
0001
0000
,
0100
0000
0010
0000
,
1000
0000
0000
0000
,
1000
0000
0000
0000
,
0001
0000
0001
0000
,
0001
0000
0000
0000
,
1000
0000
1000
0000
,
1000
0000
0000
0000
,
0100
0000
0100
0000
,
0100
0000
0000
0000
,
0010
0000
0010
0000
,
0010
0000
0000
0000
,
1000
0000
0001
0000
,
1000
0000
0000
0000
,
0100
0000
1000
0000
,
0100
0000
0000
0000
,
0010
0000
0001
0000
,
0010
0000
0000
0000
,
0100
0000
1000
0000
,
0100
0000
0000
0000
,
0010
0000
0001
0000
,
0010
0000
0000
0000
,
0001
0000
1000
0000
,
0001
0000
0000
0000
,
1000
0000
0001
0000
,
1000
0000
0000
0000
,
0100
0000
1000
0000
,
0100
0000
0010
0000
,
1000
0000
0001
0000
,
0100
0000
1000
0000
,
0001
0000
1000
0000
,
1001
0000
0000
0000
,
1000
0000
0000
0000
,
0100
0000
0000
0000
,
0010
1000
0001
1000
,
0001
0000
0000
0000
,
1000
0000
0000
0000
,
0100
0000
0000
0000
,
0010
0000
0000
0000
,
1000
0000
0000
0000
,
1000
0000
0000
0000
,
0100
0000
1000
0000
,
0001
0000
1000
0000
,
0010
0000
0000
0000
,
0001
0000
0000
0000
,
1000
0000
0000
0000
,
0001
0000
0000
0000
,
1000
0001
1000
0000
,
0010
0000
1000
0000
,
0001
0000
1000
0000
,
0100
0000
0010
0000
,
1000
0000
0001
0000
,
1000
0000
0100
0000
,
1000
0000
0010
0000
,
0100
0000
0001
0000
,
0000
0000
1000
0000
,
0100
0000
1000
0000
,
0010
0000
1000
0000
,
0001
0000
1000
0000
,
0000
0000
0100
0000
,
1000
0000
0100
0000
,
0010
0000
0001
0000
,
0001
0000
0001
0000
,
0000
0000
1000
0000
,
0000
0000
0001
0000
,
0000
0000
1000
0100
,
0010
0001
0010
0000
,
0000
0000
1000
0000
,
0000
0000
0001
0000
,
0000
0000
0010
0000
,
0000
0000
2020
0000
,
0000
0000
0000
0000
0000
0000
0000
3030
;

//---------------dance-single - Copied from Copied f----------------
#NOTES:
     dance-single:
     Copied from Copied f:
     Beginner:
     1:
     0.084060,0.166325,0.011102,0.011102,0.000000,106.000000,104.000000,2.000000,2.000000,0.000000,0.000000,0.084060,0.166325,0.011102,0.011102,0.000000,106.000000,104.000000,2.000000,2.000000,0.000000,0.000000:
0000
0000
0000
0000
,
0000
0000
0000
0000
,
0000
0000
0000
0000
,
0000
0000
0000
0000
,
0001
0000
0000
0000
,
0100
0000
0000
0000
,
1000
0000
0000
0000
,
0100
0010
0100
0010
,
0100
0000
0000
0000
,
0001
0000
0000
0000
,
1000
0000
0000
0000
,
1000
0000
0000
0000
,
0001
0000
0000
0000
,
0000
0000
1000
0000
,
0000
0000
0000
0000
,
0000
0000
0001
0000
,
1000
0000
0000
0000
,
1000
0000
0000
0000
,
0100
0000
0001
0000
,
0000
0000
0000
0000
,
1000
0000
0000
0000
,
1000
0000
0000
0000
,
1000
0000
0000
0000
,
1000
0000
0000
0000
,
0100
0000
0000
0000
,
0100
0000
0000
0000
,
0001
0000
1000
0000
,
0000
0000
0000
0000
,
1000
0000
0000
0000
,
0100
0000
0000
0000
,
1000
0000
0000
0000
,
1000
0000
0000
0000
,
0001
0000
0000
0000
,
0001
0000
0000
0000
,
1000
0000
0000
0000
,
1000
0000
0000
0000
,
0100
0000
0000
0000
,
0100
0000
0000
0000
,
0010
0000
0000
0000
,
0010
0000
0000
0000
,
1000
0000
0000
0000
,
1000
0000
0000
0000
,
0100
0000
0000
0000
,
0100
0000
0000
0000
,
0010
0000
0000
0000
,
0010
0000
0000
0000
,
0100
0000
0000
0000
,
0100
0000
0000
0000
,
0010
0000
0000
0000
,
0010
0000
0000
0000
,
0001
0000
0000
0000
,
0001
0000
0000
0000
,
1000
0000
0000
0000
,
1000
0000
0000
0000
,
0100
0000
0000
0000
,
0100
0000
0010
0000
,
0000
0000
0001
0000
,
0100
0000
1000
0000
,
0000
0000
1000
0000
,
1001
0000
0000
0000
,
0000
0000
0000
0000
,
0100
0000
0000
0000
,
0010
1000
0001
1000
,
0001
0000
0000
0000
,
1000
0000
0000
0000
,
0000
0000
0000
0000
,
0010
0000
0000
0000
,
1000
0000
0000
0000
,
1000
0000
0000
0000
,
0100
0000
1000
0000
,
0000
0000
1000
0000
,
0000
0000
0000
0000
,
0001
0000
0000
0000
,
1000
0000
0000
0000
,
0001
0000
0000
0000
,
1000
0000
1000
0000
,
0000
0000
1000
0000
,
0000
0000
1000
0000
,
0000
0000
0010
0000
,
0000
0000
0001
0000
,
1000
0000
0000
0000
,
1000
0000
0000
0000
,
0100
0000
0000
0000
,
0000
0000
1000
0000
,
0000
0000
1000
0000
,
0000
0000
1000
0000
,
0000
0000
1000
0000
,
0000
0000
0100
0000
,
0000
0000
0100
0000
,
0000
0000
0001
0000
,
0000
0000
0001
0000
,
0000
0000
1000
0000
,
0000
0000
0001
0000
,
0000
0000
1000
0100
,
0010
0001
0010
0000
,
0000
0000
1000
0000
,
0000
0000
0001
0000
,
0000
0000
0010
0000
,
0000
0000
2020
0000
,
0000
0000
0000
0000
0000
0000
0000
3030
;
