#VERSION:0.83;
#TITLE:Point Break;
#SUBTITLE:;
#ARTIST:BanYa;
#TITLETRANSLIT:;
#SUBTITLETRANSLIT:;
#ARTISTTRANSLIT:;
#GENRE:;
#ORIGIN:;
#CREDIT:;
#BANNER:AV.avi;
#BACKGROUND:Point Break-bg.png;
#PREVIEWVID:;
#JACKET:;
#CDIMAGE:;
#DISCIMAGE:Point Break.png;
#LYRICSPATH:;
#CDTITLE:;
#MUSIC:Point Break.ogg;
#OFFSET:-0.720000;
#SAMPLESTART:5.697000;
#SAMPLELENGTH:15.000000;
#SELECTABLE:YES;
#BPMS:0.000=92.000;
#STOPS:;
#DELAYS:;
#WARPS:;
#TIMESIGNATURES:0.000=4=4;
#TICKCOUNTS:0.000=4;
#COMBOS:0.000=1;
#SPEEDS:0.000=1.000=0.000=0;
#SCROLLS:0.000=1.000;
#FAKES:;
#LABELS:0.000=Song Start;
#BGCHANGES:0.000=Point Break.avi=1.400=1=1=1=StretchRewind==CrossFade==,
3.000=Point Break.avi=1.000=0=0=1=====,
99999=-nosongbg-=1.000=0=0=0 // don't automatically add -songbackground-
;
#KEYSOUNDS:;
#ATTACKS:
;

//---------------dance-single - ----------------
#NOTEDATA:;
#CHARTNAME:;
#STEPSTYPE:dance-single;
#DESCRIPTION:;
#CHARTSTYLE:;
#DIFFICULTY:Medium;
#METER:6;
#RADARVALUES:0.260617,0.278038,0.175603,0.000000,0.000000,187.000000,169.000000,18.000000,0.000000,0.000000,0.000000,0.000000,0.000000,0.000000,0.260617,0.278038,0.175603,0.000000,0.000000,187.000000,169.000000,18.000000,0.000000,0.000000,0.000000,0.000000,0.000000,0.000000;
#CREDIT:;
#NOTES:
0000
0000
0000
0000
,
0000
0000
0000
0000
1000
0100
0010
0000
,
0110
0010
0001
0001
,
1000
0100
1000
0000
0001
0000
0001
0000
,
0100
0000
1000
0010
1000
0100
1000
0001
,
0100
0000
0100
0000
1000
0001
0000
0000
,
1001
1000
1001
0001
,
0001
0010
0001
0100
0001
0010
0001
0010
,
0100
0010
0010
1000
,
0100
0001
1000
0100
1000
0010
1000
0001
,
0100
0000
0100
0000
0001
0000
1000
0100
,
0010
1000
0001
1001
,
1000
0000
0001
0100
0001
0000
1000
0000
,
0010
0000
0000
0000
0000
0000
0010
0100
,
1000
0000
0100
0000
1000
0000
0010
0010
,
0001
0100
1000
0001
,
0001
1000
0010
0000
1000
0001
0100
0000
,
0001
1000
0100
1001
,
0100
0001
0010
0000
0001
0000
0100
0000
,
0010
1000
0001
0000
,
1010
1001
0110
0101
,
1001
0000
0000
0000
0000
0001
1000
0001
,
1000
0000
0000
0000
0100
0010
1000
0100
,
0010
0000
0010
0000
0000
0000
0010
0001
,
0100
0010
0001
0000
0010
0000
0010
0000
,
1000
1001
0001
1001
,
0100
0000
0100
1000
0100
0000
1000
0100
,
1000
0000
1000
0000
1000
0000
0010
1000
,
0001
0001
0001
1000
,
1000
0000
1000
0100
1000
0000
1000
0000
,
0100
0000
0000
0000
1000
0100
1000
0001
,
0010
0001
0100
0100
,
1000
0000
0000
0000
1000
0001
0100
0010
,
1000
0001
0000
1000
,
0100
1000
0010
0000
0001
0000
1000
0000
,
1010
1001
0110
0101
,
1001
0000
0000
0000
1000
0010
1000
0000
,
1001
0000
0000
0000
,
0100
0000
0000
0000
;

//---------------dance-single - Copied from----------------
#NOTEDATA:;
#CHARTNAME:Copied from;
#STEPSTYPE:dance-single;
#DESCRIPTION:Copied from;
#CHARTSTYLE:;
#DIFFICULTY:Challenge;
#METER:15;
#RADARVALUES:0.642484,0.685827,1.151175,1.287755,0.565832,461.000000,343.000000,118.000000,132.000000,0.000000,72.000000,0.000000,0.000000,0.000000,0.642484,0.685827,1.151175,1.287755,0.565832,461.000000,343.000000,118.000000,132.000000,0.000000,72.000000,0.000000,0.000000,0.000000;
#CREDIT:Copied from;
#NOTES:
// measure 0
0000
0000
0000
0000
,  // measure 1
0000
0000
0000
0000
0000
0000
0000
0000
0000
0000
0000
1000
1001
0000
0000
0002
0000
0110
0003
0000
0000
0000
0000
0100
,  // measure 2
0110
0000
0000
0000
0000
0000
0010
0000
0000
0000
0000
1000
1001
0000
0000
1001
0000
0000
0100
0000
0000
1001
0000
0000
,  // measure 3
1001
0000
0000
0000
0000
0000
0100
0000
0000
0000
0000
0000
1000
0000
0000
0000
0000
0000
0010
0000
0000
0000
0001
0000
1001
0000
0000
0000
0000
0000
0000
0000
0000
1001
0000
0000
0000
0000
0000
0000
0000
0000
0000
0000
0000
0000
0100
0000
,  // measure 4
0110
0000
0000
0000
0000
0000
2000
0000
0000
3020
0000
1000
1032
0000
0000
0203
0000
0000
2300
0000
0000
3002
0000
0000
,  // measure 5
2003
0000
0000
0000
0000
0000
0000
0000
0000
0000
0000
0000
3110
0000
0000
0000
0000
0000
0000
0000
0000
0000
1000
0000
1001
0000
0000
0000
0000
0000
0020
0000
0000
1001
0000
0000
0030
0000
0000
0000
0000
0000
0000
0000
0000
0000
1000
0000
,  // measure 6
1002
0000
0000
0000
0000
0000
1000
0000
0000
0000
0000
1000
1100
0000
0000
1010
0000
0000
0113
0000
0000
0100
0000
0000
,  // measure 7
0010
0000
0000
0000
0000
0000
2000
0000
0000
0000
0000
0000
3002
0000
0000
0000
0000
0000
0203
0000
0000
0000
0001
0000
2301
0000
0000
0000
0000
0000
3020
0000
0000
1100
0000
0000
0032
0000
0000
0000
0000
0000
2003
0000
0000
0000
0100
0000
,  // measure 8
3200
0000
0000
0000
0000
0000
0301
0000
0000
0000
0000
0001
1001
0000
0000
1001
0000
0000
0110
0000
0000
0100
0000
0000
,  // measure 9
0010
0000
0000
0002
0000
0000
2003
0000
0000
3200
0000
1000
2301
0000
0000
3020
0000
0000
2030
0000
0000
3002
0000
0100
,  // measure 10
0203
0000
0000
0000
0000
0000
1000
0000
0000
0000
0300
0001
1001
0000
0000
1001
0000
0000
2000
0000
0000
3002
0000
0000
,  // measure 11
0213
0000
0000
0000
0000
0000
0310
0000
0000
0000
0000
0000
2000
0000
0000
3200
0000
0000
0320
0000
0000
0000
0001
0000
0032
0000
0000
0000
0000
0000
0023
0000
0000
1100
0000
0000
0000
0000
0000
0000
0000
0000
0230
0000
0000
0000
1000
0000
,  // measure 12
2300
0000
0000
3020
0000
0000
0001
0000
0000
0230
0000
0001
0302
0000
0000
0010
0000
0000
2003
0000
0000
3200
0000
0000
,  // measure 13
0320
0000
0000
0000
0000
0000
0000
0000
0000
0000
0000
0000
0100
0000
0000
0000
0000
0000
0000
0000
0000
0000
0100
0000
0130
0000
0000
0000
0000
0000
0200
0000
0000
0011
0000
0000
1300
0000
0010
0000
0100
0000
1000
0000
0000
0000
0100
0000
,  // measure 14
1001
0000
0000
0010
0000
0000
0110
0000
0000
0001
0000
1000
1001
0000
0000
1001
0000
0010
0100
0000
1000
1001
0000
0000
,  // measure 15
1001
0000
0000
0000
0000
0000
0100
0000
0000
0000
0000
0000
0110
0000
0000
0000
0000
0000
0001
0000
0000
0000
1000
0000
1001
0000
0000
0000
0000
0000
0020
0000
0000
1001
0000
0000
0030
0000
0000
0000
0000
0000
0000
0000
0000
0000
0100
0000
,  // measure 16
0101
0000
0000
1000
0000
0000
0010
0000
0000
0100
0000
1000
1001
0000
0000
1001
0000
0000
0100
0000
0000
1001
0000
0000
,  // measure 17
1001
0000
0000
0000
0000
0000
0010
0000
0000
0000
0000
0000
0100
0000
0000
0000
0000
0000
0010
0000
0000
0000
1000
0000
1001
0000
0000
0000
0010
0000
0100
0000
0000
1001
0100
0000
0010
0000
0000
0110
0000
0000
0000
0000
0000
0000
0001
0000
,  // measure 18
1001
0000
0000
0100
0000
0000
0010
0000
0000
1000
0000
0001
1001
0000
0000
1001
0000
0000
0100
0000
0000
1001
0000
0000
,  // measure 19
1001
0000
0000
0000
0000
0000
0100
0000
0000
0000
0000
0000
1000
0000
0000
0000
0000
0000
0010
0000
0000
0000
0001
0000
1001
0000
0000
0000
0000
0000
0002
0000
0000
0110
0000
0000
0003
0000
0000
0000
0000
0000
0000
0000
0000
0000
1000
0000
,  // measure 20
2010
0000
0000
0000
0000
0000
3200
0000
0000
0000
0000
0000
2301
0000
0000
0000
0000
0000
3002
0000
0000
0000
0100
0000
0123
0000
0000
0000
0000
0000
2031
0000
0000
3020
0000
0000
0132
0000
0000
0000
0000
0000
0123
0000
0000
0000
0000
0000
,  // measure 21
1032
0000
0000
0000
0000
0000
0000
0000
0000
0000
0000
0000
0110
0000
0000
0000
0000
0000
0000
0000
0000
0000
1000
0000
1100
0000
0000
0000
0000
0000
0023
0000
0000
1100
0000
0000
0031
0000
0010
0000
0100
0000
1000
0000
0000
0000
0100
0000
,  // measure 22
1002
1010
0000
0110
0110
2013
3200
0320
,  // measure 23
1032
0000
0000
0000
0000
0000
1100
0000
0000
0000
0000
0000
0000
0000
0000
0000
0000
0000
0000
0000
0000
0000
1000
0000
1100
0000
0000
0000
0000
0000
0000
0000
0000
1100
0000
0000
0023
0000
0000
0000
0000
0000
2030
0000
0000
0000
0001
0000
,  // measure 24
3002
0000
0000
0200
0000
0000
2303
0000
0000
0000
0000
0000
3200
0000
0000
0000
0000
0000
0000
0000
0000
0000
0010
0000
0011
0000
0000
0000
0000
0000
0311
0000
0000
0000
0000
0000
0000
0000
0000
0000
0000
0000
0000
0000
0000
0000
1000
0000
,  // measure 25
1100
0000
0000
0000
0000
0000
1001
0000
0000
0000
0000
0000
0000
0000
0000
0000
0000
0000
0000
0000
0000
0000
0000
0000
1001
0000
0000
0000
0000
0000
0000
0000
0000
1001
0000
0000
1000
0000
0010
0000
0100
0000
1000
0000
0000
0000
0100
0000
,  // measure 26
1020
0000
0000
1001
0000
0000
0000
0000
0000
0000
0000
1000
1001
0000
0000
1001
0000
0000
2030
0000
0000
0000
0000
0100
,  // measure 27
3210
0000
0000
0000
0000
0000
0011
0000
0000
0000
0000
0000
1000
0000
0000
0000
0000
0000
0000
0000
0000
0000
1000
0000
1310
0000
0000
0000
0000
0000
0000
0000
0000
1010
0000
0000
0020
0000
0000
0101
0000
0000
0000
0000
0000
0000
1000
0000
,  // measure 28
1032
0000
0000
1010
0000
0000
1000
0000
0000
0000
0000
0100
1100
0000
0000
1100
0000
0000
2003
0000
0000
3002
0000
1000
,  // measure 29
2103
0000
0000
0000
0000
0000
0110
0000
0000
0000
0000
0000
0001
0000
0000
0000
0000
0000
3200
0000
0000
0000
0010
0000
0011
0000
0000
0000
0000
0000
0000
0000
0000
0011
0000
0000
0000
0000
0000
1010
0000
0000
0000
0000
0000
0000
0001
0000
,  // measure 30
0321
0000
0000
1001
0000
0000
0000
0000
0000
0000
0000
1000
1001
0000
0000
0230
0000
0000
2300
0000
0000
3002
0000
0010
,  // measure 31
0023
0000
0000
0000
0000
0000
0030
0000
0200
0000
2300
0000
3002
0000
0000
0000
0000
0000
0000
0000
0000
0000
0100
0000
1100
0000
0000
0000
0000
0000
0000
0000
0000
1100
0000
0000
0023
0000
0030
0000
0200
0000
0320
0000
0000
0000
1000
0000
,  // measure 32
1032
0000
0000
1100
0000
0000
0010
0000
0000
0000
0000
1000
1203
0000
0000
0311
0000
0000
0200
0000
0000
0320
0000
1000
,  // measure 33
1230
0000
0000
0000
0000
0000
1010
0000
0000
0000
0000
0000
0302
0000
0000
0000
0000
0000
0000
0000
0000
0000
0010
0000
1010
0000
0000
0000
0000
0000
0000
0000
0000
1010
0000
0000
0003
0000
0000
1010
0000
0000
0000
0000
0000
0000
0100
0000
,  // measure 34
0120
0000
0000
2030
0000
0000
3020
0000
0000
0000
0000
0001
1001
0000
0000
1001
0000
0000
0032
0000
0000
0000
0000
1000
,  // measure 35
1023
0000
0000
0000
0000
0000
0000
0000
0000
0000
0000
0000
1032
0000
0000
0203
0000
0000
0320
0000
0000
0000
0000
0000
2030
0000
0000
0200
3000
0000
0000
0000
0000
0320
0000
0000
2030
0000
3200
0000
0320
0000
2030
0000
3002
0000
0203
0000
,  // measure 36
0320
2030
3002
0203
2300
3200
2300
3200
0302
0203
0320
2030
3002
0203
0320
2030
3002
0203
0320
0000
0000
0000
2000
3002
,  // measure 37
0233
0000
0000
1001
0000
0000
0000
0000
0000
0000
0000
1000
1001
0000
0000
0000
0000
0000
1300
0010
0100
1000
0000
0100
,  // measure 38
1001
0000
0000
0000
;

//---------------dance-single - Copied from Copied f----------------
#NOTEDATA:;
#CHARTNAME:Copied from Copied f;
#STEPSTYPE:dance-single;
#DESCRIPTION:Copied from Copied f;
#CHARTSTYLE:;
#DIFFICULTY:Hard;
#METER:10;
#RADARVALUES:0.377686,0.407789,0.087801,0.965816,0.219504,271.000000,262.000000,9.000000,99.000000,0.000000,0.000000,0.000000,0.000000,0.000000,0.377686,0.407789,0.087801,0.965816,0.219504,271.000000,262.000000,9.000000,99.000000,0.000000,0.000000,0.000000,0.000000,0.000000;
#CREDIT:Copied from Copied f;
#NOTES:
0000
0000
0000
0000
,
0000
0000
0000
0000
0000
0000
0000
0000
0000
0000
0000
1000
0001
0000
0000
0000
0000
0001
0000
0000
0000
0000
0000
0100
,
0010
0000
0000
0000
0000
0000
0010
0000
0000
0000
0000
1000
0001
0000
0000
0010
0000
0000
0100
0000
0000
0010
0000
0000
,
0001
0000
0000
0000
0000
0000
0010
0000
0000
0000
0000
0000
0100
0000
0000
0000
0000
0000
0010
0000
0000
0000
0100
0000
1000
0000
0000
0000
0000
0000
0000
0000
0000
1000
0000
0000
0000
0000
0000
0000
0000
0000
0000
0000
0000
0000
0100
0000
,
0010
0000
2000
3020
0032
0203
2300
3002
,
2003
0000
0000
0000
0000
0000
0000
0000
0000
0000
0000
0000
3010
0000
0000
0000
0000
0000
0000
0000
0000
0000
1000
0000
0001
0000
0000
0000
0000
0000
0000
0000
0000
0001
0000
0000
0000
0000
0000
0000
0000
0000
0000
0000
0000
0000
1000
0000
,
0002
0000
1000
0000
0100
0010
1003
0100
,
0010
2000
3002
0203
2300
3020
0032
2003
,
3200
0000
0000
0000
0000
0000
0301
0000
0000
0000
0000
0001
1000
0000
0000
0001
0000
0000
0010
0000
0000
0100
0000
0000
,
0010
0002
2003
3200
2300
3020
2030
3002
,
0203
0000
0000
0000
0000
0000
1000
0000
0000
0000
0300
0001
1000
0000
0000
0001
0000
0000
2000
0000
0000
3002
0000
0000
,
0203
0000
0310
0000
2000
3200
0320
0000
0032
0000
0023
0000
0000
0000
0230
0000
,
2300
3020
0001
0230
0302
0010
2003
3200
,
0320
0000
0000
0000
0000
0000
0000
0000
0000
0000
0000
0000
0100
0000
0000
0000
0000
0000
0000
0000
0000
0000
0000
0000
0130
0000
0000
0000
0000
0000
0000
0000
0000
0010
0000
0000
0100
0000
0010
0000
0100
0000
0010
0000
0000
0000
0010
0000
,
0100
0010
0100
0001
1000
0001
0100
0001
,
1001
0000
0000
0000
0000
0000
0100
0000
0000
0000
0000
0000
0010
0000
0000
0000
0000
0000
0001
0000
0000
0000
0010
0000
0001
0000
0000
0000
0000
0000
0000
0000
0000
1000
0000
0000
0000
0000
0000
0000
0000
0000
0000
0000
0000
0000
0100
0000
,
0001
1000
0010
0100
0001
1000
0100
0010
,
0001
0000
0000
0010
0000
0000
0100
0000
0000
0010
0000
0000
0001
0000
0010
0100
0000
0100
0010
0000
0000
0000
0000
0000
,
1001
0000
0000
0100
0000
0000
0010
0000
0000
1000
0000
0001
1000
0000
0000
0001
0000
0000
0100
0000
0000
0010
0000
0000
,
0001
0000
0000
0000
0000
0000
0010
0000
0000
0000
0000
0000
0001
0000
0000
0000
0000
0000
0010
0000
0000
0000
0001
0000
0010
0000
0000
0000
0000
0000
0000
0000
0000
0110
0000
0000
0000
0000
0000
0000
0000
0000
0000
0000
0000
0000
0000
0000
,
2000
0000
3200
0000
2300
0000
3002
0000
0023
0000
2030
3020
0032
0000
0023
0000
,
0032
0000
0000
0000
0000
0000
0000
0000
0000
0000
0000
0000
0010
0000
0000
0000
0000
0000
0000
0000
0000
0000
0000
0000
0100
0000
0000
0000
0000
0000
0003
0000
0000
0010
0000
0000
0001
0000
0010
0000
0001
0000
0010
0000
0000
0000
0010
0000
,
0002
1000
0000
0010
0100
2003
3200
0320
,
0032
0100
0000
0000
1000
0000
0023
2030
,
3020
0000
0000
0230
0000
0000
2300
0000
0000
0000
0000
0000
3200
0000
0000
0000
0000
0000
0000
0000
0000
0000
0000
0000
0001
0000
0000
0000
0000
0000
0301
0000
0000
0000
0000
0000
0000
0000
0000
0000
0000
0000
0000
0000
0000
0000
0010
0000
,
0100
0000
0000
0000
0000
0000
0001
0000
0000
0000
0000
0000
0000
0000
0000
0000
0000
0000
0000
0000
0000
0000
0000
0000
0001
0000
0000
0000
0000
0000
0000
0000
0000
0001
0000
0000
1000
0000
0010
0000
0100
0000
1000
0000
0000
0000
0100
0000
,
0020
0001
0000
0000
0001
0001
2030
0000
,
3200
0001
1000
0000
0010
0000
0320
0000
,
0032
1000
1000
0000
1000
1000
2003
3002
,
2003
0010
0001
3200
0001
0000
0000
0000
,
0320
0001
0000
0000
0001
0230
2300
3002
,
0023
0000
0000
0000
0230
2300
3002
0000
0000
0000
0000
0000
1000
0000
0000
0000
0000
0000
0023
0030
0200
0310
0000
0100
,
0002
1000
0010
0000
0203
0301
0200
0320
,
0230
0000
1000
0000
0302
0000
0000
0000
1000
0000
0000
1000
0003
1000
0000
0000
,
0120
2030
3020
0000
1000
1000
0032
0000
,
0023
0000
0000
0000
0000
0000
0000
0000
0000
0000
0000
0000
0032
0000
0000
0203
0000
0000
0320
0000
0000
0000
0000
0000
2030
0000
0000
0200
3000
0000
0000
0000
0000
0320
0000
0000
2030
0000
3000
0000
0000
0000
0000
0000
0000
0000
0000
0000
,
0110
1001
1100
0110
,
2001
0000
0100
0000
0100
0000
0010
0100
,
3001
0000
0000
0000
;

//---------------dance-single - Copied from----------------
#NOTEDATA:;
#CHARTNAME:Copied from;
#STEPSTYPE:dance-single;
#DESCRIPTION:Copied from;
#CHARTSTYLE:;
#DIFFICULTY:Easy;
#METER:4;
#RADARVALUES:0.140761,0.203894,0.126824,0.000000,0.000000,101.000000,88.000000,13.000000,0.000000,0.000000,0.000000,0.000000,0.000000,0.000000,0.140761,0.203894,0.126824,0.000000,0.000000,101.000000,88.000000,13.000000,0.000000,0.000000,0.000000,0.000000,0.000000,0.000000;
#CREDIT:Copied from;
#NOTES:
0000
0000
0000
0000
,
0000
0000
0000
0000
,
1000
0000
0110
0000
,
1000
0000
0001
0000
,
1000
0000
1000
1000
0100
0100
0010
0010
,
0001
0000
0000
0000
0010
0010
0000
0000
,
0100
0000
0000
0000
,
0000
1000
1000
0100
0100
0010
0010
0001
,
0001
0000
0000
0000
,
0000
0001
0001
0010
0010
0100
0100
1000
,
1000
0000
0000
0000
0000
0000
0100
0010
,
0100
0000
0000
0000
0000
0000
1000
0001
,
1000
0000
0000
0000
0000
0000
0100
0010
,
0100
0000
0000
0000
,
1001
0000
0000
0000
,
1100
0000
0000
0000
,
0011
0000
0000
0000
,
0110
0000
1100
0000
,
0110
0000
0000
0000
,
0011
0000
0110
0000
,
1100
0100
0100
0100
,
0010
0000
0001
0000
,
1001
0000
0100
0000
,
0010
0000
0001
0000
,
1000
0000
0100
0000
,
0010
0000
0100
0000
,
0010
0000
0001
0000
,
0100
0000
1000
0000
,
0100
0000
0010
0000
,
0001
0000
1000
0000
,
0100
0000
1000
0000
,
0010
0000
0001
0000
,
0100
0000
1000
0000
,
0010
0000
0001
0000
,
0100
0000
0010
0000
,
1000
0000
0001
0000
,
0100
0100
0010
0100
,
0110
0000
0000
0000
,
1001
0000
0000
0000
;

//---------------dance-single - Copied from Copied f----------------
#NOTEDATA:;
#CHARTNAME:Copied from Copied f;
#STEPSTYPE:dance-single;
#DESCRIPTION:Copied from Copied f;
#CHARTSTYLE:;
#DIFFICULTY:Beginner;
#METER:2;
#RADARVALUES:0.115675,0.185359,0.097557,0.000000,0.000000,83.000000,73.000000,10.000000,0.000000,0.000000,0.000000,0.000000,0.000000,0.000000,0.115675,0.185359,0.097557,0.000000,0.000000,83.000000,73.000000,10.000000,0.000000,0.000000,0.000000,0.000000,0.000000,0.000000;
#CREDIT:Copied from Copied f;
#NOTES:
0000
0000
0000
0000
,
0000
0000
0000
0000
,
1000
0000
0010
0000
,
1000
0000
0001
0000
,
1000
1000
0100
0010
,
0001
0000
0010
0000
,
0100
0000
0000
0000
,
0000
1000
0100
0010
,
0001
0000
0000
0000
,
0000
0001
0010
0100
,
1000
0000
0000
0100
,
0100
0000
0000
1000
,
1000
0000
0000
0100
,
0100
0000
0000
0000
,
1001
0000
0000
0000
,
1100
0000
0000
0000
,
0011
0000
0000
0000
,
0110
0000
1000
0000
,
0110
0000
0000
0000
,
0011
0000
0110
0000
,
1100
0100
0100
0100
,
0010
0000
0001
0000
,
0001
0000
0100
0000
,
0010
0000
0001
0000
,
1000
0000
0100
0000
,
0010
0000
0100
0000
,
0010
0000
0001
0000
,
0100
0000
1000
0000
,
0100
0000
0010
0000
,
0001
0000
1000
0000
,
0100
0000
1000
0000
,
0010
0000
0001
0000
,
0100
0000
1000
0000
,
0010
0000
0001
0000
,
0100
0000
0010
0000
,
1000
0000
0001
0000
,
0100
0100
0010
0100
,
0110
0000
0000
0000
,
1001
0000
0000
0000
;
