#VERSION:0.83;
#TITLE:PRETTY GIRLS;
#SUBTITLE:;
#ARTIST:Britney Spears Feat. Iggy Azalea;
#TITLETRANSLIT:;
#SUBTITLETRANSLIT:;
#ARTISTTRANSLIT:;
#GENRE:;
#ORIGIN:;
#CREDIT:;
#BANNER:AV.avi;
#BACKGROUND:Pretty Girs-bg.png;
#PREVIEWVID:;
#JACKET:;
#CDIMAGE:;
#DISCIMAGE:;
#LYRICSPATH:;
#CDTITLE:;
#MUSIC:Britney Spears Feat. Iggy Azalea - Pretty Girls.mp3;
#OFFSET:0.040000;
#SAMPLESTART:48.828999;
#SAMPLELENGTH:18.000000;
#SELECTABLE:YES;
#BPMS:0.000=102.970;
#STOPS:;
#DELAYS:;
#WARPS:;
#TIMESIGNATURES:0.000=4=4;
#TICKCOUNTS:0.000=4;
#COMBOS:0.000=1;
#SPEEDS:0.000=1.000=0.000=0;
#SCROLLS:0.000=1.000;
#FAKES:;
#LABELS:0.000=Song Start;
#BGCHANGES:0.000=PRGR.avi=1.400=1=1=1=StretchRewind==CrossFade==,
2.000=PRGR.avi=1.000=0=0=1=====,
132.000=PRGR.avi=1.400=0=0=1=====,
139.000=PRGR.avi=1.000=0=0=1=====,
99999=-nosongbg-=1.000=0=0=0 // don't automatically add -songbackground-
;
#KEYSOUNDS:;
#ATTACKS:
;

//---------------dance-single - ----------------
#NOTEDATA:;
#CHARTNAME:;
#STEPSTYPE:dance-single;
#DESCRIPTION:;
#CHARTSTYLE:;
#DIFFICULTY:Challenge;
#METER:15;
#RADARVALUES:0.645312,0.705753,0.754398,0.018400,0.662398,491.000000,409.000000,82.000000,2.000000,0.000000,0.000000,0.000000,0.000000,0.000000,0.645312,0.705753,0.754398,0.018400,0.662398,491.000000,409.000000,82.000000,2.000000,0.000000,0.000000,0.000000,0.000000,0.000000;
#CREDIT:;
#NOTES:
// measure 0
0000
0000
0000
0000
,  // measure 1
0000
0000
0000
0000
,  // measure 2
0000
0000
0000
0000
,  // measure 3
0000
0000
0000
0000
,  // measure 4
0000
0000
0000
0000
,  // measure 5
1001
1010
0011
0110
,  // measure 6
1100
0110
0011
0110
,  // measure 7
0001
0101
0010
0110
0001
1001
0100
1100
,  // measure 8
0010
0000
1001
0000
0100
0000
0110
1000
0001
0000
0010
0000
0010
0200
0000
0300
,  // measure 9
1001
0000
0000
0000
0000
0000
0000
0000
0000
0000
0000
0000
1010
0000
0000
0000
0000
0000
0100
0000
0000
1000
0000
0000
0010
0000
0000
0000
0001
0000
0000
0000
0100
0000
0000
0000
1000
0000
0000
0000
0000
0000
0100
0000
0000
0010
0000
0000
,  // measure 10
0000
0000
0000
0010
0000
0000
0100
0000
0000
0000
0000
0000
0001
0000
0000
0000
1000
0000
0000
0000
0100
0000
0000
0000
0010
0000
0000
0000
0000
0000
0000
0000
1000
0000
0000
0000
0010
0000
0000
0000
0000
0000
0100
0000
0000
1000
0000
0000
,  // measure 11
0000
0000
0000
1000
0000
0000
0100
0000
0000
0000
0000
0000
1001
0000
0000
0000
1000
0000
0100
0000
0000
0010
0000
0000
0001
0000
0000
0000
0001
0000
0000
0000
0010
0000
0000
0000
0100
0000
0000
0000
0000
0000
0010
0000
0000
0100
0000
0000
,  // measure 12
0000
0000
0000
0100
0000
0000
0010
0000
0000
0000
0000
0000
1001
0000
0000
0000
0000
0000
0000
0000
0000
0000
0000
0000
0010
0000
0000
0000
0000
0000
1000
0000
0000
0000
0000
0000
0010
0000
0000
0000
0100
0000
0000
0000
0000
0010
0000
0000
,  // measure 13
0000
0000
0000
0010
0000
0000
0100
0000
0000
0000
0000
0000
1001
0000
0000
0000
1000
0000
0001
0000
0100
0010
0000
0000
1000
0000
0000
0000
0100
0000
0000
0000
0001
0000
0000
0000
0010
0000
0000
0000
0100
0000
1000
0000
0010
0100
0000
0000
,  // measure 14
0000
0000
0000
1000
0000
0000
0001
0000
0000
0000
0000
0000
1001
0000
0000
0000
1000
0000
0010
0000
0100
0001
0000
0000
0010
0000
0000
0000
0001
0000
0000
0000
1000
0000
0000
0000
0010
0000
0000
0000
0100
0000
0001
0000
1000
0010
0000
0000
,  // measure 15
0000
0000
0000
0010
0000
0000
0100
0000
0000
0000
0000
0000
1001
0000
0000
0000
0010
0000
0001
0000
0100
0010
0000
0000
0100
0000
0000
0000
1000
0000
0000
0000
0000
0001
0000
0000
0100
0000
0000
0000
1000
0000
0000
0000
0000
0100
0000
0000
,  // measure 16
0000
0001
0000
0000
1010
0000
0000
0000
0110
0000
0010
0000
0010
0100
0000
0010
,  // measure 17
0000
1000
0001
0000
0010
0000
0001
1000
0001
1000
0010
0000
0010
0100
0010
0000
,  // measure 18
0001
0010
0100
0000
0100
0000
0010
0100
0001
0010
0100
0000
0100
0000
0100
0010
,  // measure 19
0001
0010
0001
0000
0100
0000
0010
1000
0001
0010
0100
1000
0100
0000
0100
0000
,  // measure 20
1100
0000
0000
0010
0000
0000
0000
0000
0000
0000
0000
0000
0110
0000
0000
0000
0000
0000
0000
0000
0000
0000
0000
0000
0011
0000
0000
0000
0000
0000
0010
0000
0000
0000
0000
0000
0100
0000
0000
0000
0100
0000
0000
0000
0100
0000
0000
0000
,  // measure 21
1010
0000
0100
0000
0110
0000
0001
0000
1010
0000
0100
0000
0011
0100
1000
0010
,  // measure 22
0101
0000
0100
0000
0110
0000
0001
0100
0011
0000
0010
0000
1100
0000
0110
0001
,  // measure 23
0011
0000
0100
0000
0011
0000
0010
1000
1010
0000
0001
0000
1100
0000
0110
0001
,  // measure 24
0011
0000
0000
0000
0000
0000
0100
0000
0000
0000
0000
0000
0011
0000
0000
0000
0000
0000
0001
0000
0000
0010
0000
0000
1100
0000
0000
0000
0000
0000
0010
0000
0000
0000
0000
0000
0001
0000
0000
0100
0010
0000
0000
0000
0010
0000
0000
0000
,  // measure 25
0011
0000
0000
0000
0110
0000
0000
0001
0010
0100
1000
0001
0010
0000
0100
0000
,  // measure 26
0000
0000
0100
0010
0100
0000
0001
0000
0010
0100
1000
0001
0100
0000
0010
0000
,  // measure 27
0100
0010
0100
0001
0010
0001
0010
1000
0100
0000
0010
0000
0001
0000
0100
0010
,  // measure 28
1000
0000
0000
0100
0000
0000
0010
0000
0000
0100
0000
0000
0010
0000
0000
0001
0000
0000
0010
0000
0000
0100
0000
0000
0001
0000
0000
1000
0000
0000
0001
0000
0000
0100
0000
0000
0010
0000
0000
0000
0010
0000
0000
0000
0010
0000
0000
0000
,  // measure 29
0110
0000
0110
0000
0000
0000
1001
0000
1000
0010
0100
1000
0100
0000
0010
0000
,  // measure 30
0100
0000
0010
0000
0001
1000
0001
0000
0010
0000
0001
0000
0010
0000
0100
0000
1000
0000
0000
0000
0100
0000
0010
0000
1000
0001
1000
0001
1000
0001
0000
0000
,  // measure 31
0001
0000
0000
0100
0000
0000
1000
0000
0100
0000
0000
0000
0000
0000
0000
1000
0000
0000
0001
0000
0000
0100
0000
0000
0010
0000
0000
1000
0000
0000
0100
0000
0000
0010
0000
0000
0000
0000
0000
0100
0000
0000
0010
0000
0000
0100
0000
0000
,  // measure 32
0010
0000
1000
0001
0100
0000
0000
0110
0000
0000
1100
0000
1100
0000
0110
0000
,  // measure 33
1001
0000
0000
0000
0110
0000
1000
0001
0000
0000
1001
0000
0110
0000
0100
0010
,  // measure 34
0000
0100
0010
0000
1001
0000
0100
0010
0000
0000
0100
0000
1001
0000
0010
0001
,  // measure 35
0000
0010
0001
0000
0110
0000
0001
1000
0000
0000
0000
0000
0110
0000
0001
0010
,  // measure 36
0000
0000
0000
0001
0000
0000
0010
0000
0000
0000
0000
0000
0011
0000
0000
0000
0000
0000
0100
0000
0000
0000
0000
0000
0010
0000
0000
0000
0000
0000
0100
0000
0000
0000
0000
0000
1010
0000
0000
0000
1000
0000
0000
0000
1000
0000
0000
0000
,  // measure 37
0101
0000
0010
0000
0110
0000
1000
0000
0101
0000
0010
0000
1100
0010
0001
0100
,  // measure 38
1010
0000
0010
0000
0110
0000
1000
0010
1100
0000
0100
0000
0011
0000
0110
1000
,  // measure 39
1100
0000
0010
0000
1100
0000
0100
0001
0101
0000
1000
0000
0011
0000
0110
1000
,  // measure 40
1100
0000
0000
0000
0000
0000
0010
0000
0000
0000
0000
0000
1100
0000
0000
0000
0000
0000
1000
0000
0000
0100
0000
0000
0011
0000
0000
0000
0000
0000
0100
0000
0000
0000
0000
0000
1000
0000
0000
0010
0100
0000
0000
0000
0100
0000
0000
0000
,  // measure 41
0110
0000
0001
0000
1100
0000
0001
0000
0110
0000
0001
0000
1000
0100
0010
0001
,  // measure 42
1000
0000
0010
0000
0100
0000
0001
0000
1000
0000
0100
0000
1000
0100
1000
0001
,  // measure 43
0010
0000
0100
0000
1000
0000
0010
0000
0100
0000
0001
0000
1000
0100
0010
0001
,  // measure 44
1000
0000
0010
0000
0100
0000
0001
1000
0100
0000
0010
0000
0001
2000
0000
0000
,  // measure 45
0000
3000
0000
0000
0000
0000
0000
0000
;

//---------------dance-single - Copied from----------------
#NOTEDATA:;
#CHARTNAME:Copied from;
#STEPSTYPE:dance-single;
#DESCRIPTION:Copied from;
#CHARTSTYLE:;
#DIFFICULTY:Hard;
#METER:10;
#RADARVALUES:0.403484,0.452869,0.469198,0.046000,0.160999,307.000000,256.000000,51.000000,5.000000,0.000000,0.000000,0.000000,0.000000,0.000000,0.403484,0.452869,0.469198,0.046000,0.160999,307.000000,256.000000,51.000000,5.000000,0.000000,0.000000,0.000000,0.000000,0.000000;
#CREDIT:Copied from;
#NOTES:
0000
0000
0000
0000
,
0000
0000
0000
0000
,
0000
0000
0000
0000
,
0000
0000
0000
0000
,
0000
0000
0000
0000
,
1000
0001
1000
0001
,
1000
0001
1000
0001
,
1000
0001
1000
0001
1000
0001
1000
0001
,
1000
0000
0001
0000
1000
0000
0001
1000
0001
0000
0100
0000
0100
0020
0000
0030
,
1000
0000
0000
0000
0010
0000
0100
1000
0000
0000
0000
0000
1001
0000
0100
0010
,
0000
0010
0100
0000
1001
0000
0100
0010
0000
0000
0000
0000
0110
0000
0100
1000
,
0000
1000
0100
0000
1001
0000
0100
0001
0000
0000
0000
0000
0110
0000
0010
0100
,
0000
0000
0000
0100
0000
0000
0010
0000
0000
0000
0000
0000
1001
0000
0000
0000
0000
0000
0000
0000
0000
0000
0000
0000
0010
0000
0000
0000
0000
0000
1000
0000
0000
0000
0000
0000
0010
0000
0000
0000
0100
0000
0000
0000
0000
0010
0000
0000
,
0000
0010
0100
0000
1001
0000
0001
0010
0000
0000
0000
0000
0110
0000
0001
1000
,
0000
1000
0001
0000
1001
0000
0010
0001
0000
0000
0000
0000
0110
0000
0001
0010
,
0000
0010
0001
0000
1001
0000
0001
0010
0000
0000
0000
0000
0110
0000
0100
0010
,
0000
0000
0000
0001
0000
0000
1000
0000
0000
0000
0000
0000
1010
0000
0000
0000
0000
0000
0000
0000
0000
0000
0000
0000
0110
0000
0000
0000
0000
0000
0010
0000
0000
0000
0000
0000
0010
0000
0000
0000
0100
0000
0000
0000
0000
0010
0000
0000
,
0000
0100
0010
0000
1001
0000
1000
0000
0100
0000
0000
0000
0010
0001
0010
0000
,
0002
0000
0003
0000
0110
0000
0010
0000
0100
0000
0000
0000
1000
0000
0100
0001
,
0020
0000
0030
0000
0001
0000
0010
0000
0100
0000
0000
0001
1000
0000
0100
0000
,
0010
0000
0000
0200
0000
0000
0300
0000
0000
0000
0000
0000
1000
0000
0000
0000
0000
0000
0000
0000
0000
0000
0000
0000
0100
0000
0000
0000
0000
0000
0010
0000
0000
0000
0000
0000
0001
0000
0000
0000
0001
0000
0000
0000
0001
0000
0000
0000
,
1001
0110
1100
0110
,
0011
0000
0110
0000
0011
0000
0100
0010
,
0100
0000
1100
0000
0110
0000
0010
0001
,
0010
0000
0000
0110
0000
0000
1100
0000
0000
0100
0100
0100
,
0110
0000
1100
0000
0100
0010
0011
0000
,
0010
0001
0010
0001
0100
0010
0011
0000
,
1000
0100
0010
0001
0010
0100
1000
0000
,
1000
0010
1000
0010
0100
0001
1001
0010
,
0100
0000
1010
0000
0010
0010
0011
0000
,
0010
0100
0110
0100
1000
0100
1100
0000
,
0010
0010
0011
0010
0100
0010
1010
0100
,
1000
0000
0100
0000
0010
0000
0000
1001
0000
0000
0000
0000
0000
0000
0000
0000
,
0110
1001
0110
0011
,
1100
0000
0110
0000
0011
0000
0100
0010
,
0100
0000
1001
0000
1100
0000
0010
0100
,
0010
0011
1100
0010
,
1000
0100
1000
0010
2000
0000
0100
0010
,
3001
0000
0100
0010
0001
0000
0010
1000
,
0100
0000
0100
0010
0100
0000
1000
0001
,
1000
0000
0010
0000
1000
0100
0010
0001
,
1000
0001
1000
0001
1000
0000
0010
0100
,
0010
0000
0001
0010
0100
0000
0001
0100
,
0010
0000
0001
0010
0100
0000
0001
0100
,
0010
0000
0001
1000
0100
0000
1001
0000
;

//---------------dance-single - Copied from Copied f----------------
#NOTEDATA:;
#CHARTNAME:Copied from Copied f;
#STEPSTYPE:dance-single;
#DESCRIPTION:Copied from Copied f;
#CHARTSTYLE:;
#DIFFICULTY:Medium;
#METER:6;
#RADARVALUES:0.264171,0.308774,0.027600,0.156400,0.004600,201.000000,198.000000,3.000000,17.000000,0.000000,0.000000,0.000000,0.000000,0.000000,0.264171,0.308774,0.027600,0.156400,0.004600,201.000000,198.000000,3.000000,17.000000,0.000000,0.000000,0.000000,0.000000,0.000000;
#CREDIT:Copied from Copied f;
#NOTES:
0000
0000
0000
0000
,
0000
0000
0000
0000
,
0000
0000
0000
0000
,
0000
0000
0000
0000
,
0000
0000
0000
0000
,
1000
1000
0100
0100
,
0010
0010
0001
0001
,
1000
0001
0100
0010
1000
0001
0100
0010
,
1000
0001
1000
0001
2000
0000
0000
0000
,
3100
0000
0100
0000
1000
0100
0010
0000
,
0001
0010
0100
0000
0001
1000
0001
0000
,
1000
0000
0010
0000
0100
0010
0100
0000
,
0002
2003
3200
0320
,
0032
0000
1003
0000
1000
0100
0010
0000
,
0001
0000
1000
0000
0010
0100
0010
0000
,
0001
0000
1000
0000
1000
0100
0010
0000
,
0002
2003
3200
0320
,
0031
0000
1000
0100
0010
0000
0001
1000
,
0001
0000
0100
0010
1000
0000
1000
0100
,
0010
0000
0001
0010
0100
0000
1000
0001
,
1000
0000
1000
0000
1000
0100
0010
0010
,
0001
1000
0001
1000
,
0100
0000
1000
0000
0010
0000
0100
0100
,
0010
0000
0001
0000
1000
0000
0010
0010
,
0100
0001
2000
3001
,
0001
1000
0010
0100
,
1000
0000
0001
0000
1000
0001
1000
0000
,
1000
0100
0010
0001
0010
0100
0010
0000
,
1000
0001
1000
0000
1000
0100
0010
0000
,
0002
1003
2000
3001
,
0100
0010
0100
0000
0001
1000
0001
0000
,
0200
0000
0310
0000
0001
1000
0001
0000
,
1000
0000
0000
0000
1001
0000
0000
1001
0000
0000
0000
0000
0000
0000
0000
0000
,
1001
1000
1000
0001
,
1000
0000
0001
0000
1000
0000
0001
0100
,
0010
0000
0100
0000
0010
0000
1000
0001
,
0010
0100
0020
0031
,
1000
0001
1000
0001
1000
0000
0100
0000
,
0010
0000
0001
0000
1000
0000
1000
0100
,
0010
0000
0001
0000
0010
0000
0100
0001
,
0100
0010
2000
3001
,
1000
0100
0010
0001
,
0010
0000
0100
0000
0010
0000
1000
0100
,
0010
0000
0001
0000
0010
0000
0100
0010
,
0100
0010
2000
3001
;

//---------------dance-single - Copied from Copied f----------------
#NOTEDATA:;
#CHARTNAME:Copied from Copied f;
#STEPSTYPE:dance-single;
#DESCRIPTION:Copied from Copied f;
#CHARTSTYLE:;
#DIFFICULTY:Easy;
#METER:5;
#RADARVALUES:0.191885,0.226461,0.009200,0.211599,0.004600,146.000000,145.000000,1.000000,23.000000,0.000000,0.000000,0.000000,0.000000,0.000000,0.191885,0.226461,0.009200,0.211599,0.004600,146.000000,145.000000,1.000000,23.000000,0.000000,0.000000,0.000000,0.000000,0.000000;
#CREDIT:Copied from Copied f;
#NOTES:
0000
0000
0000
0000
,
0000
0000
0000
0000
,
0000
0000
0000
0000
,
0000
0000
0000
0000
,
0000
0000
0000
0000
,
1000
1000
0100
0100
,
0010
0010
0001
0001
,
1000
0100
0010
0001
,
1000
0001
2000
0000
,
3010
0100
0000
0001
,
1000
0001
0000
0010
,
0100
0010
0000
0001
,
2000
3002
0023
0032
,
0023
0030
1000
0100
,
0020
0000
0000
0030
0001
0000
1000
0000
,
0200
0000
0000
0300
0010
0000
0001
0000
,
2000
3002
0023
0230
,
0302
0003
1000
0001
1000
0000
0010
0000
,
0100
0000
1000
0001
1000
0000
0100
0000
,
0010
0001
1000
0001
,
1000
1000
1000
1000
,
0100
0010
0001
1000
,
0001
1000
0010
0200
,
0310
0001
1001
0002
,
1003
1000
0002
0000
,
1003
1000
0100
1000
,
0000
0100
0010
0001
,
1000
0100
0010
0001
,
1000
0001
0010
0001
,
1000
0001
1000
0010
,
0001
0001
1000
1000
,
1000
0001
0000
0010
,
0001
0000
0000
0000
0001
0000
0000
0001
0000
0000
0000
0000
0000
0000
0000
0000
,
1000
0001
1000
0001
,
0010
0100
0010
0002
,
1003
0100
0010
2000
,
3001
0100
0020
0000
,
0031
1000
0100
1000
,
0010
0001
0100
0002
,
1003
0100
0010
2000
,
3001
0010
0200
0000
,
0301
1000
0100
0000
,
1000
0001
1000
0000
,
0100
0010
0100
0000
,
0010
0000
0000
0000
0000
0000
0000
0000
0000
0000
0000
0000
0000
0000
0000
0000
0000
0000
0000
0000
0000
0000
0000
0000
0000
0000
0000
0000
0000
0000
0000
0000
0000
0000
0000
0000
0000
0000
0000
0000
0000
0000
0000
0000
0000
0000
0000
0000
0001
0000
0000
0000
0000
0000
0000
0000
0000
0000
0000
0000
0000
0000
0000
0000
0000
0000
0000
0000
0000
0000
0000
0000
0000
0000
0000
0000
0000
0000
0000
0000
0000
0000
0000
0000
0000
0000
0000
0000
0000
0000
0000
0000
0000
0000
0000
0000
2000
0000
0000
0000
0000
0000
0000
0000
0000
0000
0000
0000
0000
0000
0000
0000
0000
0000
0000
0000
0000
0000
0000
0000
0000
0000
0000
0000
0000
0000
0000
0000
0000
0000
0000
0000
0000
0000
0000
0000
0000
0000
0000
0000
0000
0000
0000
0000
0000
3000
0000
0000
0000
0000
0000
0000
0000
0000
0000
0000
0000
0000
0000
0000
0000
0000
0000
0000
0000
0000
0000
0000
0000
0000
0000
0000
0000
0000
0000
0000
0000
0000
0000
0000
0000
0000
0000
0000
0000
0000
0000
0000
0000
0000
0000
0000
;

//---------------dance-single - Copied from Copied f----------------
#NOTEDATA:;
#CHARTNAME:Copied from Copied f;
#STEPSTYPE:dance-single;
#DESCRIPTION:Copied from Copied f;
#CHARTSTYLE:;
#DIFFICULTY:Beginner;
#METER:2;
#RADARVALUES:0.164285,0.185308,0.000000,0.046000,0.000000,125.000000,125.000000,0.000000,5.000000,0.000000,0.000000,0.000000,0.000000,0.000000,0.164285,0.185308,0.000000,0.046000,0.000000,125.000000,125.000000,0.000000,5.000000,0.000000,0.000000,0.000000,0.000000,0.000000;
#CREDIT:Copied from Copied f;
#NOTES:
0000
0000
0000
0000
,
0000
0000
0000
0000
,
0000
0000
0000
0000
,
0000
0000
0000
0000
,
0000
0000
0000
0000
,
1000
1000
0100
0100
,
0010
0010
0001
0001
,
1000
1000
0100
0100
,
0020
0000
0000
0000
,
0031
1000
0000
0100
,
0010
1000
0000
0001
,
1000
0100
0000
0010
,
1000
0100
0010
0001
,
0010
0000
1000
0001
,
1000
0000
1000
0100
,
0010
0000
0001
1000
,
0020
0030
0001
1000
,
0100
1000
0010
0000
,
0100
0010
0001
0000
,
1000
0001
0010
0000
,
0001
0001
0001
0001
,
2000
3100
0010
0001
,
0001
0010
0100
0100
,
0010
0000
0001
0001
,
1000
0000
0100
0000
,
0010
0001
0000
0001
,
0010
0100
0000
1000
,
0001
0100
0000
0001
,
0010
0100
0000
1000
,
0001
0100
0000
0010
,
1000
0001
0000
0100
,
0010
1000
0000
1000
,
0001
0000
0001
0000
,
0001
1000
0001
0010
,
0100
0010
0100
0000
,
0100
0010
0001
0000
,
1000
0100
0002
0000
,
1003
0100
1000
0000
,
0001
0010
0100
0000
,
1000
0001
1000
0000
,
0100
0010
0001
0001
,
1000
1000
0100
0000
,
0010
0010
0001
0000
,
1000
1000
0100
0000
,
0010
0000
0000
0000
0000
0000
0000
0000
0000
0000
0000
0000
0000
0000
0000
0000
0000
0000
0000
0000
0000
0000
0000
0000
0000
0000
0000
0000
0000
0000
0000
0000
0000
0000
0000
0000
0000
0000
0000
0000
0000
0000
0000
0000
0000
0000
0000
0000
0001
0000
0000
0000
0000
0000
0000
0000
0000
0000
0000
0000
0000
0000
0000
0000
0000
0000
0000
0000
0000
0000
0000
0000
0000
0000
0000
0000
0000
0000
0000
0000
0000
0000
0000
0000
0000
0000
0000
0000
0000
0000
0000
0000
0000
0000
0000
0000
2000
0000
0000
0000
0000
0000
0000
0000
0000
0000
0000
0000
0000
0000
0000
0000
0000
0000
0000
0000
0000
0000
0000
0000
0000
0000
0000
0000
0000
0000
0000
0000
0000
0000
0000
0000
0000
0000
0000
0000
0000
0000
0000
0000
0000
0000
0000
0000
0000
0000
3000
0000
0000
0000
0000
0000
0000
0000
0000
0000
0000
0000
0000
0000
0000
0000
0000
0000
0000
0000
0000
0000
0000
0000
0000
0000
0000
0000
0000
0000
0000
0000
0000
0000
0000
0000
0000
0000
0000
0000
0000
0000
0000
0000
0000
0000
;
