#TITLE:PARTY;
#SUBTITLE:;
#ARTIST:Girls Generation;
#TITLETRANSLIT:;
#SUBTITLETRANSLIT:;
#ARTISTTRANSLIT:;
#GENRE:;
#CREDIT:;
#BANNER:AV.avi;
#BACKGROUND:PARTY-bg.png;
#LYRICSPATH:;
#CDTITLE:;
#MUSIC:SNSD - PARTY.mp3;
#OFFSET:0.132000;
#SAMPLESTART:95.400002;
#SAMPLELENGTH:14.000000;
#SELECTABLE:YES;
#BPMS:0.000000=122.989998
,159.000000=61.494999
,177.000000=122.989998
;
#STOPS:97.000000=0.255000,
97.500000=0.240000,
98.000000=0.460000,
177.000000=0.250000,
177.500000=0.250000,
178.000000=0.485000
;
#BGCHANGES:0.000=MV.avi=1.000=1=1=1=StretchRewind==CrossFade==,
153.500=MV.avi=0.800=0=0=1=====,
157.000=MV.avi=1.000=0=0=1=====,
99999=-nosongbg-=1.000=0=0=0 // don't automatically add -songbackground-
;
#KEYSOUNDS:;
#ATTACKS:;

//---------------dance-single - ----------------
#NOTES:
     dance-single:
     :
     Challenge:
     13:
     0.590022,0.821468,0.654132,2.053669,0.254807,543.000000,457.000000,86.000000,270.000000,0.000000,12.000000,0.590022,0.821468,0.654132,2.053669,0.254807,543.000000,457.000000,86.000000,270.000000,0.000000,12.000000:
0000
0000
0000
0000
,
0000
0000
0000
0000
,
0000
0000
0000
0000
,
0000
0000
0000
0000
,
0000
0000
0000
0000
,
0000
0000
0000
0000
,
0000
0000
0000
0000
,
0000
0000
0000
0000
0000
0000
0000
0000
0000
0000
0000
0000
0000
0000
0000
1000
,
0200
0320
2030
3002
1013
0010
0100
2000
,
3002
0023
1000
0230
2300
3001
0200
0310
,
2000
3020
2030
0100
3002
0023
0230
0302
,
0203
0000
0310
0000
1000
0000
1001
0000
0000
0000
0010
0100
0010
1100
0002
0000
,
0023
0230
2300
3020
0130
2002
3013
2200
,
3302
0023
0130
0002
0023
0130
2002
3013
,
0200
0320
0230
0302
2003
3020
0230
2300
,
3002
0000
0203
0000
0310
0000
2000
0000
3100
0000
0020
0000
1030
0101
2000
0000
,
3020
0032
0203
0301
2000
0010
3001
2000
,
3020
0230
0320
0130
2000
3010
1001
1000
,
0011
0010
1100
0110
0011
0110
1002
0003
,
1000
0001
1100
0110
1001
0110
0021
0032
,
2003
3020
2030
3110
2000
3011
0010
1002
,
0023
2030
3002
1103
0020
0130
0001
1010
,
1001
1100
0110
0011
0110
1001
1010
1001
,
0110
0000
1001
0000
0000
0000
0200
0000
0020
0300
0000
0030
0200
0000
0000
0000
,
0310
0000
0000
0000
0000
0000
0000
0000
0000
0000
0000
0000
0000
0000
0000
0000
2002
0000
0000
0000
3003
0000
0000
0000
0220
0000
0000
0000
0330
0000
0000
0000
2002
3203
0000
0000
0000
0000
0000
0000
0320
0000
0000
0000
0000
0000
0000
0000
2030
0000
0000
0000
0000
0000
0000
0000
3020
0000
0000
0000
0000
0000
0000
0000
,
0100
0032
1003
0002
0203
0310
2000
3001
,
0020
0000
0230
0000
0302
0000
0023
0000
1030
0000
0200
0000
0310
0000
2001
0100
,
0010
0200
0301
0100
0010
3100
0022
0033
,
0220
0330
2200
3300
0020
0230
0302
2003
,
3001
0200
0310
1000
0100
2010
0000
3020
,
0230
0000
0000
0000
0000
0000
0000
0000
0302
0000
0000
0000
0000
0000
0000
0000
2003
0000
0000
0000
0000
0000
0000
0000
3200
0000
0000
0300
0200
0000
0000
0300
0200
0000
0000
0300
0000
0000
0000
0000
2010
0000
0000
0000
0000
0000
0000
0000
0000
0000
0000
0000
0000
0000
0000
0000
3020
0000
0000
0000
0000
0000
0000
0000
,
0230
0000
0000
0000
0000
0000
0000
0000
0302
0000
0000
0000
0000
0000
0000
0000
2003
0000
0000
0000
0000
0000
0000
0000
3020
0000
0000
0030
0020
0000
0000
0030
0020
0000
0000
0030
0000
0000
0000
0000
2000
0000
3000
0000
0100
0000
0000
0000
0010
0000
0000
0000
0000
0000
0000
0000
0100
0000
0000
0000
0000
0000
0000
0000
,
1001
0000
0001
0010
0100
0000
1000
0000
0110
0000
0001
1000
0010
0000
1000
0000
,
1001
0000
2000
0000
3200
0000
0320
0000
0032
0000
0023
0100
1030
0000
0010
0000
,
0110
0000
0001
0010
0100
0000
0100
0000
0110
0000
1000
0100
1000
0000
0100
0000
,
1001
0000
0020
0000
0230
0000
2300
0000
3200
0000
0320
0001
0130
0000
1000
0000
,
1010
0000
0001
0100
0001
0000
0010
0000
0011
0000
0010
0100
0010
0000
0100
0000
,
0110
0000
2002
3003
0220
0330
2002
0000
3003
0000
0220
0000
0000
0330
2000
0000
,
3020
0000
0000
0000
0000
0000
0000
0000
0230
0000
0000
0000
0000
0000
0000
0000
0320
0000
0000
0000
0000
0000
0000
0000
0230
0000
0000
0300
0200
0000
0000
0300
0200
0000
0000
0300
0000
0000
0000
0000
2100
0000
0000
0000
0000
0000
0000
0000
0000
0000
0000
0000
0000
0000
0000
0000
3200
0000
0000
0000
0000
0000
0000
0000
,
0320
0000
0000
0000
0000
0000
0000
0000
0032
0000
0000
0000
0000
0000
0000
0000
0023
0000
0000
0000
0000
0000
0000
0000
2030
0000
0000
3000
2000
0000
0000
3000
2000
0000
0000
3000
0000
0000
0000
0000
2000
0000
0000
3000
0000
0000
0000
0000
0110
0000
0000
0000
0001
0000
0000
0000
0002
0000
0000
0000
0023
0000
0000
0000
,
1030
0002
0100
0023
0130
2000
0010
3200
0001
0310
0110
0001
0011
0200
2300
3020
,
0001
0230
0301
0200
1000
0302
0103
0002
0013
0200
0301
0020
1030
0002
0203
2300
,
0100
0001
3200
0320
1000
0032
0013
2000
3100
0010
2000
3020
0100
1030
0200
0320
,
0100
0000
0031
0000
2000
0000
3020
0000
0130
0000
0001
0000
2000
0000
3002
0000
0013
1001
0200
0000
1000
0300
2002
0000
0000
0000
0000
0000
0000
0000
0000
0000
,
0000
0000
0000
0000
0003
0000
3000
0000
0000
0000
0000
0000
0000
0000
0000
0000
2002
0000
0000
0000
3003
0000
0000
0000
0220
0000
0000
0000
0330
0000
0000
0000
2002
0010
3003
0000
0000
0000
0000
0000
0200
0000
0000
0000
0000
0000
0000
0000
0302
0000
0000
0000
0000
0000
0000
0000
0203
0000
0000
0000
0000
0000
0000
0000
,
0010
2300
3001
2000
3020
0130
0002
1003
,
0200
0000
0320
0000
2030
0000
3200
0000
0301
0000
0020
0000
0130
0000
1002
0010
,
0100
0020
1030
0010
0100
0013
2200
3300
,
0220
0330
0022
0033
0200
0320
2030
3002
,
1003
0020
0130
0001
0010
0102
0000
0203
,
0320
0000
0000
0000
0000
0000
0000
0000
2030
0000
0000
0000
0000
0000
0000
0000
3002
0000
0000
0000
0000
0000
0000
0000
0023
0000
0000
0030
0020
0000
0000
0030
0020
0000
0000
0030
0000
0000
0000
0000
0102
0000
0000
0000
0000
0000
0000
0000
0000
0000
0000
0000
0000
0000
0000
0000
0203
0000
0000
0000
0000
0000
0000
0000
,
0320
0000
0000
0000
0000
0000
0000
0000
2030
0000
0000
0000
0000
0000
0000
0000
3002
0000
0000
0000
0000
0000
0000
0000
0203
0000
0000
0300
0200
0000
0000
0300
0200
0000
0000
0300
0000
0000
0000
0000
0002
0000
0003
0000
0010
0000
0000
0000
0100
0000
0000
0000
0000
0000
0000
0000
0010
0000
0000
0000
0000
0000
0000
0000
,
1001
0000
1000
0100
0010
0000
0001
0000
0110
0000
1000
0001
0100
0000
0001
0000
,
1001
0000
0002
0000
0023
0000
0230
0000
2300
0000
3200
0010
0301
0000
0100
0000
,
0110
0000
1000
0100
0010
0000
0010
0000
0110
0000
0001
0010
0001
0000
0010
0000
,
1001
0000
0200
0000
0320
0000
0032
0000
0023
0000
0230
1000
0310
0000
0001
0000
,
0101
0000
1000
0010
1000
0000
0100
0000
1100
0000
0100
0010
0100
0000
0010
0000
,
0110
0000
2002
3003
0220
0330
2002
0000
3103
0000
0220
0000
0000
0330
0002
0000
,
0203
0000
0000
0000
0000
0000
0000
0000
0320
0000
0000
0000
0000
0000
0000
0000
0230
0000
0000
0000
0000
0000
0000
0000
0320
0000
0000
0030
0020
0000
0000
0030
0020
0000
0000
0030
0000
0000
0000
0000
0012
0000
0000
0000
0000
0000
0000
0000
0000
0000
0000
0000
0000
0000
0000
0000
0023
0000
0000
0000
0000
0000
0000
0000
,
0230
0000
0000
0000
0000
0000
0000
0000
0000
0000
0000
0000
0000
0000
0000
0000
0000
0000
0000
0000
0000
0000
0000
0000
2300
0000
0000
0000
0000
0000
0000
0000
0000
0000
0000
0000
0000
0000
0000
0000
0000
0000
0000
0000
0000
0000
0000
0000
3200
0000
0000
0000
0000
0000
0000
0000
0000
0000
0000
0000
0000
0000
0000
0000
0000
0000
0000
0000
0000
0000
0000
0000
0302
0000
0000
0000
0000
0000
0000
0000
0000
0003
0000
0000
0002
0000
0000
0000
0000
0000
0000
0000
0000
0003
0000
0000
0002
0000
0000
0000
0000
0000
0000
0000
0000
0003
0000
0000
0000
0000
0000
0000
0000
0000
0000
0000
0000
0000
0000
0000
0002
0003
0000
0000
0000
0000
0000
0000
0000
0000
0000
0000
0000
0000
0000
0000
0000
0000
0000
0000
0000
0000
0000
0000
2002
0000
0000
0000
0000
0000
0000
0000
0000
0000
0000
0000
0000
0000
0000
0000
0000
0000
0000
0000
0000
0000
0000
0000
0000
0000
0000
0000
0000
0000
0000
0000
0000
0000
0000
0000
0000
0000
0000
0000
0000
0000
0000
0000
0000
0000
0000
0000
,
3003
0000
0000
0000
;

//---------------dance-single - Copied from----------------
#NOTES:
     dance-single:
     Copied from:
     Hard:
     9:
     0.413994,0.522640,0.319460,0.212973,0.000000,381.000000,339.000000,42.000000,28.000000,0.000000,0.000000,0.413994,0.522640,0.319460,0.212973,0.000000,381.000000,339.000000,42.000000,28.000000,0.000000,0.000000:
// measure 0
0000
0000
0000
0000
,  // measure 1
0000
0000
0000
0000
,  // measure 2
0000
0000
0000
0000
,  // measure 3
0000
0000
0000
0000
,  // measure 4
0000
0000
0000
0000
,  // measure 5
0000
0000
0000
0000
,  // measure 6
0000
0000
0000
0000
,  // measure 7
0000
0000
0000
0000
,  // measure 8
1000
0100
0010
0001
0020
0000
0130
0001
,  // measure 9
1000
0010
0100
0001
2000
0000
3001
0000
,  // measure 10
0010
0100
0020
0000
0031
1000
0001
1000
,  // measure 11
0020
0000
0130
0000
1100
0000
0001
0010
,  // measure 12
0100
1000
0001
0100
0010
0000
0011
0000
,  // measure 13
1100
0000
0001
1000
0010
0000
0210
0000
,  // measure 14
0310
1000
0100
0010
0001
1000
0010
0100
,  // measure 15
0001
1000
0100
1000
0001
0010
0100
1000
,  // measure 16
1001
0010
0100
0001
0100
0001
0100
0010
,  // measure 17
0100
0010
0100
0001
0100
0001
0100
1000
,  // measure 18
0100
1000
0010
1000
0010
1000
1002
0000
,  // measure 19
1003
0000
0001
0100
0001
0100
0102
0000
,  // measure 20
0103
0000
1000
0100
0010
0001
1000
0010
,  // measure 21
0100
0001
1000
0100
0010
0001
1000
0010
,  // measure 22
0100
0001
1000
0100
1000
0001
0010
0100
,  // measure 23
1000
0001
0000
0010
0100
0000
0020
0000
,  // measure 24
0130
0000
1001
1001
1001
0000
1000
0100
,  // measure 25
0010
0001
2000
0000
3100
0000
0010
0100
,  // measure 26
0001
0100
0020
0000
1030
0000
1100
0000
,  // measure 27
1001
0110
0011
1100
,  // measure 28
1100
0000
1100
0000
0010
0100
0001
0010
,  // measure 29
0100
1000
0002
0000
1003
0000
0110
0000
,  // measure 30
0110
0120
0130
1001
,  // measure 31
1001
0000
1002
0000
1003
0000
1000
0100
,  // measure 32
1000
0001
1000
0010
1000
0001
1000
0010
,  // measure 33
0100
0001
0001
0100
0001
0100
0010
1000
,  // measure 34
0100
1000
0010
1000
0100
1000
0010
1000
,  // measure 35
0100
0010
0010
0100
0010
0100
0001
0010
,  // measure 36
0001
1000
0010
0100
0001
1000
0100
0010
,  // measure 37
0001
1000
0100
1000
0010
0020
0000
0130
,  // measure 38
0010
0100
0020
0000
1030
2000
0000
3001
,  // measure 39
1000
0001
0200
0000
0310
0000
0100
1000
,  // measure 40
0100
0010
0100
1000
0010
0100
0001
1000
,  // measure 41
0100
0010
0001
1000
0010
0100
0010
0110
,  // measure 42
0001
1001
0100
1100
0010
0110
0001
1001
,  // measure 43
0100
1100
0001
0010
0100
0020
0000
0000
,  // measure 44
0000
0030
0110
0110
0110
0000
1000
0100
,  // measure 45
0010
0001
2000
0000
3100
0000
0010
0100
,  // measure 46
0001
1000
0010
1000
0100
1000
0002
0000
,  // measure 47
0013
2000
3100
0110
,  // measure 48
0110
0000
0110
0000
1000
0100
0010
0001
,  // measure 49
1000
0100
2000
0000
3001
0000
1001
0000
,  // measure 50
1001
0120
0130
0011
,  // measure 51
0011
0000
0012
0000
0013
0000
1000
0100
,  // measure 52
1000
0001
1000
0010
1000
0001
1000
0100
,  // measure 53
1000
0100
0100
0010
0100
0010
0001
0010
,  // measure 54
0001
1000
0001
0100
0001
1000
0001
0010
,  // measure 55
0001
0010
0010
0100
0010
0010
0100
1000
,  // measure 56
0100
0010
0001
1000
0010
0100
0001
1000
,  // measure 57
0100
0010
0010
0100
0010
0200
0000
1300
,  // measure 58
0001
1000
0002
0000
0103
0200
0000
0310
,  // measure 59
1000
0002
0103
0000
0010
0000
1001
0000
;

//---------------dance-single - Copied from Copied f----------------
#NOTES:
     dance-single:
     Copied from Copied f:
     Medium:
     7:
     0.294468,0.387915,0.015212,0.342278,0.000000,271.000000,269.000000,2.000000,45.000000,0.000000,0.000000,0.294468,0.387915,0.015212,0.342278,0.000000,271.000000,269.000000,2.000000,45.000000,0.000000,0.000000:
0000
0000
0000
0000
,
0000
0000
0000
0000
,
0000
0000
0000
0000
,
0000
0000
0000
0000
,
0000
0000
0000
0000
,
0000
0000
0000
0000
,
0000
0000
0000
0000
,
0000
0000
0000
0000
,
0000
0000
1000
0000
0100
0000
0010
0100
,
1000
0100
0000
0100
0010
0000
0010
0000
,
1000
0000
0001
0000
0100
0010
0100
0010
,
0100
0000
0001
0000
1000
0000
0001
0100
,
0001
0100
0001
0100
0001
0000
0100
0000
,
0010
0000
0010
1000
0010
0000
0110
0000
,
0001
0000
1000
0001
1000
0000
0010
0000
,
0100
0000
0001
0000
0100
0000
1000
1000
,
0100
0010
0100
0000
0010
0000
0100
0000
,
0010
1000
0001
0100
,
0010
0000
0001
0001
0001
0001
0001
0000
,
1000
0000
0100
0100
0100
0100
0100
0000
,
1000
0010
1000
0100
,
0010
1000
0001
0100
,
0010
0000
1000
0010
0100
0000
0001
0000
,
1000
0010
0000
0010
0100
0000
0010
0000
,
0100
0000
1000
1000
1000
0000
0100
0000
,
0010
0000
1000
0001
0100
0000
0001
0000
,
1000
0000
0010
0000
0100
0000
0010
2000
,
0000
0000
0000
0000
0000
3000
0100
0000
,
0100
0100
1000
0010
,
0100
0000
0001
0000
1000
2000
0000
3002
,
0203
0302
0203
0300
0001
0002
0000
2003
,
3002
2003
3002
0003
0100
0000
0010
0100
,
0010
0000
1000
0001
1000
0000
0100
1000
,
0000
1000
1000
1000
1000
1000
0100
0000
,
0010
0000
1000
0001
0100
0000
0010
0100
,
0000
0001
0001
0001
0001
0001
1000
0100
,
0000
0010
0100
0010
0000
0001
1000
0001
,
0000
1000
1000
1000
0000
0020
0000
0230
,
0320
0230
0320
0030
0000
2000
0000
3002
,
2003
3002
2003
3000
0001
0000
1000
0100
,
1000
0010
0100
0010
0100
1000
0001
0100
,
0010
1000
0100
1000
0010
0100
0010
0000
,
0010
0001
0001
0001
,
1000
0100
0010
2002
,
0000
3003
1000
1000
1000
0000
0001
0000
,
1000
0000
0100
0010
0001
0000
0010
0000
,
0100
0000
1000
0000
0001
0000
1000
0200
,
0000
0000
0000
0000
0000
0300
0001
0000
,
0001
0001
0100
1000
,
0001
0000
0010
0000
0100
0200
0000
0320
,
0032
0023
0032
0003
0010
0020
0000
0230
,
0320
0230
0320
0030
0001
0000
1000
0001
,
1000
0000
0100
0010
0100
0000
0001
1000
,
0000
0100
0100
0100
0100
0100
0001
0000
,
1000
0000
0100
0010
0001
0000
1000
0001
,
0000
0010
0010
0010
0010
0010
0100
0001
,
0000
1000
0001
1000
0000
0010
0100
0010
,
0000
0100
0100
0100
0000
2000
0000
3002
,
2003
3002
2003
3000
0000
0200
0000
0320
,
0230
0320
0230
0300
0010
0000
0200
0000
,
0300
0000
0000
0000
;

//---------------dance-single - Copied from Copied f----------------
#NOTES:
     dance-single:
     Copied from Copied f:
     Easy:
     5:
     0.178202,0.227235,0.015212,0.098880,0.000000,164.000000,162.000000,2.000000,13.000000,0.000000,0.000000,0.178202,0.227235,0.015212,0.098880,0.000000,164.000000,162.000000,2.000000,13.000000,0.000000,0.000000:
0000
0000
0000
0000
,
0000
0000
0000
0000
,
0000
0000
0000
0000
,
0000
0000
0000
0000
,
0000
0000
0000
0000
,
0000
0000
0000
0000
,
0000
0000
0000
0000
,
0000
0000
0000
0000
,
0000
1000
0100
1000
,
0000
0010
0100
0010
,
0000
1000
0001
1000
,
0010
1000
0100
0010
,
0000
0001
1000
0001
,
0000
0100
0001
0100
,
0000
1000
0100
0010
,
0001
0010
0100
1000
,
1001
0010
0010
0100
,
0100
1000
1000
0001
,
0001
0010
0010
0010
,
0000
0100
0100
0100
,
0000
1000
0001
1000
,
0001
0100
0010
0100
,
0010
1000
0100
0010
,
0001
0000
0000
0000
,
0000
0000
0100
0100
0100
0000
0010
0000
,
1000
0001
0000
1000
,
0100
0010
0000
0002
,
1000
0000
0100
0000
0000
0003
0010
0000
,
0010
0010
0000
1000
,
0100
0010
0000
1000
,
1000
0000
2000
0000
0000
3000
0010
0000
,
0010
0000
0020
0000
0000
0030
0100
0000
,
0100
0010
0010
1000
,
0001
0000
2000
0000
0000
3000
0010
0000
,
0010
0100
0100
0001
,
1000
0000
0002
0000
0000
0003
1000
0000
,
1000
0001
1000
0010
,
0100
0000
0020
0000
0000
0030
1000
0000
,
1000
1000
0000
0010
,
0010
0010
0000
0100
,
0100
0010
0010
1000
,
1000
0100
0100
0010
,
0010
0100
0100
0001
,
0001
1000
1000
0200
,
0000
0300
0100
0000
0000
0000
0100
0000
,
0000
1000
0000
0010
,
0010
0010
0000
0200
,
0000
0010
0300
0001
,
0001
0001
0000
1000
,
0000
0100
0000
0010
,
0010
0020
0030
1000
,
1000
2000
3000
0100
,
0000
0010
0000
0001
,
0001
0000
0002
0000
0000
0003
0100
0000
,
0000
0010
0000
1000
,
1000
0000
2000
0000
0000
3000
0100
0000
,
0000
0010
0000
0001
,
0001
0000
0002
0000
0000
0003
0100
0000
,
0100
0100
0000
0010
,
0010
0010
0000
1001
;

//---------------dance-single - Copied from Copied f----------------
#NOTES:
     dance-single:
     Copied from Copied f:
     Beginner:
     2:
     0.143431,0.204511,0.000000,0.015212,0.000000,132.000000,132.000000,0.000000,2.000000,0.000000,0.000000,0.143431,0.204511,0.000000,0.015212,0.000000,132.000000,132.000000,0.000000,2.000000,0.000000,0.000000:
0000
0000
0000
0000
,
0000
0000
0000
0000
,
0000
0000
0000
0000
,
0000
0000
0000
0000
,
0000
0000
0000
0000
,
0000
0000
0000
0000
,
0000
0000
0000
0000
,
0000
0000
0000
0000
,
0000
0001
0000
1000
,
0000
0100
0000
0010
,
0000
1000
0000
0001
,
0000
0100
0000
0000
,
0010
1000
0000
0100
,
0000
0010
0000
0001
,
0000
1000
0000
0100
,
0000
0010
0000
0000
,
1000
0100
0010
0001
,
0000
1000
0001
1000
,
0000
0100
0000
0001
,
0000
0010
0000
0100
,
0000
1000
1000
0100
,
0100
0010
0010
0001
,
0001
1000
0001
0100
,
0010
0000
0000
0000
,
0000
0000
0010
0100
0010
0000
1000
0000
,
0010
0100
0000
0001
,
1000
0001
0000
0000
,
0000
0000
0000
1000
,
1000
1000
0100
0010
,
1000
0001
0100
0001
,
0001
0001
0000
1000
,
1000
1000
0000
0010
,
0100
0010
0000
0001
,
1000
0001
0000
0100
,
0010
0100
0000
1000
,
0010
1000
0000
0100
,
0010
0100
0000
1000
,
0001
1000
0000
0100
,
0100
0010
0000
0001
,
0001
0001
0000
0001
,
0000
0010
0000
0100
,
0000
1000
0000
0010
,
0000
0100
0000
0010
,
0000
0001
0000
0002
,
0000
0003
0100
0000
,
0010
0000
0001
0000
,
1000
0000
0000
0000
0100
0000
0000
0020
,
0000
0000
0000
0000
0000
0030
1000
0000
,
1000
1000
0000
0100
,
0000
0010
0000
0001
,
0001
0001
0000
1000
,
1000
1000
0000
0010
,
0000
0001
0000
0010
,
0000
1000
1000
0100
,
0000
0010
0000
0100
,
0000
0010
0010
1000
,
0000
0001
0000
0100
,
0000
0010
0010
0001
,
0000
1000
0000
0010
,
0000
0100
0100
0100
;
