#VERSION:0.83;
#TITLE:Night Changes;
#SUBTITLE:;
#ARTIST:One Direction;
#TITLETRANSLIT:;
#SUBTITLETRANSLIT:;
#ARTISTTRANSLIT:;
#GENRE:;
#ORIGIN:;
#CREDIT:;
#BANNER:AV.avi;
#BACKGROUND:NightChanges-bg.png;
#PREVIEWVID:;
#JACKET:jacket.jpg;
#CDIMAGE:;
#DISCIMAGE:;
#LYRICSPATH:;
#CDTITLE:;
#MUSIC:Night Changes - One Direction.mp3;
#OFFSET:0.140000;
#SAMPLESTART:40.580002;
#SAMPLELENGTH:14.000000;
#SELECTABLE:YES;
#BPMS:0.000=119.050,
17.000=120.050,
73.000=119.050,
81.000=121.050,
98.000=119.050,
126.500=121.050,
140.500=119.050,
149.000=59.525,
151.000=120.070,
160.000=120.050,
175.000=60.025,
189.000=120.050,
273.000=60.025;
#STOPS:;
#DELAYS:;
#WARPS:;
#TIMESIGNATURES:0.000=4=4;
#TICKCOUNTS:0.000=4;
#COMBOS:0.000=1;
#SPEEDS:0.000=1.000=0.000=0;
#SCROLLS:0.000=1.000;
#FAKES:;
#LABELS:0.000=Song Start;
#BGCHANGES:0.000=NC.avi=1.600=1=0=1===CrossFade==,
2.000=NC.avi=1.000=0=0=1=====,
252.000=NC.avi=0.500=0=0=1=====,
255.500=NC.avi=1.000=0=0=1=====,
99999=-nosongbg-=1.000=0=0=0 // don't automatically add -songbackground-
;
#KEYSOUNDS:;
#ATTACKS:
;

//---------------dance-single - ----------------
#NOTEDATA:;
#CHARTNAME:;
#STEPSTYPE:dance-single;
#DESCRIPTION:;
#CHARTSTYLE:;
#DIFFICULTY:Challenge;
#METER:14;
#RADARVALUES:0.487674,0.651424,0.495955,0.412222,0.077292,530.000000,453.000000,77.000000,64.000000,0.000000,0.000000,0.000000,0.000000,0.000000,0.487674,0.651424,0.495955,0.412222,0.077292,530.000000,453.000000,77.000000,64.000000,0.000000,0.000000,0.000000,0.000000,0.000000;
#CREDIT:;
#NOTES:
0000
0000
0000
0000
,
0000
0000
0000
0000
,
0000
0000
0000
0000
,
0000
0000
0000
0000
,
0000
0000
1000
0010
0100
0001
2000
3000
,
1000
0010
0000
0010
0100
1000
0100
0010
,
1000
0001
0201
0000
0310
0000
1000
0100
,
0010
0001
0000
0100
0010
1000
0100
0010
,
1000
0100
0020
1000
0100
1000
0031
0000
,
0001
0100
0000
1000
0000
0100
0010
1000
,
0002
0000
0103
1000
0100
0100
0010
0001
,
0010
0010
0001
1000
0100
0100
0010
0001
,
0010
0001
0100
0010
1000
0000
0010
0100
,
1000
0100
0000
0100
1000
0000
0100
0001
,
0100
0000
1020
0000
0031
0000
0100
1000
,
0010
1000
0000
1000
0100
1000
0010
1000
,
0010
0000
0020
0001
1030
0100
0010
0000
,
1000
0100
0000
1000
0000
1000
0100
0010
,
0001
1000
1020
0100
0031
1000
0100
0010
,
1000
0010
1000
0010
0100
0010
1000
0010
,
0100
0000
0010
0000
1001
0000
0001
0000
0200
0300
1000
0000
0110
0000
0001
0000
,
0200
0300
0001
0000
1010
0000
0000
0000
0200
0300
0010
0000
1001
0000
0010
0000
,
0200
0300
1000
0000
1010
0000
0000
0000
0002
0003
0100
0000
1010
0000
0010
0000
,
0200
0300
1000
0000
0011
0000
0000
0000
2000
3000
0100
0000
0110
0000
1000
0000
,
0020
0030
0001
0000
1001
0000
0000
0000
0020
0030
1000
0000
1001
0000
0010
0000
,
2000
3000
0010
0000
1010
0000
0000
0000
0001
0000
0100
0000
0001
0000
0100
0000
,
0010
1000
2010
0000
3001
0100
0201
0000
,
0310
1000
1010
1000
0000
0110
0000
1001
,
0010
1000
0200
0000
0310
0001
1000
0100
,
0010
1000
1001
0001
1000
0110
1000
1001
,
0100
0010
2010
0000
3001
0100
1010
0100
,
0001
1000
0110
0001
0100
1000
0000
0100
,
0001
0100
0002
0000
0103
1000
0100
0010
,
1001
0001
1000
0100
0010
1000
0010
1000
,
0001
0000
2100
0000
3100
0001
0120
0000
,
1030
1000
1001
0000
0010
1010
0000
0010
,
0001
0100
0012
0000
0013
1000
0100
0020
,
0000
0000
1030
0000
0000
0000
0000
0000
0100
0010
0000
0002
2003
0000
0000
0000
,
3001
0100
0110
0000
1000
0100
0101
0000
,
0010
0000
1000
0100
0010
0001
0101
0000
,
0010
1000
0110
0000
0001
1000
0011
0000
,
0100
0000
1100
0010
0100
0001
0101
0000
,
0010
1000
0110
0000
0001
1000
0101
0000
,
0010
0000
1000
0000
1100
0000
0000
0000
0010
0000
0000
0000
0100
1000
0100
0010
,
0002
0000
0003
0100
0000
0010
0100
0010
1000
0100
0010
0000
0002
0000
1003
0010
,
0100
1000
0000
0100
0010
0100
1000
0001
1000
0100
0010
1000
0001
0010
0100
0001
,
0020
0000
0130
2000
0000
3100
0010
0100
1000
0100
0010
0001
0020
0000
0000
0000
,
0000
0000
2030
0000
3001
0000
0100
0000
0020
0030
0001
0000
0110
0000
1000
0000
,
0020
0030
1000
0000
0101
0000
0000
0000
0020
0030
0100
0000
1001
0000
0100
0000
,
0020
0030
0001
0000
0101
0000
0000
0000
2000
3000
0010
0000
0101
0000
0100
0000
,
0020
0030
0001
0000
1100
0000
0000
0000
0002
0003
0010
0000
0110
0000
0001
0000
,
0200
0300
1000
0000
1001
0000
0000
0000
0200
0300
0001
0000
1001
0000
0100
0000
,
0002
0003
0100
0000
0101
0000
0000
0000
1000
0000
0010
0000
1001
0000
0010
0000
,
0100
0001
0102
0000
1003
0010
1020
0000
,
0130
0001
0101
0001
0000
0110
0000
1001
,
0100
0001
0020
0000
0130
1000
0001
0010
,
0100
0001
1001
1000
0001
0110
0001
1001
,
0010
0100
0102
0000
1003
0010
0101
0010
,
1000
0001
0110
1000
0010
0001
0000
0010
,
1000
0010
2000
0000
3010
0001
0010
0100
,
1001
1000
0001
0010
0100
0001
0100
0001
,
1000
0000
0012
0000
0013
1000
0210
0000
,
0301
0001
1001
0000
0100
0101
0000
0100
,
1000
0010
2100
0000
3100
0001
0010
0200
,
0000
0000
0301
0000
0010
0000
0100
0000
2000
3000
0101
0000
0000
0000
1010
0000
,
0200
0300
0001
0000
0120
0000
0000
0000
2030
3000
0001
0000
0110
0000
1000
0000
,
0002
0003
0100
0000
0110
0000
1000
0000
0002
0003
0100
0000
0000
0000
1000
0000
,
0002
0003
0010
0000
0102
0000
0000
0000
2003
3000
0010
0000
0110
0000
1000
0000
,
0002
0003
0110
0000
0001
0000
0000
0000
1000
0001
0000
0100
2000
0000
0000
0000
,
0000
0000
0000
3000
;

//---------------dance-single - Copied from----------------
#NOTEDATA:;
#CHARTNAME:Copied from;
#STEPSTYPE:dance-single;
#DESCRIPTION:Copied from;
#CHARTSTYLE:;
#DIFFICULTY:Hard;
#METER:8;
#RADARVALUES:0.308247,0.379132,0.135260,0.386459,0.000000,335.000000,314.000000,21.000000,60.000000,0.000000,0.000000,0.000000,0.000000,0.000000,0.308247,0.379132,0.135260,0.386459,0.000000,335.000000,314.000000,21.000000,60.000000,0.000000,0.000000,0.000000,0.000000,0.000000;
#CREDIT:Copied from;
#NOTES:
0000
0000
0000
0000
,
0000
0000
0000
0000
,
0000
0000
0000
0000
,
0000
0000
0000
0000
,
0000
0000
1000
0010
1000
0010
2000
0000
,
0000
3020
0000
0130
0010
0000
0100
0010
,
0100
0000
0001
0000
0001
0000
1000
0001
,
0000
0010
0000
0010
0100
0010
0100
0010
,
0200
0000
1300
0100
0010
0001
0010
0000
,
0010
1000
0000
0000
0000
1000
0010
1000
,
0020
0000
0130
0010
0100
0010
0100
0001
,
0100
0001
0100
0010
0100
0010
0100
0001
,
0100
0001
0100
0010
2000
0000
3020
0000
,
0030
1000
0000
1000
0010
1000
0010
1000
,
0010
0000
0001
0000
0100
0000
0100
1000
,
0000
1000
0000
1000
0010
0100
0001
1000
,
0100
0000
0010
1000
0001
1000
0100
0000
,
0001
0010
0000
0010
0000
0100
0010
0100
,
0020
0000
0031
1000
0010
0000
0001
0010
,
0100
0000
0001
1000
0010
0000
0010
0100
,
0010
0000
0001
0000
0001
1000
0001
1000
,
0000
0020
0000
0000
0130
0010
0000
0200
,
0000
0000
0310
0000
0010
1000
0001
0010
,
0100
0020
0000
0000
0031
2000
0000
3020
,
0000
0000
0130
0000
0010
1000
0001
2000
,
0000
3020
0000
0030
0100
0001
0000
0200
,
0000
0300
0220
0000
0000
0330
2002
0000
,
0000
3003
2200
0000
0000
3300
0010
1000
,
0010
0000
0200
0300
0010
0100
0001
0000
,
0010
1000
0001
1000
0000
0100
0000
0020
,
0000
0000
0130
0000
0001
1000
0001
0000
,
0100
0000
0010
0100
0000
0100
0000
0020
,
0000
0000
0130
0000
1000
0100
0010
0001
,
0010
0200
0000
0310
1000
0010
0000
0100
,
0000
0001
0010
0100
,
1000
0000
0110
0000
0000
0001
0000
0002
,
1003
0000
1001
0000
0010
1000
0001
1000
,
0000
0010
0100
0000
0100
0010
1010
0000
,
0010
1000
0010
0000
1010
0000
0001
0000
,
0001
1000
0001
0000
1001
0000
0100
0000
,
0100
0010
0100
0000
0110
0000
1000
0000
,
1000
0010
1000
0000
1010
0000
0001
0000
,
0001
0010
0001
0000
0011
0000
0010
0000
,
0010
0100
0010
0000
0110
0000
2000
0000
,
0000
3200
0000
0320
,
0000
0032
0000
2003
,
0000
3002
0000
0203
,
0000
0000
0310
0000
1000
0010
1000
0020
,
0000
0230
0000
0000
0310
1000
0000
0002
,
0000
0000
0013
0000
0010
1000
0001
0020
,
0000
0230
0000
0000
1300
0001
0000
2000
,
0000
0000
3010
0000
0010
1000
0001
0020
,
0000
0230
0000
0000
1300
0001
0000
1000
,
0000
0020
0130
0002
,
1003
0000
2000
0000
0000
3020
0000
0230
,
0300
0000
0110
0000
1000
0010
1000
0000
,
0010
0100
0010
0200
0000
0302
0000
0023
,
0000
0000
0031
0000
0010
1000
0010
0000
,
0100
0000
0010
0100
0000
0100
0000
0020
,
0000
0000
1030
0000
0010
1000
0010
0100
,
0010
0200
0000
0302
0000
2003
0000
3020
,
0000
0030
0012
0000
0013
0000
1200
0000
,
1300
0000
2020
3000
0000
1030
0000
0001
,
0000
0000
1010
0000
0001
1000
0100
1000
,
0000
0010
0100
0000
0001
1000
0000
1000
,
0010
0000
0110
0000
0001
1000
0100
1000
,
0001
0000
0011
0000
0100
1000
0000
1000
,
0010
0000
0110
0000
0010
0100
0010
0100
,
0010
0120
0100
2000
,
0000
3030
0000
0000
;

//---------------dance-single - Copied from Copied f----------------
#NOTEDATA:;
#CHARTNAME:Copied from Copied f;
#STEPSTYPE:dance-single;
#DESCRIPTION:Copied from Copied f;
#CHARTSTYLE:;
#DIFFICULTY:Medium;
#METER:5;
#RADARVALUES:0.229115,0.243549,0.064410,0.122379,0.000000,249.000000,239.000000,10.000000,19.000000,0.000000,0.000000,0.000000,0.000000,0.000000,0.229115,0.243549,0.064410,0.122379,0.000000,249.000000,239.000000,10.000000,19.000000,0.000000,0.000000,0.000000,0.000000,0.000000;
#CREDIT:Copied from Copied f;
#NOTES:
0000
0000
0000
0000
,
0000
0000
0000
0000
,
0000
0000
0000
0000
,
0000
0000
0000
0000
,
0000
1000
0001
1000
,
0000
0100
0000
0000
1000
0000
0010
0000
,
1000
0001
1000
0010
,
0000
1000
0000
0000
0100
0000
1000
0000
,
0100
0010
1000
0100
,
0000
1000
0000
0000
0010
0000
0100
0000
,
0010
1000
0001
0100
,
0010
1000
0001
1000
,
0010
1000
0100
1000
,
0001
1000
0010
0100
,
0010
1000
0100
0010
,
1000
0010
0100
0010
,
0100
0001
0100
0010
,
1000
0001
1000
0010
,
0100
1001
0000
0000
,
0000
0000
0000
0000
,
0000
1001
1000
0001
,
0010
0100
1000
0010
,
0100
1000
0100
0000
0100
0000
0100
0000
,
0010
0001
0100
1000
,
1000
0100
1000
0000
0001
0000
1000
0000
,
0010
0100
0010
1000
,
0001
2000
3001
0200
,
0310
0002
1003
2000
,
3001
1000
0100
1000
,
0010
0001
0010
0100
,
0010
2000
3001
0100
,
0010
0001
0010
0100
,
0010
0002
1003
1000
,
0100
0010
0001
0010
,
1000
2000
3001
0200
,
0310
0002
1003
2000
,
3001
0010
0100
1000
,
0001
1001
0000
1001
,
1000
0010
0100
1000
,
0001
1000
0010
1000
,
0100
1000
0010
0001
,
0100
0001
1000
0010
,
0100
1000
0001
1000
,
0010
1000
0001
1001
,
0000
0000
0000
1001
,
0000
0000
0000
1010
,
0000
0000
0000
0101
,
0000
1000
0100
1000
,
0100
1000
0100
1000
,
0100
0010
0001
0100
,
0001
1000
0010
0100
,
1000
0010
0100
1000
,
0001
1000
0010
0100
,
0010
2000
3001
0200
,
0310
0002
1003
0020
,
0031
1000
0100
1000
,
0010
0100
0001
1000
,
0001
1000
0010
0100
,
0001
1000
0001
0010
,
0100
0001
1000
0100
,
1000
0010
0100
0010
,
0100
0002
1003
2000
,
3001
0200
0310
0002
,
1003
1001
0001
1000
,
0001
0100
0010
1000
,
0001
1000
0100
1000
,
0010
0100
0001
1000
,
0001
0100
0010
0100
,
1000
2001
0000
3001
;

//---------------dance-single - Copied from Copied f----------------
#NOTEDATA:;
#CHARTNAME:Copied from Copied f;
#STEPSTYPE:dance-single;
#DESCRIPTION:Copied from Copied f;
#CHARTSTYLE:;
#DIFFICULTY:Easy;
#METER:4;
#RADARVALUES:0.108576,0.177127,0.038646,0.186788,0.000000,118.000000,112.000000,6.000000,29.000000,0.000000,0.000000,0.000000,0.000000,0.000000,0.108576,0.177127,0.038646,0.186788,0.000000,118.000000,112.000000,6.000000,29.000000,0.000000,0.000000,0.000000,0.000000,0.000000;
#CREDIT:Copied from Copied f;
#NOTES:
0000
0000
0000
0000
,
0000
0000
0000
0000
,
0000
0000
0000
0000
,
0000
0000
0000
0000
,
0000
2000
0000
0000
,
0000
0000
0000
0000
,
0000
0000
0002
3000
0000
0000
0000
0000
,
0000
0000
0000
0000
,
0000
0023
0000
0000
,
0000
0000
0000
0000
,
0000
0230
0000
0000
,
0000
0000
0000
0000
,
0000
0300
0002
0000
0000
0000
0000
0000
,
0000
0000
0000
0000
,
0000
2003
0000
0000
,
0000
0000
0000
0000
,
0000
3200
0000
0000
,
0000
0000
0000
0000
,
0000
0320
0000
0000
,
0000
0000
0000
0000
,
0000
0030
1000
0000
0100
0000
0000
0000
,
0010
0000
1000
0000
,
1000
0000
0010
0000
,
0100
0000
0010
0000
,
0001
0000
0100
0000
,
1000
0000
1000
0000
,
0010
0000
0002
0000
0000
0003
0200
0000
,
0000
2300
0000
0000
,
0000
3020
0130
0000
,
0100
0000
0001
0000
,
0010
0002
1003
0000
,
0100
0000
1000
0000
,
0010
2000
3001
0000
,
0001
0000
0100
0000
,
0010
0000
2000
0000
0000
3000
0200
0000
,
0000
0300
0020
0000
0000
0000
0000
0000
,
0000
2030
3010
0010
,
0000
0100
0000
0100
,
1000
0000
0100
0000
,
0010
0000
0001
0000
,
1000
0000
0100
0000
,
0010
0000
0001
0000
,
1000
0000
0100
0000
,
0010
0000
0001
1001
,
0000
0000
0000
0110
,
0000
0000
0000
0011
,
0000
0000
0000
1100
,
0000
2000
3010
0000
,
0100
0000
1000
0000
,
0100
0000
1000
0000
,
0100
0000
0010
0000
,
0001
0000
0010
0000
,
0001
0000
0010
0000
,
1000
0200
0000
0320
,
0000
0032
0000
0000
,
0000
0023
0130
0000
,
1000
0000
0100
0000
,
1000
0020
0130
0000
,
0001
0000
1000
0000
,
0010
2000
3100
0000
,
0100
0000
0010
0000
,
0001
0000
0002
0000
0000
0003
2000
0000
,
0000
3000
0200
0000
0000
0000
0000
0000
,
0000
2300
3100
0000
,
0010
0000
0010
0000
,
1000
0001
0100
0000
,
1000
0000
0100
0000
,
1000
0001
0100
0000
,
0010
1001
0000
0110
;

//---------------dance-single - Copied from Copied f----------------
#NOTEDATA:;
#CHARTNAME:Copied from Copied f;
#STEPSTYPE:dance-single;
#DESCRIPTION:Copied from Copied f;
#CHARTSTYLE:;
#DIFFICULTY:Beginner;
#METER:2;
#RADARVALUES:0.079132,0.132845,0.012882,0.180347,0.000000,86.000000,84.000000,2.000000,28.000000,0.000000,0.000000,0.000000,0.000000,0.000000,0.079132,0.132845,0.012882,0.180347,0.000000,86.000000,84.000000,2.000000,28.000000,0.000000,0.000000,0.000000,0.000000,0.000000;
#CREDIT:Copied from Copied f;
#NOTES:
// measure 0
0000
0000
0000
0000
,  // measure 1
0000
0000
0000
0000
,  // measure 2
0000
0000
0000
0000
,  // measure 3
0000
0000
0000
0000
,  // measure 4
0000
2000
0000
0000
,  // measure 5
0000
0000
0000
0000
,  // measure 6
0000
0000
0002
3000
0000
0000
0000
0000
,  // measure 7
0000
0000
0000
0000
,  // measure 8
0000
0023
0000
0000
,  // measure 9
0000
0000
0000
0000
,  // measure 10
0000
0230
0000
0000
,  // measure 11
0000
0000
0000
0000
,  // measure 12
0000
0300
0002
0000
0000
0000
0000
0000
,  // measure 13
0000
0000
0000
0000
,  // measure 14
0000
2003
0000
0000
,  // measure 15
0000
0000
0000
0000
,  // measure 16
0000
3200
0000
0000
,  // measure 17
0000
0000
0000
0000
,  // measure 18
0000
0320
0000
0000
,  // measure 19
0000
0000
0000
0000
,  // measure 20
0000
0030
1000
0000
0000
0000
1000
0000
,  // measure 21
0000
0100
0000
0000
,  // measure 22
0000
0010
0000
0010
,  // measure 23
0000
0001
0000
0000
,  // measure 24
0000
0100
0000
0100
,  // measure 25
0000
1000
0000
0000
,  // measure 26
0000
0002
0003
0200
,  // measure 27
0300
2000
0000
0000
,  // measure 28
3000
0020
0000
0000
,  // measure 29
0030
1000
0000
0001
,  // measure 30
0000
0020
0030
1000
,  // measure 31
0000
0100
0000
1000
,  // measure 32
0000
0020
0030
0001
,  // measure 33
0000
1000
0000
0100
,  // measure 34
0000
2000
3000
0200
,  // measure 35
0300
0020
0000
0000
,  // measure 36
0030
0001
0000
1000
,  // measure 37
0000
0001
0000
1001
,  // measure 38
0000
1000
0000
0100
,  // measure 39
0000
1000
0000
0010
,  // measure 40
0000
0001
0000
1000
,  // measure 41
0000
0001
0000
1000
,  // measure 42
0000
0010
0000
0100
,  // measure 43
0000
1000
0000
0001
,  // measure 44
0000
0000
0000
1000
,  // measure 45
0000
0000
0000
0001
,  // measure 46
0000
0000
0000
0001
,  // measure 47
0000
1000
0000
0100
,  // measure 48
0000
1000
0000
0001
,  // measure 49
0000
0010
0000
1000
,  // measure 50
0000
0100
0000
1000
,  // measure 51
0000
0100
0000
0010
,  // measure 52
0000
0001
0000
1000
,  // measure 53
0000
0020
0000
2030
,  // measure 54
0000
3002
0000
0000
,  // measure 55
0000
0203
0300
1000
,  // measure 56
0000
0100
0000
0010
,  // measure 57
0000
0001
0000
1000
,  // measure 58
0000
0100
0000
1000
,  // measure 59
0000
0002
0000
0000
,  // measure 60
0000
0000
0003
0000
,  // measure 61
0000
2000
0000
3200
,  // measure 62
0300
0020
0000
0030
,  // measure 63
0000
0002
0000
0000
,  // measure 64
0000
0000
0003
0000
,  // measure 65
0000
2000
0000
0000
,  // measure 66
0000
0000
0000
0000
,  // measure 67
3000
0200
0000
0000
,  // measure 68
0000
0300
0000
1001
;
