#VERSION:0.83;
#TITLE:Memory Of Beach;
#SUBTITLE:;
#ARTIST:M2U;
#TITLETRANSLIT:;
#SUBTITLETRANSLIT:;
#ARTISTTRANSLIT:;
#GENRE:;
#ORIGIN:;
#CREDIT:;
#BANNER:AV.avi;
#BACKGROUND:Bga.jpg;
#PREVIEWVID:;
#JACKET:;
#CDIMAGE:;
#DISCIMAGE:;
#LYRICSPATH:;
#CDTITLE:;
#MUSIC:m2u - Memory of Beach.mp3;
#OFFSET:-0.060000;
#SAMPLESTART:9.600000;
#SAMPLELENGTH:15.000000;
#SELECTABLE:YES;
#BPMS:0.000=130.000;
#STOPS:;
#DELAYS:;
#WARPS:;
#TIMESIGNATURES:0.000=4=4;
#TICKCOUNTS:0.000=4;
#COMBOS:0.000=1;
#SPEEDS:0.000=1.000=0.000=0;
#SCROLLS:0.000=1.000;
#FAKES:;
#LABELS:0.000=Song Start;
#BGCHANGES:0.000=M2U- Romantic of Beach.avi=2.000=1=1=1=StretchRewind==CrossFade==,
3.500=M2U- Romantic of Beach.avi=1.000=0=0=1=====,
99999=-nosongbg-=1.000=0=0=0 // don't automatically add -songbackground-
;
#KEYSOUNDS:;
#ATTACKS:
;

//---------------dance-single - ----------------
#NOTEDATA:;
#CHARTNAME:;
#STEPSTYPE:dance-single;
#DESCRIPTION:;
#CHARTSTYLE:;
#DIFFICULTY:Challenge;
#METER:14;
#RADARVALUES:0.753765,0.743220,0.930246,0.952572,0.662335,709.000000,584.000000,125.000000,128.000000,0.000000,28.000000,0.000000,0.000000,0.000000,0.753765,0.743220,0.930246,0.952572,0.662335,709.000000,584.000000,125.000000,128.000000,0.000000,28.000000,0.000000,0.000000,0.000000;
#CREDIT:;
#NOTES:
// measure 0
0000
0000
0000
0000
,  // measure 1
0000
0000
0000
0000
,  // measure 2
0000
0000
0000
0000
,  // measure 3
0000
0000
0000
0000
,  // measure 4
1000
0100
0010
0000
0100
1000
0000
0100
1000
0000
1000
0100
0010
0001
0010
0100
,  // measure 5
1002
0100
0010
0100
1000
0100
0010
0100
1000
0000
0100
0000
0000
0000
1000
0100
,  // measure 6
0010
0100
1000
0010
1000
0000
1000
0010
1000
0000
0100
0000
2003
0000
3200
0010
,  // measure 7
0302
0000
1000
0000
0000
0000
2003
0100
0010
0000
0001
0000
0000
0000
0100
0010
,  // measure 8
0001
0000
0100
0010
0001
0000
0010
0001
0010
0010
0100
0000
3002
0000
0203
0000
,  // measure 9
2300
0000
3001
0200
0010
0001
0320
1000
0100
0000
1000
0100
0000
0000
2030
3200
,  // measure 10
0302
0000
0010
0000
0100
1000
0100
0010
0100
0000
0023
0100
0032
0000
0023
1000
,  // measure 11
0230
0000
1000
0000
0010
0000
0302
1000
0100
0000
1000
0000
0000
0000
2000
3020
,  // measure 12
0233
0000
1000
0010
0001
0010
1000
0010
0001
0010
1000
0010
0302
2003
3200
0000
,  // measure 13
0320
0001
0100
1000
0001
0100
1000
0001
0100
0000
0001
0100
0000
0000
1000
0100
,  // measure 14
0001
0100
1000
0100
0001
0000
1000
0100
0001
0000
0100
2000
3200
2330
0100
0010
,  // measure 15
3002
0000
0010
0100
0000
0000
2003
0100
0010
0000
0001
0010
0000
0000
0100
0010
,  // measure 16
0001
0000
0001
0010
0100
0000
0100
0010
0001
0100
0200
0300
3200
0320
0000
0230
,  // measure 17
0000
0000
2300
0000
3002
0203
2300
3020
0000
0000
0230
0302
0203
0302
0000
0203
,  // measure 18
0000
0000
2300
3000
2000
3200
0000
0320
0000
0030
0200
0300
0200
0302
0203
0302
,  // measure 19
0003
0000
2010
0001
0010
0000
0100
0010
0001
0000
0010
0000
0000
0000
0001
0100
,  // measure 20
0010
0010
0000
0100
0100
0000
0001
0001
0000
0100
0010
0100
0010
0100
0010
0100
,  // measure 21
3011
0000
1000
0000
0100
0010
0000
1000
0000
0000
0001
0000
0110
0000
0110
0000
,  // measure 22
0011
0000
1000
0000
0010
0100
0000
0001
0000
0000
1000
0000
0110
0000
0110
0100
,  // measure 23
0011
0000
1000
0000
0100
0000
1000
0100
0000
0000
0010
0000
0100
0000
0010
0000
,  // measure 24
1100
0000
1100
0000
0110
0000
0011
0000
0100
0010
0100
0000
0100
0000
0010
0010
,  // measure 25
0001
0000
0010
0000
0100
0000
1000
0100
0010
0000
1000
0000
0100
0000
0010
0000
,  // measure 26
0001
0000
0010
0000
0100
0000
0010
0100
0000
0000
0001
0000
1000
0000
0100
0000
,  // measure 27
0110
0000
0000
0110
0000
0000
0210
0000
0001
0000
0000
1000
0000
0000
0010
0300
,  // measure 28
0000
0000
1100
0000
0000
1100
0000
0000
0110
0000
0000
1100
0000
0000
1100
1000
,  // measure 29
0000
0000
1000
0000
0100
0000
0010
0100
0000
0000
0010
0000
0110
0000
0110
0000
,  // measure 30
0011
0000
1000
0000
0100
0000
0010
1000
0000
0000
0100
0000
0011
0000
0110
0100
,  // measure 31
0110
0000
1000
0000
0100
0000
0010
0100
0000
0000
1000
0000
0110
0000
0110
0000
,  // measure 32
0011
0000
0110
0000
1100
0000
1100
0000
0000
0100
1000
0000
0100
0000
0100
0000
,  // measure 33
0010
0000
0100
0000
0010
0000
0010
0100
0000
0000
0001
0000
1000
0100
0010
0100
,  // measure 34
1000
0000
0100
0000
0010
0000
0100
0010
0000
0000
0100
0000
1000
0000
0100
0000
,  // measure 35
0000
0000
0110
0000
0110
0000
0100
1001
1001
0000
0110
0000
0100
0010
0100
0010
,  // measure 36
0000
0000
1001
0000
0000
1001
0000
0000
1001
0000
0000
0000
0100
0100
0100
0000
,  // measure 37
1001
0000
0000
0110
1001
0000
0000
0101
,  // measure 38
0101
0000
0000
0101
0000
0000
0101
0000
1001
0000
0101
0000
0000
0000
0011
0000
,  // measure 39
0011
0000
0000
0000
1001
0000
0110
0000
0110
0000
0000
0000
0000
0000
1010
1010
,  // measure 40
0000
0000
0101
0000
0101
0000
0110
0000
0110
0000
0000
0110
0000
0000
0110
0000
,  // measure 41
1001
0000
0000
0110
1001
0000
0000
0110
,  // measure 42
0110
0000
0000
1010
0000
0000
0110
0000
0101
0000
0110
0000
0000
0000
0110
0000
,  // measure 43
0110
0000
0000
0000
0000
0000
0110
0000
1001
0000
0000
0000
0000
0000
0000
1001
,  // measure 44
0000
1001
0000
0110
0110
0110
0110
0110
,  // measure 45
0210
0000
1001
0320
1100
2030
0110
3002
,  // measure 46
0110
0000
1100
0003
0110
0000
1001
2000
,  // measure 47
0021
3000
0000
0030
1002
0000
0023
0000
1230
0000
0000
0300
1002
0000
0003
0100
,  // measure 48
1001
0000
0100
0000
1001
0000
0001
0100
1001
0000
0200
0000
0311
0000
0000
0100
,  // measure 49
1100
0000
0002
0000
1100
0003
0020
0130
1001
0000
0002
0000
1203
0000
0320
2030
,  // measure 50
0101
0000
0000
0000
0101
0000
0000
3000
0101
0000
2000
0000
3210
0000
0320
0000
,  // measure 51
1001
0030
1001
0000
1001
0000
0000
0110
0000
0000
0110
0000
0100
0010
0100
0010
,  // measure 52
0000
0000
0110
0000
0000
0110
0000
0000
0110
0000
0000
0000
0010
0010
0010
0000
,  // measure 53
1002
0000
0000
0000
1000
0000
0100
0010
0000
0000
1000
0100
0010
0000
0010
0100
,  // measure 54
0000
0000
1000
0000
0100
0000
0010
0000
0100
0000
1000
0100
2003
0010
3200
0300
,  // measure 55
2000
0000
0001
0010
0100
0000
3200
0000
0010
0000
0001
0010
1000
0000
0010
0000
,  // measure 56
1000
0001
0000
1000
0000
0000
0001
0010
1000
0000
1000
0010
0302
0000
0023
0030
,  // measure 57
2000
0010
0001
3200
0010
0000
1302
0100
0010
0000
0100
0010
0000
0023
2030
3000
,  // measure 58
0200
0320
0001
1000
0100
0000
1000
0000
0100
0000
0200
0031
2300
0000
3020
0000
,  // measure 59
0230
0000
0010
1000
0010
0000
2300
0000
0100
0000
0010
0100
0000
0010
0001
0000
,  // measure 60
3200
0010
0001
0010
0001
1000
0010
1000
0010
0000
0010
0000
2300
3200
0320
0030
,  // measure 61
0002
0000
0100
0010
1000
0100
1000
0010
0100
0000
0100
0000
0100
0000
0010
0010
,  // measure 62
1000
0100
0010
0100
1000
0100
0010
0100
1000
0000
1000
0000
2003
3200
2300
3010
,  // measure 63
0200
0000
0001
0010
0001
0010
2301
0010
0100
0000
0010
0000
0010
0000
0010
0000
,  // measure 64
0100
0010
0100
0010
0001
0010
0100
0010
0001
0001
3020
0000
0230
0320
0000
0230
,  // measure 65
0000
0000
2300
0000
3002
0203
2300
3020
0000
0000
0230
0302
0203
0302
0000
0203
,  // measure 66
0000
0000
2300
3000
2000
3200
0000
0320
0000
0030
0200
0300
0200
0302
0203
0302
,  // measure 67
0003
2010
0000
0110
0110
0000
0000
0101
,  // measure 68
0000
0000
0110
0000
0000
0110
0000
0000
0110
0000
0000
0000
0000
0000
3000
0000
;

//---------------dance-single - Copied from----------------
#NOTEDATA:;
#CHARTNAME:Copied from;
#STEPSTYPE:dance-single;
#DESCRIPTION:Copied from;
#CHARTSTYLE:;
#DIFFICULTY:Hard;
#METER:12;
#RADARVALUES:0.483728,0.540148,0.528380,0.126514,0.074420,455.000000,384.000000,71.000000,17.000000,0.000000,0.000000,0.000000,0.000000,0.000000,0.483728,0.540148,0.528380,0.126514,0.074420,455.000000,384.000000,71.000000,17.000000,0.000000,0.000000,0.000000,0.000000,0.000000;
#CREDIT:Copied from;
#NOTES:
0000
0000
0000
0000
,
0000
0000
0000
0000
,
0000
0000
0000
0000
,
0000
0000
0000
0000
,
0100
0000
1000
0000
0100
1000
0000
1000
0100
0000
1000
0100
1000
0100
1000
0100
,
1000
0100
0010
0001
0010
0100
0101
0000
,
1000
0100
1000
0001
1000
0000
0011
0000
,
0010
0100
0110
0000
0001
1000
1001
0000
,
0010
1000
0100
1000
0010
0000
1100
0000
,
0011
0000
1100
0001
1000
0000
1001
0000
,
0110
0000
0011
0000
0100
1000
0001
0000
,
1100
0110
0011
0110
,
0001
1000
0100
1000
0001
0000
1001
0000
,
0010
0100
0001
0100
0010
0000
0110
0000
,
1000
0100
1000
0001
1000
0000
1100
0000
,
1000
0010
1001
0000
0001
0010
1001
0000
,
0010
1000
0001
1000
0100
0000
1100
0000
,
0001
1000
0010
0100
0001
0000
0011
0000
,
0100
1000
0001
0100
0010
0000
0011
0000
,
0100
1000
1001
0000
0010
0100
0011
0000
,
0001
0010
0110
0001
1000
0010
0110
0001
,
1000
0010
0100
0001
0010
0000
0011
0100
,
0011
0100
1000
0001
1000
0000
1100
0001
,
1100
0010
0100
0001
0010
0000
0110
0001
,
1000
0100
1000
0001
0100
0000
1001
0000
,
0010
0000
0100
0000
0000
0100
0000
0000
0010
0000
0000
0100
0000
0000
0010
0000
,
1000
0000
0001
0000
0000
0001
0000
0000
0010
0000
0000
0100
0000
0000
0010
0000
,
0001
0000
1000
0000
0000
1000
0000
0000
0010
0000
0000
0100
0000
0000
0001
0000
,
0010
0000
0100
0000
0000
0100
0000
0000
1000
0000
0000
0001
0000
0000
0100
0000
,
0010
1000
0001
1000
0100
0000
0110
0000
,
0001
1000
0010
0100
0001
0000
0011
0000
,
0010
1000
0001
0100
0010
0000
1100
0000
,
1000
0001
0010
0001
1000
0000
1001
0000
,
0010
0100
0001
0010
0001
0000
1001
0000
,
1000
0010
0001
0010
1000
0000
1001
0000
,
0100
0010
0001
1000
0100
1000
0001
1000
,
0000
0000
1100
0000
0000
1100
0000
0000
1100
0000
0000
0000
1100
0000
0000
0000
,
0010
0100
0020
0000
0100
0000
1030
0000
,
0001
0010
0002
0000
0100
0000
1003
0000
,
0010
1000
0002
0000
1000
0000
0013
0000
,
1100
1001
0110
0011
,
0100
0010
0001
0010
0200
0000
1300
0000
,
0010
1000
0001
1000
0020
0000
0130
0000
,
1000
0000
0100
0000
1000
0000
0001
0000
2000
0000
0000
0000
3001
0000
0000
0010
,
0000
0010
0000
0100
0100
0100
0100
0100
,
2000
3100
0020
0130
,
0002
0000
0013
0000
2000
0000
3100
0001
,
0010
0000
0001
0010
0100
0000
1000
0000
,
1001
0010
0100
0001
0010
0100
1000
0000
,
1001
0010
0100
0001
1000
0100
0010
0001
,
2000
0000
0100
0000
3100
0100
0010
0000
,
0011
0000
0000
0000
1100
0000
0000
0000
1001
0000
0000
0000
0100
1000
0001
0010
,
0000
0000
0100
0000
0000
0100
0000
0000
0100
0000
0000
0000
0010
0100
0010
0000
,
2001
0100
0010
3001
,
0012
1000
0100
0013
,
2010
0001
0100
3010
,
0012
0100
1000
0013
,
1100
0001
0010
0100
1000
0000
0001
0000
,
1010
0001
0010
0100
1000
0000
1001
0000
,
0010
0100
0001
0010
0110
0000
1001
0000
,
0010
1000
0001
1000
0100
0000
1100
0000
,
0001
0010
0100
1000
0001
0000
1001
0000
,
0010
0100
0001
0010
0100
0000
1001
0000
,
1000
0100
0010
0100
1000
0100
0110
0000
,
1000
0001
0100
0010
1010
0000
1100
0000
,
0001
0010
0100
0010
0001
0000
1001
0000
,
1000
0010
0100
1000
0010
0000
1001
0000
,
0100
1000
0010
0100
0001
1000
0100
0000
,
0000
0000
1100
0000
0000
1001
0000
0000
2200
0000
0000
0000
0000
0000
0000
0000
,
0000
3300
0000
0000
0000
0000
0000
0000
;

//---------------dance-single - Copied from Copied f----------------
#NOTEDATA:;
#CHARTNAME:Copied from Copied f;
#STEPSTYPE:dance-single;
#DESCRIPTION:Copied from Copied f;
#CHARTSTYLE:;
#DIFFICULTY:Medium;
#METER:6;
#RADARVALUES:0.326384,0.356843,0.037210,0.000000,0.141397,307.000000,302.000000,5.000000,0.000000,0.000000,0.000000,0.000000,0.000000,0.000000,0.326384,0.356843,0.037210,0.000000,0.141397,307.000000,302.000000,5.000000,0.000000,0.000000,0.000000,0.000000,0.000000,0.000000;
#CREDIT:Copied from Copied f;
#NOTES:
0000
0000
0000
0000
,
0000
0000
0000
0000
,
0000
0000
0000
0000
,
0000
0000
0000
0000
,
1000
1000
1000
1001
,
0100
0000
0010
0000
0000
1000
0000
0000
0001
0000
0000
0100
0000
0000
0010
0000
,
0000
0000
0100
0000
0000
1000
0000
0000
0100
0000
0000
0010
0000
0000
0100
0000
,
0000
0000
0001
0000
0000
1000
0000
0000
0001
0000
0000
0100
0000
0000
0001
0000
,
0000
0000
0100
0000
0000
0010
0000
0000
0100
0000
0000
0010
0000
0000
1000
0000
,
0000
0000
0100
0000
0000
0010
0000
0000
1000
0000
0000
0001
0000
0000
0100
0000
,
0000
0000
1000
0000
0000
0001
0000
0000
0100
0000
0000
0010
0000
0000
0100
0000
,
0000
0000
1000
0000
0000
0100
0000
0000
0010
0000
0000
0100
0000
0000
0010
0000
,
0000
0000
0001
0000
0000
0001
0000
0000
0100
0000
0000
0100
0000
0000
0010
0000
,
0000
0000
1000
0000
0000
0100
0000
0000
0010
0000
0000
0010
0000
0000
0010
0000
,
0000
0000
1000
0000
0000
0100
0000
0000
0010
0000
0000
0001
0000
0000
0010
0000
,
0000
0000
1000
0000
0000
0100
0000
0000
1000
0000
0000
1000
0000
0000
0100
0000
,
0000
0000
1000
0000
0000
1000
0000
0000
0100
0000
0000
0100
0000
0000
0010
0000
,
0000
0000
0001
0000
0000
0001
0000
0000
0010
0000
0000
0010
0000
0000
0100
0000
,
0000
0000
1000
0000
0000
0100
0000
0000
0010
0000
0000
0100
0000
0000
0001
0000
,
0000
0000
1000
0000
0000
1000
0000
0000
0100
0000
0000
0100
0000
0000
0010
0000
,
0100
0000
0000
0100
0000
0000
0100
0000
0000
0100
0000
0000
0100
0000
0100
0000
,
0110
0000
1000
0000
0100
0000
1000
0100
,
0010
0000
0001
0000
0001
0000
0001
0010
,
0100
0000
1000
0000
1000
0000
0100
0010
,
0100
0100
0010
0100
0000
1000
0100
0010
,
0100
0100
0001
0000
0001
0000
1000
0100
,
0010
0100
1000
0100
0010
0000
0100
0000
,
0010
1000
0001
0100
,
0010
0000
0100
0000
1000
1000
0100
0000
,
0010
0000
0100
0000
0001
0000
0100
0100
,
0010
0000
1000
0000
0100
0000
0010
0010
,
0100
1000
0100
0010
,
1000
0001
0100
0100
,
1000
0100
0010
0001
,
0010
0100
1000
0010
,
0100
0000
0000
0010
0000
0000
0100
0000
0000
0000
0100
0000
0000
0100
0000
0000
,
0000
0000
1000
0000
0000
1000
0000
0000
1000
0000
0000
0000
0000
0000
0000
0000
,
0100
1000
0100
0010
,
1000
0000
0000
0100
0010
0000
0000
0001
,
0010
0000
0000
0100
1000
0000
0000
0010
,
0001
0000
0000
0100
1000
0000
0000
0100
,
0010
0000
0000
1000
0001
0000
0000
0001
,
0010
0000
0000
0100
0010
0000
0000
1000
,
0100
0000
0000
0100
0010
0000
0000
0001
,
0000
0010
0000
0100
0100
1000
0100
0100
,
0010
0001
0010
0100
,
1000
0100
0010
0100
,
1000
0100
0010
0001
,
0100
0000
1000
0000
0100
0100
0010
0000
,
0001
1000
0001
1000
,
0100
0010
0100
0010
,
1000
0000
0000
0000
0100
0000
0000
0000
0010
0000
0000
1000
0000
0000
0001
0000
,
0000
0000
0100
0000
0000
0100
0000
0000
0100
0000
0000
0000
0000
0000
0000
0000
,
1000
1000
1000
1000
,
0100
0000
0100
0000
0100
0000
0100
0010
,
0100
0100
0100
0100
,
0001
0000
0001
0000
0001
0000
0001
0100
,
0001
1000
1000
1000
,
0100
0010
0100
0010
,
1000
1000
0100
0100
,
0010
0000
0010
0000
0001
0000
0001
0010
,
0100
1000
1000
1000
,
0100
0000
0100
0000
0010
0000
0010
0100
,
0010
1000
1000
1000
,
0100
0000
0100
0000
0010
0000
0010
1000
,
0010
0000
0001
0100
0001
0000
1000
0001
,
1000
0000
0100
0010
0100
0000
1000
0010
,
1000
0100
0100
0010
,
0000
0000
0110
0000
0000
0110
0000
0000
0110
0000
0000
0000
0000
0000
0000
0000
;

//---------------dance-single - Copied from Copied f----------------
#NOTEDATA:;
#CHARTNAME:Copied from Copied f;
#STEPSTYPE:dance-single;
#DESCRIPTION:Copied from Copied f;
#CHARTSTYLE:;
#DIFFICULTY:Easy;
#METER:4;
#RADARVALUES:0.248774,0.305865,0.000000,0.126514,0.122793,234.000000,234.000000,0.000000,17.000000,0.000000,0.000000,0.000000,0.000000,0.000000,0.248774,0.305865,0.000000,0.126514,0.122793,234.000000,234.000000,0.000000,17.000000,0.000000,0.000000,0.000000,0.000000,0.000000;
#CREDIT:Copied from Copied f;
#NOTES:
0000
0000
0000
0000
,
0000
0000
0000
0000
,
0000
0000
0000
0000
,
0000
0000
0000
0000
,
1000
1000
1000
0001
,
0100
0000
0010
0000
0000
1000
0000
0000
0001
0000
0000
0100
0000
0000
0010
0000
,
0000
0000
0100
0000
0000
1000
0000
0000
0100
0000
0000
0010
0000
0000
0100
0000
,
0000
0000
0001
0000
0000
1000
0000
0000
0001
0000
0000
0100
0000
0000
0001
0000
,
0000
0000
0100
0000
0000
0010
0000
0000
0100
0000
0000
0010
0000
0000
1000
0000
,
0000
0000
0100
0000
0000
0010
0000
0000
1000
0000
0000
0001
0000
0000
0100
0000
,
0000
0000
1000
0000
0000
0001
0000
0000
0100
0000
0000
0010
0000
0000
0100
0000
,
0000
0000
1000
0000
0000
0100
0000
0000
0010
0000
0000
0100
0000
0000
0010
0000
,
0000
0000
0001
0000
0000
0001
0000
0000
0100
0000
0000
0100
0000
0000
0010
0000
,
0000
0000
1000
0000
0000
0100
0000
0000
0010
0000
0000
0010
0000
0000
0010
0000
,
0000
0000
1000
0000
0000
0100
0000
0000
0010
0000
0000
0001
0000
0000
0010
0000
,
0000
0000
1000
0000
0000
0100
0000
0000
1000
0000
0000
1000
0000
0000
0100
0000
,
0000
0000
1000
0000
0000
1000
0000
0000
0100
0000
0000
0100
0000
0000
0010
0000
,
0000
0000
0001
0000
0000
0001
0000
0000
0010
0000
0000
0010
0000
0000
0100
0000
,
0000
0000
1000
0000
0000
0100
0000
0000
0010
0000
0000
0100
0000
0000
0001
0000
,
0000
0000
1000
0000
0000
1000
0000
0000
0100
0000
0000
0100
0000
0000
0010
0000
,
0100
0000
0000
0100
0000
0000
0100
0000
0000
0100
0000
0000
0100
0000
0100
0000
,
0010
1000
0000
0100
,
0010
0100
0000
0001
,
0100
0001
0000
0010
,
0100
0010
0000
1000
,
0100
1000
0100
0000
,
0010
0001
0010
0000
,
0100
0100
0010
0000
,
1000
0100
0010
0000
,
0001
0100
0100
0000
,
1000
0100
0100
0000
,
0010
0100
0010
0000
,
1000
0100
0010
0000
,
0001
0001
1000
0000
,
1000
1000
0001
0000
,
0100
0000
0100
0000
,
0000
0100
0000
0000
0100
0000
0000
0000
,
1000
0000
0000
0000
0000
0000
0000
0100
,
0100
0000
0000
0000
0000
0000
0000
0010
,
0010
0000
0000
0000
0000
0000
0000
0001
,
0001
0000
0000
0000
0000
0000
0000
1000
,
0100
0010
0100
0001
,
1000
0000
0000
0100
0010
0000
0000
1000
,
0001
0000
0000
0001
1000
0000
0000
0000
,
0100
0100
0100
0100
,
0010
0100
0010
1000
,
0001
1000
0001
0100
,
0010
1000
0001
1000
,
0001
0100
0010
0100
,
1000
0100
0010
0100
,
1000
0100
0001
0010
,
0100
0000
1000
0000
0100
0000
0000
0010
,
0000
0000
0000
0000
,
2000
0100
3100
0000
,
0020
0001
0031
0000
,
0200
1000
1300
0000
,
0020
0001
0031
0000
,
0200
0010
0310
0000
,
2000
0001
3001
0000
,
0020
0100
0130
0000
,
0002
1000
1003
0000
,
2000
0100
3100
0000
,
0020
0100
0130
0000
,
0002
1000
1003
0000
,
0200
0010
0310
0000
,
2000
3001
0002
0103
,
0200
0310
2000
3001
,
0200
0010
0010
0310
,
0000
0000
1000
0000
0000
1000
0000
0000
1000
0000
0000
0000
0000
0000
0000
0000
;

//---------------dance-single - Copied from Copied f----------------
#NOTEDATA:;
#CHARTNAME:Copied from Copied f;
#STEPSTYPE:dance-single;
#DESCRIPTION:Copied from Copied f;
#CHARTSTYLE:;
#DIFFICULTY:Beginner;
#METER:1;
#RADARVALUES:0.115882,0.126514,0.000000,0.000000,0.000000,109.000000,109.000000,0.000000,0.000000,0.000000,0.000000,0.000000,0.000000,0.000000,0.115882,0.126514,0.000000,0.000000,0.000000,109.000000,109.000000,0.000000,0.000000,0.000000,0.000000,0.000000,0.000000,0.000000;
#CREDIT:Copied from Copied f;
#NOTES:
0000
0000
0000
0000
,
0000
0000
0000
0000
,
0000
0000
0000
0000
,
0000
0000
0000
0000
,
0000
0000
0000
0000
,
1000
0000
0100
0000
,
0010
0000
0001
0000
,
0100
0000
0010
0000
,
1000
0000
0100
0000
,
0001
0000
1000
0000
,
0100
0000
0010
0000
,
0100
0000
0010
0000
,
1000
0000
0001
0000
,
0100
0000
0010
0000
,
1000
0000
0100
0000
,
0010
0000
0001
0000
,
0100
0000
0010
0000
,
1000
0000
0100
0000
,
0010
0000
0001
0000
,
0100
0000
0100
0000
,
0100
0000
0000
0000
,
1000
0000
1000
0000
,
0001
0000
0001
0000
,
0100
0000
0100
0000
,
0010
0000
0010
0000
,
0001
0000
0001
0000
,
0100
0000
0100
0000
,
1000
0000
1000
0000
,
0100
0000
0100
0000
,
0001
0000
0001
0000
,
0010
0000
0010
0000
,
0100
0000
0100
0000
,
0010
0000
0010
0000
,
1000
0000
1000
0000
,
0100
0000
0100
0000
,
0010
0000
0010
0000
,
0001
0000
0000
0000
,
0001
0000
0000
0000
,
0001
0000
0000
0000
,
0001
0000
0000
0000
,
0001
0000
0000
0000
,
1000
0000
0000
0000
,
0001
0000
0000
0000
,
0001
0000
0000
0000
,
0000
0001
0000
0000
0001
0000
0000
0000
,
0100
0000
0100
0000
,
1000
0000
1000
0000
,
0100
0000
0000
0000
0100
0000
0000
0100
,
0000
0000
0000
0000
,
0100
0000
0010
0000
,
0010
0000
0001
0000
,
0001
0000
0100
0000
,
0100
0000
0000
0000
,
1000
0000
1000
0000
,
1000
0000
0000
0000
,
0100
0000
0100
0000
,
0100
0000
0000
0000
,
0010
0000
0010
0000
,
0010
0000
0000
0000
,
0001
0000
0001
0000
,
0001
0000
0000
0000
,
0100
0000
0100
0000
,
0100
0000
0000
0000
,
0010
0000
0010
0000
,
0010
0000
0000
0000
,
1000
0000
1000
0000
,
1000
0000
0000
0000
,
0001
0000
0001
0000
,
0001
0000
0000
0000
;
