#VERSION:0.83;
#TITLE:Look at Me Now;
#SUBTITLE:;
#ARTIST:Charlie Puth;
#TITLETRANSLIT:;
#SUBTITLETRANSLIT:;
#ARTISTTRANSLIT:;
#GENRE:;
#ORIGIN:;
#CREDIT:;
#BANNER:AV.avi;
#BACKGROUND:LAM-bg.png;
#PREVIEWVID:;
#JACKET:;
#CDIMAGE:;
#DISCIMAGE:LAM-bn.png;
#LYRICSPATH:;
#CDTITLE:;
#MUSIC:Charlie Puth - Look At Me Now.mp3;
#OFFSET:-0.140000;
#SAMPLESTART:93.339996;
#SAMPLELENGTH:20.000000;
#SELECTABLE:YES;
#BPMS:0.000=192.070,
228.000=96.035,
262.250=192.035;
#STOPS:260.000=1.180;
#DELAYS:;
#WARPS:;
#TIMESIGNATURES:0.000=4=4;
#TICKCOUNTS:0.000=4;
#COMBOS:0.000=1;
#SPEEDS:0.000=1.000=0.000=0;
#SCROLLS:0.000=1.000;
#FAKES:;
#LABELS:0.000=Song Start;
#BGCHANGES:0.000=LAM.avi=1.200=1=1=1=StretchRewind==CrossFade==,
2.000=LAM.avi=1.000=0=0=1=====,
99999=-nosongbg-=1.000=0=0=0 // don't automatically add -songbackground-
;
#KEYSOUNDS:;
#ATTACKS:
;

//---------------dance-single - ----------------
#NOTEDATA:;
#CHARTNAME:;
#STEPSTYPE:dance-single;
#DESCRIPTION:;
#CHARTSTYLE:;
#DIFFICULTY:Challenge;
#METER:14;
#RADARVALUES:0.630702,1.481892,1.331712,0.332928,0.180939,610.000000,426.000000,184.000000,46.000000,0.000000,0.000000,0.000000,0.000000,0.000000,0.630702,1.481892,1.331712,0.332928,0.180939,610.000000,426.000000,184.000000,46.000000,0.000000,0.000000,0.000000,0.000000,0.000000;
#CREDIT:;
#NOTES:
0000
0000
0000
0000
,
0000
0000
0000
0000
,
0000
0000
0000
0000
,
0000
0000
0000
0000
,
0000
0000
0000
0000
,
0000
0000
0000
0000
,
0000
0000
0000
0000
,
0000
0000
0000
0000
,
0000
0000
1000
0001
,
1001
0001
1000
1001
,
1001
0001
1000
0001
0010
1000
1001
0000
,
1001
1000
0001
1000
0001
1000
1001
0000
,
1001
0110
1001
0110
,
2002
0000
0000
3003
0110
0000
0101
0000
,
1100
0101
0110
1100
,
0202
0000
0000
0303
0101
0000
1010
0000
,
1010
0000
0000
0110
0000
0000
1000
0100
0010
0001
0000
0000
,
1100
0010
0100
0110
,
1001
0100
0010
0000
1000
0000
0110
0000
,
1001
0100
0010
0000
0001
0000
1010
0000
,
1010
0000
0100
0010
0100
0000
0011
0000
,
0022
0000
0000
0033
0101
0000
1010
0000
,
2200
0000
0000
3300
0110
0000
0101
0000
,
0100
1000
0001
1000
0000
1000
0001
0000
1000
0001
0000
0000
,
0001
0000
0000
0000
0100
0000
0000
0000
0001
0000
0000
0000
1000
0000
0000
0000
0000
0000
0010
0000
0000
0100
0000
0000
0020
0000
0000
0000
0000
0000
1000
0000
0000
0000
0000
0000
0031
0000
0000
0000
0000
0000
1000
0000
0000
0000
0000
0000
,
0110
0000
1001
0000
1001
0000
0000
0100
,
0010
1100
1001
0000
,
0010
0100
0010
0000
0011
0000
0000
0010
,
0100
0000
0110
0000
2002
0000
0000
3003
,
0010
0100
0010
0100
1010
0000
0001
0100
,
0010
0000
0100
0000
0011
0000
0000
1000
,
0110
0000
0110
0000
1100
0001
1000
0000
,
0210
0000
0310
0000
2002
0000
0000
3003
,
0110
0110
1010
1001
,
0220
0000
0000
0330
2002
3003
0000
0000
,
0011
0000
0011
0000
0110
0000
1001
1000
,
0010
1000
0110
1001
,
0110
0000
0000
1001
,
0110
0000
1100
0000
,
0110
0011
0110
0011
,
0100
0000
0000
0000
1000
0000
0000
0000
0001
0000
0000
0000
0100
0000
0000
0000
1000
0000
0000
0000
0000
0001
0000
0000
1000
0000
0000
0000
0000
0000
0001
0000
0000
0000
0000
0000
1000
0000
0000
0000
0000
0000
0001
0000
0000
0000
0000
0000
,
2002
0000
0000
3003
0110
0000
0000
0010
,
0001
0110
0101
0000
,
1000
0010
1000
0000
0100
0010
0100
1000
,
0011
0000
0110
0000
0110
1001
0000
0000
,
1010
0000
0000
0000
0110
0000
0000
1000
,
0010
1000
0110
0000
,
0100
0001
0100
0000
1000
0010
1000
1000
,
0110
0000
0110
0000
0202
0000
0000
0303
,
1010
0000
0000
0000
0110
0000
0000
0100
,
0010
0100
0110
0000
,
0010
0001
0010
0000
0010
0100
0010
1000
,
0001
0000
1001
0000
1001
0110
0000
0000
,
0110
0000
0000
0000
0011
0000
0000
0100
,
0001
0100
0110
0000
,
0010
1000
0010
0000
0100
0010
0100
0000
,
0110
0110
0110
1001
,
1001
0000
1001
0000
,
1001
0000
0020
0000
0230
0000
0300
0000
1001
0000
0000
0000
1000
0001
1000
0000
,
1001
0000
1001
0000
,
1001
0020
0230
0300
1001
0000
0000
0000
,
1001
0100
0010
0101
0010
0100
0011
1000
0100
1001
0100
0001
,
1010
0100
0001
0110
1000
0001
1100
0010
0000
1001
0000
0000
,
1001
1001
1001
1001
1001
1001
1001
1001
,
0100
0000
0010
0000
0100
0000
0010
0000
0100
0000
0010
0000
0100
0000
0010
0000
1000
0001
0100
0010
1000
0001
0100
0010
1000
0001
0100
0010
1000
0001
0100
0010
,
0000
0100
1000
0001
0010
1000
0000
0000
0000
1001
0000
0000
0000
0000
0000
0000
0000
0110
0000
0000
0000
0000
0000
0000
0101
0000
0000
0000
0000
0000
0000
0000
,
0101
0000
0000
0010
1000
0000
0011
0000
,
0101
0000
0000
0000
1000
0010
1000
0000
,
1100
0000
0000
1000
0010
0000
1010
0000
,
0202
0000
0000
0303
1000
0010
1000
0010
,
1001
0000
0100
0010
1000
0000
0010
0000
,
1100
0000
0000
0001
1010
0000
1010
0000
,
0011
0100
0001
0000
1020
0000
1030
0000
,
0202
0000
0000
0303
1010
0000
1010
0000
,
1001
0000
0101
0000
2020
0000
0000
3030
,
0202
0303
0000
0000
1100
0000
1100
0000
,
1010
0000
0101
0001
2000
0000
3001
0000
,
1010
0000
0101
0000
1002
0000
0003
1001
,
2000
0000
3000
1010
0020
0000
0030
0011
,
1002
0000
0003
1000
0010
1000
1100
0000
,
1000
0000
0010
0000
1000
0000
0000
0000
0110
0000
0000
0000
1001
0000
0100
0001
,
0100
0100
0001
0100
0202
0000
0000
0303
,
1010
0000
0000
1000
0100
0000
1010
0000
,
0110
0000
0000
0000
0001
1000
0001
0000
,
0010
1000
0010
0001
1100
0000
1010
0000
,
1010
0101
0000
0000
1001
0000
0000
0000
,
1010
0000
0000
0001
1000
0000
0001
0000
,
1010
0000
0000
0000
0010
0100
0010
0000
,
0001
1000
0001
0001
1010
0000
1010
0000
,
0220
0000
0000
0330
1001
0000
0000
0000
,
1010
0000
0000
0010
1000
0000
0010
0000
,
1010
0000
0000
0000
1000
0100
1000
0000
,
1000
0010
1000
0001
0100
0000
0101
0000
,
0101
1010
0000
0000
1010
0000
0000
0000
,
1100
0000
0000
0010
0100
0000
0010
0000
,
1010
0000
0000
0000
1000
0001
1000
0000
,
0010
1000
0010
0000
1010
0000
1010
0000
,
2020
0000
3030
0000
;

//---------------dance-single - Copied from----------------
#NOTEDATA:;
#CHARTNAME:Copied from;
#STEPSTYPE:dance-single;
#DESCRIPTION:Copied from;
#CHARTSTYLE:;
#DIFFICULTY:Hard;
#METER:10;
#RADARVALUES:0.361878,0.596737,0.057901,0.144751,0.054282,350.000000,342.000000,8.000000,20.000000,0.000000,0.000000,0.000000,0.000000,0.000000,0.361878,0.596737,0.057901,0.144751,0.054282,350.000000,342.000000,8.000000,20.000000,0.000000,0.000000,0.000000,0.000000,0.000000;
#CREDIT:Copied from;
#NOTES:
// measure 0
0000
0000
0000
0000
,  // measure 1
0000
0000
0000
0000
,  // measure 2
0000
0000
0000
0000
,  // measure 3
0000
0000
0000
0000
,  // measure 4
0000
0000
0000
0000
,  // measure 5
0000
0000
0000
0000
,  // measure 6
0000
0000
0000
0000
,  // measure 7
0000
0000
0000
0000
,  // measure 8
0000
0000
1000
0100
,  // measure 9
1000
0100
0010
0010
,  // measure 10
0100
1000
0001
1000
0010
1000
0001
0000
,  // measure 11
0001
0010
0100
1000
0001
0000
0100
0000
,  // measure 12
0010
1000
0100
0010
,  // measure 13
0002
0000
1003
0010
,  // measure 14
0100
0001
0010
0100
,  // measure 15
2000
0000
3100
0010
,  // measure 16
0100
0000
0000
0001
0000
0000
1000
0100
0010
0001
0000
0000
,  // measure 17
1000
0010
0100
0010
,  // measure 18
1000
0010
0100
0000
0010
0000
0010
0000
,  // measure 19
0001
1000
0100
0000
1000
0000
0001
0000
,  // measure 20
0100
0000
0010
1000
0001
0000
0010
0000
,  // measure 21
0200
0000
1300
0001
,  // measure 22
0200
0000
0301
0001
,  // measure 23
0010
0100
0001
1000
0000
0100
0010
0000
0100
0010
0000
0000
,  // measure 24
0001
0000
0000
0000
0010
0000
0000
0000
0100
0000
0000
0000
1000
0000
0000
0000
0000
0000
0100
0000
0000
0010
0000
0000
0200
0000
0000
0000
0000
0000
0000
0000
0000
0000
0000
0000
0000
0000
0000
0000
0000
0000
0000
0000
0000
0000
0000
0000
,  // measure 25
1300
0000
0000
0010
0100
0000
0001
0000
,  // measure 26
0010
0000
0000
0100
1000
0000
0010
0000
,  // measure 27
1000
0000
0000
0100
1000
0000
0010
0000
,  // measure 28
0200
0000
0310
0000
,  // measure 29
1000
0000
0000
0001
0010
0000
0100
0000
,  // measure 30
1000
0000
0000
0001
1000
0000
0010
0000
,  // measure 31
0100
0000
0000
0001
0010
0000
0100
0000
,  // measure 32
2000
0000
3001
0000
,  // measure 33
0100
0000
0000
1000
0100
0000
0010
0000
,  // measure 34
0001
0000
0000
0010
0001
0000
0010
0000
,  // measure 35
0100
0000
0000
0010
0100
0000
1000
0000
,  // measure 36
0001
0000
0000
0010
0100
0000
0001
0000
,  // measure 37
1001
0000
0000
1000
,  // measure 38
0100
0000
0200
0300
,  // measure 39
1000
0100
0010
0001
,  // measure 40
1000
0000
0000
0000
0100
0000
0000
0000
0010
0000
0000
0000
0001
0000
0000
0000
0000
0000
0100
0000
0000
0010
0000
0000
0200
0000
0000
0000
0000
0000
0000
0000
0000
0000
0000
0000
0000
0000
0000
0000
0000
0000
0000
0000
0000
0000
0000
0000
,  // measure 41
1300
0000
0000
0010
0100
0000
0001
0000
,  // measure 42
0010
0000
0000
0100
0010
0000
0001
0000
,  // measure 43
1000
0010
1000
0000
0001
0100
0010
0000
,  // measure 44
0200
0000
0000
0000
0001
0300
0000
0000
,  // measure 45
1000
0000
0000
0100
1000
0000
0001
0000
,  // measure 46
0010
0000
0000
0010
0100
0000
0010
0000
,  // measure 47
1000
0100
1000
0000
0010
0100
0010
0000
,  // measure 48
0200
0000
0310
0000
,  // measure 49
0010
0000
0000
0001
0010
0000
0001
0000
,  // measure 50
0010
0000
0000
0100
0010
0000
0100
0000
,  // measure 51
1000
0000
0000
0100
1000
0000
0001
0000
,  // measure 52
0200
0000
0301
0000
,  // measure 53
1000
0000
0000
0010
1000
0000
0010
0000
,  // measure 54
0100
0000
0000
0001
0010
0000
0100
0000
,  // measure 55
1001
0000
1001
0000
,  // measure 56
1001
0000
1001
0000
,  // measure 57
1001
0000
0001
0000
,  // measure 58
0001
0000
0001
0000
,  // measure 59
0001
0000
0001
0000
,  // measure 60
0001
0000
0001
0000
,  // measure 61
1000
0001
1000
0001
,  // measure 62
1000
0001
1000
0001
,  // measure 63
1000
0100
0010
0000
0001
0010
0100
0000
,  // measure 64
1000
0100
1000
0100
2000
0000
0000
0000
,  // measure 65
3000
0000
0000
0000
0000
0000
0000
0000
0000
0000
0000
0000
0000
0000
0000
0000
0000
0000
0000
0000
0000
0000
0000
0000
0000
0000
0000
0000
0000
0000
0000
0000
0000
0000
0000
0000
0000
0000
0000
0000
0000
0000
0000
0000
0000
0000
0000
0000
0000
0000
0000
0000
0000
0000
1001
0000
0000
0000
0000
0000
0000
0000
0000
0000
0000
0000
0000
0000
0000
0000
0000
0000
0000
0000
0000
0000
0000
0000
0000
0000
0000
0000
0000
0000
0000
0000
0000
0000
0000
0000
0000
0000
0000
0000
0000
0000
0000
0000
0000
0000
0000
0000
0000
0000
0001
0000
0000
0000
0000
0000
0000
0000
0000
0000
0000
0000
0000
0000
0000
0000
0000
0000
0000
0000
0000
0000
0000
0000
0000
0000
0000
0000
0000
0000
0000
0000
0000
0000
0000
0000
0000
0000
0000
0000
0000
0000
0000
0000
0000
0000
0000
0000
0000
0000
0000
0000
0000
0000
0000
0000
0000
0000
0000
0000
0000
0000
0000
0000
0100
0000
0000
0000
0000
0000
0000
0000
0000
0000
0000
0000
0000
0000
0000
0000
0000
0000
0000
0000
0000
0000
0000
0000
,  // measure 66
0010
0000
1000
0000
0100
0000
0000
0010
,  // measure 67
0001
0000
0100
0000
0001
0000
0000
0010
,  // measure 68
0001
0100
0020
0000
,  // measure 69
0130
0000
0000
0000
0001
0000
0000
1000
,  // measure 70
0100
0000
0010
0000
0001
0000
0000
1000
,  // measure 71
0001
0000
0100
0000
0010
0000
0000
1000
,  // measure 72
0100
0010
0002
0000
,  // measure 73
1003
0000
0000
0000
0010
0000
0000
0001
,  // measure 74
0010
0000
0100
0000
1000
0000
0000
0100
,  // measure 75
1000
0000
0100
0000
0010
0000
0000
0100
,  // measure 76
0010
0000
0001
0000
1000
0000
0000
0100
,  // measure 77
0010
0000
1000
0000
2001
0000
0000
3010
,  // measure 78
0100
0000
0001
0000
0020
0000
0000
0031
,  // measure 79
0010
0100
1000
0000
,  // measure 80
1000
0000
0000
0000
0000
0000
0000
0000
0100
0000
0000
0000
0000
0000
0010
0100
,  // measure 81
0020
0000
0000
0000
0130
0000
0000
0001
,  // measure 82
1000
0000
0100
0000
1000
0000
0000
0010
,  // measure 83
0100
0000
0001
0000
1000
0000
0000
0001
,  // measure 84
1000
0000
0010
0000
1000
0000
0000
0010
,  // measure 85
0100
0000
0001
0000
1000
0000
0000
0100
,  // measure 86
1000
0000
0001
0000
0010
0000
0000
0100
,  // measure 87
0010
0000
0001
0000
1000
0000
0000
0010
,  // measure 88
0100
0001
2000
0000
,  // measure 89
3001
0000
0000
0000
0010
0000
0000
0010
,  // measure 90
0100
0000
0010
0000
1000
0000
0000
0010
,  // measure 91
1000
0000
0010
0000
1000
0000
0000
0001
,  // measure 92
0010
0000
0100
0000
0010
0000
0000
0001
,  // measure 93
1000
0000
0010
0000
0100
0000
0000
0010
,  // measure 94
1000
0000
0001
0000
0010
0000
0000
0100
,  // measure 95
1000
0000
0001
0000
0100
0000
0000
0010
,  // measure 96
1000
0001
0020
0000
,  // measure 97
0031
0000
0000
0000
;

//---------------dance-single - Copied from Copied f----------------
#NOTEDATA:;
#CHARTNAME:Copied from Copied f;
#STEPSTYPE:dance-single;
#DESCRIPTION:Copied from Copied f;
#CHARTSTYLE:;
#DIFFICULTY:Medium;
#METER:5;
#RADARVALUES:0.221263,0.315920,0.014475,0.079613,0.007238,214.000000,212.000000,2.000000,11.000000,0.000000,0.000000,0.000000,0.000000,0.000000,0.221263,0.315920,0.014475,0.079613,0.007238,214.000000,212.000000,2.000000,11.000000,0.000000,0.000000,0.000000,0.000000,0.000000;
#CREDIT:Copied from Copied f;
#NOTES:
0000
0000
0000
0000
,
0000
0000
0000
0000
,
0000
0000
0000
0000
,
0000
0000
0000
0000
,
0000
0000
0000
0000
,
0000
0000
0000
0000
,
0000
0000
0000
0000
,
0000
0000
0000
0000
,
0000
0000
0000
0000
,
1000
0000
0000
1000
,
0001
0000
0000
0001
,
1000
0000
0000
1000
,
0001
0000
0001
0000
,
0001
0000
0000
1000
,
0001
0000
0000
0001
,
1000
0000
0000
1000
,
0001
0000
0001
0000
,
0001
0000
0000
1000
,
0010
0000
0000
0100
,
0010
0000
0000
1000
,
0001
0000
0000
1000
,
0001
0000
0000
1000
,
0001
0000
0000
0010
,
0100
0000
0100
0000
,
0100
0100
0100
0000
,
1000
0000
0001
0000
,
1000
0010
1000
0000
,
0001
0000
1000
0000
,
0100
0010
0001
0000
,
1000
0000
0001
0000
,
0100
1000
0001
0000
,
0010
0000
0100
0000
,
1000
0001
1000
0000
,
1000
0000
0100
0000
,
1000
0001
1000
0000
,
0010
0000
0100
0000
,
0010
0100
0010
0000
,
0002
0000
2003
0000
,
3200
0000
0320
0000
,
0031
0001
0001
0001
,
1000
1000
1000
1000
,
0100
0000
1000
0000
,
0001
1000
0010
0000
,
1000
0000
0001
0000
,
1000
0010
1000
0000
,
0001
0000
0100
0000
,
0010
0001
0010
0000
,
1000
0000
0001
0000
,
1000
0001
1000
0000
,
0010
0000
0100
0000
,
0010
0100
0010
0000
,
1000
0000
0001
0000
,
1000
0001
1000
0000
,
0001
0000
0010
0000
,
0001
0010
0001
0000
,
0100
0000
1000
0000
,
0010
0100
0010
0000
,
1000
0000
1000
0000
,
1000
0000
1000
0000
,
1000
0000
1000
0000
,
1000
0000
1000
0000
,
1000
1000
1000
1000
,
1000
1000
1000
1000
,
0200
0300
0020
0030
,
0002
0000
0000
0000
,
0003
0000
0000
0000
0000
0000
0000
0000
0000
1001
0000
0000
0000
0000
0000
0000
0000
0000
1001
0000
0000
0000
0000
0000
0000
0000
0000
0000
0000
0000
0000
0000
,
1000
0000
0100
0000
,
1000
0000
0010
0000
,
0001
0000
0010
0001
,
0010
0000
0100
0000
,
1000
0000
0010
0000
,
0001
0000
0010
0000
,
0100
0000
0010
0100
,
0010
0000
1000
0000
,
0001
0000
1000
0000
,
0010
0000
0100
0000
,
0001
0000
0010
0001
,
0010
0000
2000
0000
,
3200
0000
0320
0000
,
0032
0000
1003
1000
,
1000
0000
0100
0010
,
0100
0000
0001
0000
,
1000
0000
0001
1000
,
0001
0000
0010
0000
,
0100
0000
0010
0100
,
0010
0000
0001
0000
,
1000
0000
0001
1000
,
0001
0000
0010
0000
,
0100
0000
0010
0100
,
0010
0000
1000
0000
,
0001
0000
1000
0001
,
1000
0000
0010
0000
,
0001
0000
0100
0001
,
0100
0000
1000
0000
,
0001
0000
1000
0010
,
1000
0000
0100
0000
,
1000
0000
0001
1000
,
0001
0000
0000
0000
;

//---------------dance-single - Copied from Copied f----------------
#NOTEDATA:;
#CHARTNAME:Copied from Copied f;
#STEPSTYPE:dance-single;
#DESCRIPTION:Copied from Copied f;
#CHARTSTYLE:;
#DIFFICULTY:Easy;
#METER:2;
#RADARVALUES:0.183007,0.315920,0.014475,0.057901,0.007238,177.000000,175.000000,2.000000,8.000000,0.000000,0.000000,0.000000,0.000000,0.000000,0.183007,0.315920,0.014475,0.057901,0.007238,177.000000,175.000000,2.000000,8.000000,0.000000,0.000000,0.000000,0.000000,0.000000;
#CREDIT:Copied from Copied f;
#NOTES:
0000
0000
0000
0000
,
0000
0000
0000
0000
,
0000
0000
0000
0000
,
0000
0000
0000
0000
,
0000
0000
0000
0000
,
0000
0000
0000
0000
,
0000
0000
0000
0000
,
0000
0000
0000
0000
,
0000
0000
0000
0000
,
1000
0000
0000
1000
,
0001
0000
0000
0001
,
1000
0000
0000
1000
,
0001
0000
0001
0000
,
0001
0000
0000
1000
,
0001
0000
0000
0001
,
1000
0000
0000
1000
,
0001
0000
0001
0000
,
0001
0000
0000
1000
,
0001
0000
0000
1000
,
0001
0000
0000
1000
,
0001
0000
0000
1000
,
0001
0000
0000
1000
,
0001
0000
0000
1000
,
0200
0000
0000
0000
,
0000
0000
0000
0300
,
0001
0000
1000
0000
,
0010
0000
0100
0000
,
0001
0000
1000
0000
,
0010
0000
0100
0000
,
1000
0000
0001
0000
,
1000
0000
0010
0000
,
0100
0000
0010
0000
,
0100
0000
0100
0000
,
0010
0000
0001
0000
,
1000
0000
0010
0000
,
1000
0000
0001
0000
,
1000
0000
0010
0000
,
0100
0000
0000
1000
,
0001
0000
0001
0000
,
0010
0000
0100
0000
,
0020
0000
0000
0030
,
1000
0000
1000
0000
,
0001
0000
0100
0000
,
0001
0000
0010
0000
,
1000
0000
0100
0000
,
1000
0000
0001
0000
,
0010
0000
0001
0000
,
0100
0000
0001
0000
,
1000
0000
0010
0000
,
0100
0000
0001
0000
,
0100
0000
1000
0000
,
0100
0000
0001
0000
,
0100
0000
0010
0000
,
1000
0000
0100
0000
,
1000
0000
0001
0000
,
1000
0000
0010
0000
,
0100
0000
0100
0000
,
0100
0000
1000
0000
,
1000
0000
1000
0000
,
1000
0000
1000
0000
,
1000
0000
1000
0000
,
1000
1000
1000
1000
,
1000
1000
1000
1000
,
0200
0300
0020
0030
,
0002
0000
0000
0000
,
0003
0000
0000
0000
0000
0000
0000
0000
0000
1001
0000
0000
0000
0000
0000
0000
0000
0000
1001
0000
0000
0000
0000
0000
0000
0000
0000
0000
0000
0000
0000
0000
,
1000
0000
0001
0000
,
0010
0000
0100
0000
,
0010
0000
1000
0000
,
0002
0003
1000
0000
,
0010
0000
0100
0000
,
1000
0000
0010
0000
,
0100
0000
0010
0000
,
2000
3000
0100
0000
,
1000
0000
0001
0000
,
0010
0000
0001
0000
,
0100
0000
0010
0000
,
0002
0003
1000
0000
,
0100
0000
0010
0000
,
1000
0000
0001
0000
,
0001
0000
0001
0000
,
0000
0000
1000
0000
,
0100
0000
1000
0000
,
0010
0000
0100
0000
,
0010
0000
0001
0000
,
1000
0000
0100
0000
,
0010
0000
0001
0000
,
1000
0000
0100
0000
,
1000
0000
0001
0000
,
0010
0000
0100
0000
,
0001
0000
1000
0000
,
0100
0000
0001
0000
,
0010
0000
1000
0000
,
0100
0000
1000
0000
,
0001
0000
0010
0000
,
0100
0000
1000
0000
,
0001
0000
1000
0000
,
1000
0000
0000
0000
;

//---------------dance-single - Copied from Copied f----------------
#NOTEDATA:;
#CHARTNAME:Copied from Copied f;
#STEPSTYPE:dance-single;
#DESCRIPTION:Copied from Copied f;
#CHARTSTYLE:;
#DIFFICULTY:Beginner;
#METER:1;
#RADARVALUES:0.130276,0.315920,0.014475,0.057901,0.007238,126.000000,124.000000,2.000000,8.000000,0.000000,0.000000,0.000000,0.000000,0.000000,0.130276,0.315920,0.014475,0.057901,0.007238,126.000000,124.000000,2.000000,8.000000,0.000000,0.000000,0.000000,0.000000,0.000000;
#CREDIT:Copied from Copied f;
#NOTES:
0000
0000
0000
0000
,
0000
0000
0000
0000
,
0000
0000
0000
0000
,
0000
0000
0000
0000
,
0000
0000
0000
0000
,
0000
0000
0000
0000
,
0000
0000
0000
0000
,
0000
0000
0000
0000
,
0000
0000
0000
0000
,
1000
0000
0000
1000
,
0001
0000
0000
0001
,
1000
0000
0000
1000
,
0001
0000
0001
0000
,
0001
0000
0000
1000
,
0001
0000
0000
0001
,
1000
0000
0000
1000
,
0001
0000
0001
0000
,
0001
0000
0000
1000
,
0001
0000
0000
1000
,
0001
0000
0000
1000
,
0001
0000
0000
1000
,
0001
0000
0000
1000
,
0001
0000
0000
1000
,
0200
0000
0000
0000
,
0000
0000
0000
0300
,
0001
0000
0000
0000
,
0010
0000
0000
0000
,
0001
0000
0000
0000
,
0010
0000
0000
0000
,
1000
0000
0000
0000
,
1000
0000
0000
0000
,
0100
0000
0000
0000
,
0100
0000
0000
0000
,
0010
0000
0000
0000
,
1000
0000
0000
0000
,
1000
0000
0000
0000
,
1000
0000
0000
0000
,
0100
0000
0000
1000
,
0001
0000
0001
0000
,
0010
0000
0100
0000
,
0020
0000
0000
0030
,
1000
0000
0000
0000
,
0001
0000
0000
0000
,
0001
0000
0000
0000
,
1000
0000
0000
0000
,
1000
0000
0000
0000
,
0010
0000
0000
0000
,
0100
0000
0000
0000
,
1000
0000
0000
0000
,
0100
0000
0000
0000
,
0100
0000
0000
0000
,
0100
0000
0000
0000
,
0100
0000
0000
0000
,
1000
0000
0000
0000
,
1000
0000
0000
0000
,
1000
0000
0010
0000
,
0100
0000
0100
0000
,
0100
0000
1000
0000
,
1000
0000
1000
0000
,
1000
0000
1000
0000
,
1000
0000
1000
0000
,
1000
1000
1000
1000
,
1000
1000
1000
1000
,
0200
0300
0020
0030
,
0002
0000
0000
0000
,
0003
0000
0000
0000
0000
0000
0000
0000
0000
1001
0000
0000
0000
0000
0000
0000
0000
0000
1001
0000
0000
0000
0000
0000
0000
0000
0000
0000
0000
0000
0000
0000
,
1000
0000
0000
0000
,
0010
0000
0000
0000
,
0010
0000
0000
0000
,
0002
0003
0000
0000
,
0010
0000
0000
0000
,
1000
0000
0000
0000
,
0100
0000
0000
0000
,
2000
3000
0000
0000
,
1000
0000
0000
0000
,
0010
0000
0000
0000
,
0100
0000
0000
0000
,
0002
0003
0000
0000
,
0100
0000
0000
0000
,
1000
0000
0000
0000
,
0001
0000
0000
0000
,
0000
0000
1000
0000
,
0000
0000
1000
0000
,
0000
0000
0100
0000
,
0000
0000
0001
0000
,
1000
0000
0000
0000
,
0010
0000
0000
0000
,
1000
0000
0000
0000
,
1000
0000
0000
0000
,
0010
0000
0000
0000
,
0001
0000
1000
0000
,
0000
0000
0001
0000
,
0010
0000
1000
0000
,
0000
0000
1000
0000
,
0001
0000
0010
0000
,
0100
0000
1000
0000
,
0001
0000
1000
0000
,
1000
0000
0000
0000
;
