#TITLE:Lips Are Movin;
#SUBTITLE:;
#ARTIST:Meghan Trainor;
#TITLETRANSLIT:;
#SUBTITLETRANSLIT:;
#ARTISTTRANSLIT:;
#GENRE:;
#CREDIT:;
#BANNER:AV.avi;
#BACKGROUND:LAM-bg.png;
#LYRICSPATH:;
#CDTITLE:cdtitle.png;
#MUSIC:Meghan Trainor - Lips Are Movin.mp3;
#OFFSET:-0.234000;
#SAMPLESTART:41.619999;
#SAMPLELENGTH:12.000000;
#SELECTABLE:YES;
#BPMS:0.000000=139.000000
,190.000000=69.500000
,206.000000=139.000000
;
#STOPS:92.000000=0.880000
;
#BGCHANGES:0.000=MV.avi=1.000=1=1=1=StretchRewind==CrossFade==,
99999=-nosongbg-=1.000=0=0=0 // don't automatically add -songbackground-
;
#KEYSOUNDS:;
#ATTACKS:;

//---------------dance-single - ----------------
#NOTES:
     dance-single:
     :
     Challenge:
     15:
     0.585750,0.672047,0.283386,0.318810,0.177117,463.000000,431.000000,32.000000,36.000000,0.000000,0.000000,0.585750,0.672047,0.283386,0.318810,0.177117,463.000000,431.000000,32.000000,36.000000,0.000000,0.000000:
0000
0000
0000
0000
,
0000
0000
0000
0000
,
0000
0000
0000
0000
,
0000
0000
0000
0000
,
1100
0000
0000
0000
0000
0010
0000
0010
,
0100
0000
0000
0000
0000
1000
0000
1000
,
0001
0000
0000
0000
0000
0010
0000
0010
,
0100
0100
0100
1001
,
0010
0000
1000
0000
0010
0100
0001
0000
0010
0000
0100
0000
1000
0000
0000
0000
,
1000
0100
0010
0100
1000
0000
0100
0010
0100
0000
0001
0000
0110
0000
0001
0000
,
0000
0000
1000
0100
0010
0000
0100
0010
0100
0000
0001
0010
0000
0000
1200
0000
,
0000
0000
1300
0000
0100
0000
0010
0000
0100
0000
0010
0000
0100
0010
0100
0001
,
1000
0000
0010
0100
0000
0000
0100
1000
0010
0000
0010
0100
0000
0000
0010
0000
,
0100
0000
0010
1000
0000
0100
1000
0000
1000
0100
0000
0100
0000
0000
0000
0010
,
0100
0000
1000
0100
0000
0000
0100
0000
0010
0000
1000
0001
0000
0000
1000
0000
,
0100
0000
0010
0000
0100
0000
1000
0010
0000
0000
1000
0000
0010
0000
0100
0000
,
0102
1000
0010
1000
0100
1000
1000
0010
,
0203
1000
1000
0010
0001
1000
0010
0301
,
0102
1000
0100
0010
0100
1000
0100
0013
,
1200
0010
0001
1000
0001
0010
1000
0310
,
0002
0100
1000
0100
0010
0100
1000
0103
,
0210
1000
0001
0010
1000
0001
1000
0310
,
1002
0100
0010
0100
1000
0100
0013
0100
,
1100
0000
0000
0000
1000
0100
1000
0020
,
0130
0001
1000
0100
0010
0001
1000
0020
,
1030
0001
2000
3010
0100
0001
1000
0100
,
1000
0010
1000
0001
0010
0100
1000
0001
,
1000
0001
1000
0010
0100
0001
1000
0200
,
1300
0010
0100
0010
1000
0100
0010
0200
,
0301
0010
0200
1300
0001
0100
0010
1000
,
0001
0010
0100
0010
0001
1000
0010
1000
,
0001
1000
0100
0010
1100
1000
0200
0320
,
0031
0010
0100
0010
0001
0100
0010
0100
,
2000
3100
2000
3100
1100
0010
0100
1000
,
0100
0010
0100
0010
0100
1000
0010
0100
,
0010
0100
0010
1000
1001
0001
1000
0020
,
0130
0001
1000
0010
0100
1000
0001
0020
,
1030
0100
0020
0031
0110
1000
0100
0010
,
0001
1000
0010
0100
0010
0100
0001
1000
,
0100
1000
0001
0010
1002
1000
0100
0010
,
0100
1000
0100
0013
2100
0010
0100
0010
,
0001
0100
0010
3001
0102
1000
0100
0010
,
0100
1000
0100
0013
0210
1000
0001
1000
,
0010
0001
0010
0301
0102
1000
0100
0010
,
0100
1000
0100
0013
0210
1000
0001
0010
,
1000
0001
0010
1300
0102
1000
0100
0010
,
0100
1000
0100
0013
1200
1000
1000
0010
,
0001
0000
1000
0000
0310
0000
1000
0000
0001
0000
1000
1000
0000
1000
0100
0010
,
0100
0000
1000
1000
0000
0001
1000
0000
0100
0000
0010
0010
0000
0010
0100
0001
,
1000
0000
1000
1000
0000
0000
0010
0000
1000
0000
0001
0100
0000
0100
0100
0010
,
1000
0000
1000
1000
0000
0100
0001
0000
0100
0000
0010
0010
0000
0000
0001
0110
,
0000
0101
0000
0110
0000
1000
0100
0010
2100
0000
0001
0000
0010
0000
0100
0000
,
0010
0001
0010
3100
0012
0010
0010
0100
,
1000
0010
0100
1003
2010
0001
0010
0100
,
0010
0001
0010
3100
0120
0001
1000
0001
,
0100
0001
0100
1030
2010
0001
0010
0100
,
0010
0001
0010
3100
0120
0001
1000
0100
,
0001
1000
0100
0031
2010
0001
0010
0100
,
0010
0001
0010
3100
0000
0000
0000
0000
;

//---------------dance-single - Copied from----------------
#NOTES:
     dance-single:
     Copied from:
     Hard:
     11:
     0.507312,0.541645,0.000000,0.132837,0.075275,401.000000,401.000000,0.000000,15.000000,0.000000,0.000000,0.507312,0.541645,0.000000,0.132837,0.075275,401.000000,401.000000,0.000000,15.000000,0.000000,0.000000:
// measure 0
0000
0000
0000
0000
,  // measure 1
0000
0000
0000
0000
,  // measure 2
0000
0000
0000
0000
,  // measure 3
0000
0000
0000
0000
,  // measure 4
1000
0000
0000
0000
0000
1000
0000
1000
,  // measure 5
0100
0000
0000
0000
0000
0010
0000
0010
,  // measure 6
0001
0000
0000
0000
0000
1000
0000
1000
,  // measure 7
0001
0001
0001
0100
,  // measure 8
0010
1000
0100
0010
0001
1000
0001
0000
,  // measure 9
0100
0100
0010
0010
1000
0001
1000
0000
,  // measure 10
0100
0010
0001
1000
0010
0100
0001
1000
,  // measure 11
0100
0100
0010
0010
0001
1000
0100
1000
,  // measure 12
0010
0100
0001
1000
0100
0010
0001
1000
,  // measure 13
0010
0010
1000
1000
0100
0010
0001
0000
,  // measure 14
1000
0010
0100
0001
1000
0100
0010
0001
,  // measure 15
0001
1000
0100
1000
0010
0000
0100
0000
,  // measure 16
1000
0100
1000
0100
1000
0100
1000
0100
,  // measure 17
1000
0010
1000
0010
1000
0010
1000
0010
,  // measure 18
1000
0001
1000
0001
1000
0001
1000
0001
,  // measure 19
1000
0100
1000
0100
1000
0100
1000
0100
,  // measure 20
0010
0100
0010
0100
0010
0100
0010
0100
,  // measure 21
0010
0001
0010
0001
0010
0001
0010
0001
,  // measure 22
0010
1000
0010
1000
0010
1000
0010
1000
,  // measure 23
1000
0000
0000
0000
0100
0010
0100
0010
,  // measure 24
0100
0010
0100
0010
0100
0001
0100
0001
,  // measure 25
0100
0001
0100
0001
0100
1000
0100
1000
,  // measure 26
0100
1000
0100
1000
0100
0010
0100
0010
,  // measure 27
0100
0010
0100
0010
0001
0010
0001
0010
,  // measure 28
0001
0010
0001
0010
0001
0100
0001
0100
,  // measure 29
0001
0100
0001
0100
0001
1000
0001
1000
,  // measure 30
0001
1000
0001
1000
0010
1000
0010
1000
,  // measure 31
0010
1000
0010
1000
0100
0010
0100
0010
,  // measure 32
0100
0010
0100
0010
0100
1000
0100
1000
,  // measure 33
0100
1000
0100
1000
0010
1000
0010
1000
,  // measure 34
0010
1000
0010
1000
0001
0100
0001
0100
,  // measure 35
0001
0100
0001
0100
0001
0010
0001
0010
,  // measure 36
0001
0010
0001
0010
0001
1000
0001
1000
,  // measure 37
0001
1000
0001
1000
0100
0010
0001
1000
,  // measure 38
0010
0100
0001
1000
0100
0010
0001
1000
,  // measure 39
0010
0100
0001
1000
0002
1000
0100
0010
,  // measure 40
1000
0100
0010
0003
2000
0100
0010
0001
,  // measure 41
0100
0010
3001
0000
0002
0010
1000
0100
,  // measure 42
0010
1000
0013
0000
0200
0010
1000
0010
,  // measure 43
1000
0010
1300
0000
2000
0010
0001
0100
,  // measure 44
0001
0010
3001
0000
0002
1000
0010
1000
,  // measure 45
0100
0010
0103
0000
2000
0010
0001
0100
,  // measure 46
0010
0001
3010
0000
0002
1000
0010
1000
,  // measure 47
0100
0000
0010
0000
0103
0000
0000
0000
1000
0000
0001
0001
0000
1000
0001
0000
,  // measure 48
0100
0000
0010
0010
0000
0100
0010
0000
1000
0000
0010
0010
0000
1000
0010
0000
,  // measure 49
0100
0000
0001
0001
0000
0000
0001
0000
1000
0000
0100
0100
0000
0100
0010
0000
,  // measure 50
0001
0000
0001
0001
0000
0001
1000
0000
0010
0000
0010
0010
0000
0000
0100
0001
,  // measure 51
0000
0001
0000
0001
0000
1000
0001
1000
0020
0000
0100
0000
0001
0000
1000
0000
,  // measure 52
0100
0001
1030
0000
0200
0001
1000
0010
,  // measure 53
0001
1000
0310
0000
0020
1000
0100
0001
,  // measure 54
1000
0100
1030
0000
0002
1000
0100
1000
,  // measure 55
0100
1000
0103
0000
0200
1000
0010
0001
,  // measure 56
0010
1000
0310
0000
0020
0100
1000
0100
,  // measure 57
0001
1000
0031
0000
0200
1000
0010
0001
,  // measure 58
1000
0010
1300
0000
0000
0000
0000
0000
;

//---------------dance-single - Copied from Copied f----------------
#NOTES:
     dance-single:
     Copied from Copied f:
     Medium:
     6:
     0.328931,0.335304,0.000000,0.079702,0.000000,260.000000,260.000000,0.000000,9.000000,0.000000,0.000000,0.328931,0.335304,0.000000,0.079702,0.000000,260.000000,260.000000,0.000000,9.000000,0.000000,0.000000:
0000
0000
0000
0000
,
0000
0000
0000
0000
,
0000
0000
0000
0000
,
0000
0000
0000
0000
,
1000
0000
0000
0000
0000
0100
0000
0100
,
1000
0000
0000
0000
0000
0010
0000
0010
,
0100
0000
0000
0000
0000
0001
0000
0001
,
1000
1000
1000
0100
,
1000
0000
1000
0000
0100
1000
0100
0000
,
0010
0000
0010
0000
0010
0001
0010
0000
,
1000
0001
1000
0000
0001
1000
0001
0000
,
0100
0010
0100
0000
0010
0100
0010
0000
,
1000
0000
1000
0000
0100
1000
0100
0000
,
0001
0000
0001
0000
0010
0001
0010
0000
,
0100
1000
0100
0000
1000
0001
1000
0000
,
0010
0100
0010
0000
0100
0000
0100
0000
,
0001
1000
0001
1000
0001
0000
0000
0000
,
0010
0100
0010
0100
0010
0000
0000
0000
,
1000
0100
1000
0100
1000
0000
0000
0000
,
0001
1000
0001
1000
0001
0000
0000
0000
,
0010
0001
0010
0001
0010
0000
0000
0000
,
0010
0100
0010
0100
0010
0000
0000
0000
,
1000
0001
1000
0001
1000
0000
0000
0000
,
0010
0000
0000
0000
0100
0000
0100
0010
,
0100
0000
0010
0000
1000
0000
1000
0010
,
1000
0000
0010
0000
0001
1000
0001
0000
,
1000
0001
1000
0000
0020
0000
0100
0000
,
0130
0000
0000
0000
1000
0001
1000
0000
,
0100
1000
0100
0000
0010
0100
0010
0000
,
0001
0000
0001
0000
1000
0100
1000
0000
,
0010
0100
0010
0000
1000
0000
0100
0000
,
0010
0000
0001
0000
1000
0001
1000
0000
,
0010
0100
0010
0000
1000
0001
1000
0000
,
0001
0010
0001
0000
1000
0100
1000
0000
,
0010
0100
0010
0000
2000
0000
0100
0000
,
3010
0000
0001
0000
0100
0001
0100
0000
,
1000
0010
1000
0000
0001
0010
0001
0000
,
1000
0100
1000
0000
0010
0000
0100
0000
,
0001
1000
0010
0100
,
0001
0000
1000
0000
1000
0100
1000
0100
,
2000
0000
0000
3000
0001
0100
0001
0100
,
0002
0000
0000
0003
1000
0001
1000
0001
,
2000
0000
0000
3000
0010
0000
0010
0000
,
0010
0000
0000
0000
0100
0010
0100
0010
,
0200
0000
0000
0300
0010
0100
0010
0100
,
0020
0000
0000
0030
1000
0001
1000
0001
,
2000
0000
0000
3000
0010
0000
0010
0000
,
0010
0000
0100
0010
,
0100
0001
1000
0001
,
1000
1000
1000
0000
0100
0000
0010
0000
,
1000
0001
1000
0001
,
0100
0100
0100
0000
0010
1000
0010
1000
,
0010
0000
0000
0000
0100
0001
0100
0001
,
0100
0000
1000
0100
,
0010
0100
0010
0000
0002
0000
1000
0000
,
0013
0000
0000
0000
1000
0100
1000
0100
,
1000
0000
0000
0000
0010
0001
0010
0001
,
0010
0000
1000
0010
,
0100
0001
0000
0000
;

//---------------dance-single - Copied from Copied f----------------
#NOTES:
     dance-single:
     Copied from Copied f:
     Easy:
     3:
     0.099944,0.180548,0.008856,0.000000,0.000000,79.000000,78.000000,1.000000,0.000000,0.000000,0.000000,0.099944,0.180548,0.008856,0.000000,0.000000,79.000000,78.000000,1.000000,0.000000,0.000000,0.000000:
0000
0000
0000
0000
,
1000
0000
0000
0000
,
1000
0000
0000
0000
,
0001
0001
0001
0001
,
0100
0000
0000
0000
,
1000
0000
0000
0000
,
0010
0000
0000
0000
,
0001
0001
0001
0001
,
0100
0000
0000
0000
,
1000
0000
0000
0000
,
1000
0000
0000
0000
,
0100
0000
0000
0000
,
1000
0000
1000
0000
,
1000
0000
0000
0000
,
0001
0000
0010
0000
,
0001
0000
0000
0000
,
0100
0000
0001
0000
,
1000
0000
0000
0000
,
1000
0000
0010
0000
,
0001
0000
0000
0000
,
1000
0000
0100
0000
,
1000
0000
0000
0000
,
0001
0000
0001
0000
,
0000
0000
0010
0000
,
0000
0000
0100
0000
,
0000
0000
1000
0000
,
0000
0000
0001
0000
,
0000
0000
1000
0000
,
0000
0000
0100
0000
,
0000
0000
0010
0000
,
0000
0000
0001
0000
,
0000
0000
1000
0000
,
0000
0000
0010
0000
,
0000
0000
0100
0000
,
0000
0000
0001
0000
,
0000
0000
1000
0000
,
0000
0000
0100
0000
,
0000
0000
0001
0000
,
0000
0000
0100
0000
,
0000
0000
0100
0000
,
0000
0000
0000
0000
,
0000
0000
0001
0000
,
0000
0000
1000
0000
,
0000
0000
0001
0000
,
0000
0000
0010
0000
,
0000
0000
1000
0000
,
0000
0000
0001
0000
,
0000
0000
1000
0000
,
1000
0000
0001
0000
,
0010
0000
1000
0000
,
0100
0000
0001
0000
,
0000
0000
1001
0000
,
0000
0000
1000
0000
,
0000
0000
1000
0000
,
0000
0000
0001
0000
,
0000
0000
1000
1000
,
1000
0000
0010
0010
,
0010
0000
1000
0001
,
1000
0001
0000
0000
;

//---------------dance-single - Copied from Copied f----------------
#NOTES:
     dance-single:
     Copied from Copied f:
     Beginner:
     1:
     0.083498,0.128963,0.000000,0.000000,0.000000,66.000000,66.000000,0.000000,0.000000,0.000000,0.000000,0.083498,0.128963,0.000000,0.000000,0.000000,66.000000,66.000000,0.000000,0.000000,0.000000,0.000000:
0000
0000
0000
0000
,
1000
0000
0000
0000
,
1000
0000
0000
0000
,
0001
0000
0000
0001
,
0100
0000
0000
0000
,
1000
0000
0000
0000
,
0010
0000
0000
0000
,
0001
0000
0000
0001
,
0100
0000
0000
0000
,
1000
0000
0000
0000
,
1000
0000
0000
0000
,
0100
0000
0000
0000
,
1000
0000
0000
0000
,
1000
0000
0000
0000
,
0001
0000
0000
0000
,
0001
0000
0000
0000
,
0100
0000
0000
0000
,
1000
0000
0000
0000
,
1000
0000
0000
0000
,
0001
0000
0000
0000
,
1000
0000
0000
0000
,
1000
0000
0000
0000
,
0001
0000
0001
0000
,
0000
0000
0010
0000
,
0000
0000
0100
0000
,
0000
0000
1000
0000
,
0000
0000
0001
0000
,
0000
0000
1000
0000
,
0000
0000
0100
0000
,
0000
0000
0010
0000
,
0000
0000
0001
0000
,
0000
0000
1000
0000
,
0000
0000
0010
0000
,
0000
0000
0100
0000
,
0000
0000
0001
0000
,
0000
0000
1000
0000
,
0000
0000
0100
0000
,
0000
0000
0001
0000
,
0000
0000
0100
0000
,
0000
0000
0100
0000
,
0000
0000
0000
0000
,
0000
0000
0001
0000
,
0000
0000
1000
0000
,
0000
0000
0001
0000
,
0000
0000
0010
0000
,
0000
0000
1000
0000
,
0000
0000
0001
0000
,
0000
0000
1000
0000
,
1000
0000
0001
0000
,
0010
0000
1000
0000
,
0100
0000
0001
0000
,
0000
0000
0001
0000
,
0000
0000
1000
0000
,
0000
0000
1000
0000
,
0000
0000
0001
0000
,
0000
0000
1000
0000
,
1000
0000
0010
0000
,
0010
0000
1000
0000
,
1000
0001
0000
0000
;
